#TITLE:Sorry Not Sorry;
#SUBTITLE:;
#ARTIST:ITZY;
#TITLETRANSLIT:;
#SUBTITLETRANSLIT:;
#ARTISTTRANSLIT:;
#GENRE:;
#CREDIT:;
#BANNER:;
#BACKGROUND:;
#LYRICSPATH:;
#CDTITLE:;
#MUSIC:Sorry Not Sorry.ogg;
#OFFSET:0.011563;
#SAMPLESTART:51.579899;
#SAMPLELENGTH:13.913000;
#SELECTABLE:YES;
#DISPLAYBPM:79.000000;
#BPMS:0.000000=78.996002
,67.500000=78.500000
,68.000000=78.996002
,99.500000=78.500000
,100.000000=78.996002
,116.000000=78.959999
,132.000000=79.000000
,164.000000=78.900002
,168.000000=78.996002
;
#STOPS:
;
#BGCHANGES:;
#KEYSOUNDS:;
#ATTACKS:;

//---------------dance-single - ----------------
#NOTES:
     dance-single:
     :
     Hard:
     13:
     0.570851,0.572697,0.421030,0.421030,0.646855,522.000000,467.000000,55.000000,55.000000,0.000000,0.000000,0.570851,0.572697,0.421030,0.421030,0.646855,522.000000,467.000000,55.000000,55.000000,0.000000,0.000000:
// measure 0
0000
0000
0000
0000
,  // measure 1
0000
0000
0000
0000
,  // measure 2
0000
0000
0000
0000
,  // measure 3
2100
0000
0000
3001
0000
0010
0100
0000
1000
0010
0000
0100
0101
0000
0000
0102
0000
0000
1003
0000
0000
0000
0000
0000
,  // measure 4
0102
0000
0000
1003
0000
0100
0010
0000
0001
0100
0000
0010
1010
0000
0000
1010
0000
0000
1100
0000
0000
2100
0000
0000
,  // measure 5
3001
0000
0100
0010
0000
0100
0002
0000
0000
1003
0000
0100
0010
0000
0100
1000
0000
0010
0200
0000
0000
1300
0000
0000
,  // measure 6
0100
0000
0010
1000
0000
0010
0200
0000
0000
0310
0000
0100
0001
0000
0010
0100
0000
0010
0002
0000
0000
1003
0000
0000
,  // measure 7
0001
0000
0010
0100
0000
0010
0002
0000
0000
1003
0000
0010
0100
0000
0010
1000
0000
0100
0020
0000
0000
1030
0000
0000
,  // measure 8
0010
0000
0100
1000
0000
0100
0020
0000
0000
0130
0000
0010
0001
0000
0100
0010
0000
0100
0002
0000
0000
1003
0000
0000
,  // measure 9
2001
0000
0000
3010
0000
0000
1000
0100
0000
0010
0001
0000
0100
0010
0000
1000
0100
0000
0020
0000
0000
0031
0000
0000
,  // measure 10
1002
0000
0000
0103
0000
0000
0001
0100
0000
0010
1000
0000
0100
0010
0000
0001
0100
0000
0020
0000
0000
0130
0000
0000
,  // measure 11
1002
0000
0000
0103
0000
0000
0010
1000
0000
0100
0010
0000
0001
0010
0000
0100
1000
0000
0002
0000
0000
1003
0000
0000
,  // measure 12
2010
0000
0000
0001
0000
0000
3001
0000
0000
1100
0000
0000
1200
0000
0000
0010
0000
0000
0302
0000
0000
0103
0000
1000
,  // measure 13
0010
0000
0000
0102
0000
0000
1000
0000
0000
0103
0000
0100
0010
0000
0010
1000
0000
0000
0002
0000
0000
0013
0000
0001
,  // measure 14
0100
0000
0000
2010
0000
0000
0001
0000
0000
3100
0000
0100
0010
0000
0010
0001
0000
0000
2000
0000
0000
3010
0000
1000
,  // measure 15
0100
0000
0000
0012
0000
0000
1000
0000
0000
0103
0000
0100
0010
0000
0000
2000
0000
0000
3002
0000
0000
1003
0000
0100
,  // measure 16
0010
0000
0000
0011
0000
0000
1001
0000
0000
1000
0000
0010
0110
0000
0000
0110
0000
0000
1010
0000
0000
0101
0000
0000
,  // measure 17
1100
0000
0001
0100
0000
0001
0100
0000
0000
0200
0000
0310
1000
0000
1000
0100
0010
0100
0020
0000
0000
0130
0000
0010
,  // measure 18
0001
0000
0001
0100
0010
0100
0020
0000
0000
1030
0000
1000
0001
0000
0000
0010
0100
0010
0200
0000
0000
1300
0000
0010
,  // measure 19
0210
0000
0000
0000
0000
0000
0301
0000
0000
1000
0000
0001
0100
0000
0001
0010
0000
0010
0100
0000
0000
0110
0000
0000
,  // measure 20
1000
0000
0001
0100
0000
0010
1000
0000
0000
1001
0000
0000
0001
0000
1000
0100
0000
0010
0001
0000
0000
1001
0000
0000
,  // measure 21
0101
0000
0001
0100
0010
0100
0020
0000
0000
1030
0000
0100
0010
0000
0010
0001
1000
0001
2000
0000
0000
3001
0000
1000
,  // measure 22
0010
0000
0010
0100
0001
0100
0002
0000
0000
1003
0000
0001
0010
0000
0010
0100
1000
0100
2000
0000
0000
3001
0000
0100
,  // measure 23
0120
0000
0000
0000
0000
0000
1030
0000
0000
0001
0000
0010
0100
0000
0010
0001
0000
0001
1000
0000
0000
1001
0000
0000
,  // measure 24
1000
0000
0100
0010
0000
0001
0100
0000
0000
1010
0000
0000
0001
0000
0100
0010
0000
1000
0100
0000
0000
0011
0000
0000
,  // measure 25
1000
0000
0100
0010
0100
1000
0000
0000
0010
0000
0010
0100
0001
0100
0000
0000
,  // measure 26
0010
0000
0010
1000
0001
0000
0001
0010
0100
0000
0100
1000
0001
0010
0000
0000
,  // measure 27
0001
0000
0100
0010
0100
1000
0000
0000
0100
0000
0100
0010
0100
0001
0000
0000
,  // measure 28
0010
0000
0010
0100
1000
0000
1000
0010
0100
0000
0100
0001
0010
0100
0000
0000
,  // measure 29
0011
0000
1000
0001
1000
0010
0000
0000
1010
0000
0001
1000
0001
0010
0000
0000
,  // measure 30
0110
0000
1000
0100
0001
0000
0001
0100
1000
0000
1000
0001
0100
0010
0000
0000
,  // measure 31
1010
0000
1000
0010
0001
0000
0001
0010
1000
0000
1000
0001
0010
0100
0000
1000
,  // measure 32
0001
0001
0100
0001
1000
1000
0100
1000
0010
0000
1010
0000
0110
0000
1001
0000
,  // measure 33
1010
0000
0001
0100
0000
0001
2000
0000
0000
3100
0000
0010
0001
0000
0010
1000
0000
0010
0200
0000
0000
1300
0000
0000
,  // measure 34
0011
0000
1000
0100
0000
1000
0002
0000
0000
0103
0000
0010
1000
0000
0010
0001
0000
0010
0200
0000
0000
0301
0000
0000
,  // measure 35
1100
0000
0001
0010
0000
0001
2000
0000
0000
3010
0000
0100
0001
0000
0100
1000
0000
0100
0020
0000
0000
1030
0000
0000
,  // measure 36
0101
0000
1000
0010
0000
1000
0002
0000
0000
0013
0000
0100
1000
0000
0100
0001
0000
0100
0020
0000
0000
0031
0000
0000
,  // measure 37
0011
0000
1000
0010
0000
1000
0010
0000
0000
0020
0000
0130
0001
0000
0001
0010
0100
0010
0200
0000
0000
0310
0000
0100
,  // measure 38
1000
0000
1000
0010
0100
0010
0200
0000
0000
0301
0000
0001
1000
0000
0000
0100
0010
0100
0020
0000
0000
0031
0000
0100
,  // measure 39
0120
0000
0000
0000
0000
0000
1030
0000
0000
0001
0000
1000
0010
0000
1000
0100
0000
0100
0010
0000
0000
0110
0000
0000
,  // measure 40
0011
0000
1000
0100
0000
0001
0100
0000
0000
0110
0000
0000
1100
0000
0001
0100
0000
1000
0100
0000
0000
0110
0000
0000
,  // measure 41
2020
0000
0000
0000
0000
0000
0000
3030
,  // measure 42
0210
0000
0000
0301
0000
0010
0100
0000
1000
0010
0000
0100
0101
0000
0000
0102
0000
0000
1003
0000
0000
0000
0000
0000
;

//---------------dance-single - ----------------
#NOTES:
     dance-single:
     :
     Medium:
     10:
     0.387129,0.474520,0.459306,0.252618,0.084206,354.000000,294.000000,60.000000,33.000000,0.000000,0.000000,0.387129,0.474520,0.459306,0.252618,0.084206,354.000000,294.000000,60.000000,33.000000,0.000000,0.000000:
0000
0000
0000
0000
,
0000
0000
0000
0000
,
0000
0000
0000
0000
,
0000
0000
0000
0000
,
0000
0000
0000
0000
,
0011
1000
0010
0100
0010
1000
0200
0310
,
1100
0001
0100
0010
0100
0001
0020
0130
,
0110
1000
0001
1000
0010
0100
0020
1030
,
0110
0001
1000
0001
0010
0100
0020
0031
,
1002
0000
0103
0010
1000
0100
0020
0130
,
2100
0000
3001
0100
1000
0100
0001
0010
,
0210
0000
1300
0100
0001
0100
2000
0000
,
3002
0100
0103
0010
0020
2030
3002
0023
,
0130
2000
0000
3001
0100
0010
1000
1001
,
0001
0020
0000
0130
0010
0001
0100
0110
,
1000
0002
0000
1003
0100
0010
0110
0010
,
0001
0001
1000
0001
0100
0110
1001
0110
,
1001
1001
0100
0100
1010
1010
0001
0001
,
1100
1100
0010
0010
1001
1001
0100
0100
,
2010
0000
3001
0000
0100
0001
0010
0110
,
1000
0000
0001
0100
0000
0001
0100
0000
0000
0020
0000
0000
1030
0000
0001
0010
0000
0001
0020
0000
0000
0130
0000
0000
,
1001
1001
0010
0010
0101
0101
1000
1000
,
0011
0011
0100
0100
1001
1001
0010
0010
,
0102
0000
1003
0000
0010
1000
0100
0110
,
0001
0000
1000
0010
0000
1000
0010
0000
0000
0200
0000
0000
0301
0000
1000
0100
0000
1000
0200
0000
0000
0310
0000
0000
,
0001
0001
0100
0000
0100
0100
0010
0000
,
0010
1000
0001
1000
0010
1000
0100
0000
,
1000
1000
0010
0000
0010
0010
0100
0000
,
0100
0001
1000
0001
0010
0001
0100
0000
,
0010
1000
1001
0000
0010
0001
1001
0000
,
1000
0010
0001
0010
1000
0001
1000
0000
,
0001
0010
1000
0010
0001
1000
0001
0000
,
1000
1000
0010
0010
0100
0110
1001
0110
,
0101
0000
0000
1100
0000
0000
0101
0000
0000
1000
0000
0000
0100
0000
0010
0100
0000
0010
0200
0000
0000
1300
0000
0000
,
1100
0000
0000
0101
0000
0000
1100
0000
0000
0001
0000
0000
0100
0000
0010
0100
0000
0010
0200
0000
0000
0300
0000
0000
,
1010
0000
0000
0011
0000
0000
1010
0000
0000
0001
0000
0000
0010
0000
0100
0010
0000
0100
0020
0000
0000
0031
0000
0000
,
0011
0000
0000
1010
0000
0000
0011
0000
0000
1000
0000
0000
0010
0000
0100
0010
0000
0100
0020
0000
0000
0130
0000
0000
,
1001
1001
0100
0100
1010
1010
0001
0001
,
1100
1100
0010
0010
1001
1001
0100
0100
,
2010
0000
3001
0000
0100
0001
0010
0110
,
1000
0000
0001
0100
0000
0001
0100
0000
0000
0020
0000
0000
1030
0000
0001
0010
0000
0001
0020
0000
0000
0130
0000
0000
,
2000
0000
0000
0000
0000
0000
0000
3000
,
0002
0000
0000
1003
0000
0010
0100
0000
0010
0100
0000
0000
0001
0000
0000
0002
0000
0000
1003
0000
0000
0000
0000
0000
;

//---------------dance-single - ----------------
#NOTES:
     dance-single:
     :
     Easy:
     7:
     0.238401,0.278167,0.045931,0.160757,0.000000,218.000000,212.000000,6.000000,21.000000,0.000000,0.000000,0.238401,0.278167,0.045931,0.160757,0.000000,218.000000,212.000000,6.000000,21.000000,0.000000,0.000000:
0000
0000
0000
0000
,
0000
0000
0000
0000
,
0000
0000
0000
0000
,
0000
0000
0000
0000
,
0000
0000
0000
0000
,
1001
0000
0001
0000
0100
0001
1000
0000
,
1001
0000
1000
0000
0100
1000
0001
0000
,
1001
0000
0001
0000
0010
0001
1000
0000
,
1001
0000
1000
0000
0010
1000
0001
0000
,
0200
0000
0310
0010
1000
1000
0001
0000
,
2000
0000
3100
0100
0010
0010
0001
0000
,
2000
0000
3001
0001
0100
0100
0010
0000
,
2000
0001
3001
0000
0020
0100
0130
0000
,
2000
0000
0001
0000
3010
0100
0001
0000
,
0002
0000
1000
0000
0013
0100
1000
0000
,
2000
0000
0010
0000
3100
0010
0001
0000
,
0100
0100
0010
0010
1000
0001
1000
1001
,
0001
0001
0100
0000
0010
0010
1000
0000
,
1000
1000
0100
0000
0010
0010
0001
0000
,
0200
0000
0310
0000
0100
0010
0010
0100
,
0001
0001
0100
0001
1000
1000
0100
1000
,
0001
0001
0010
0000
0100
0100
1000
0000
,
0010
0010
0100
0000
0001
0001
1000
0000
,
0200
0000
0310
0000
0100
0010
0010
0100
,
1000
1000
0010
1000
0001
0001
0010
0001
,
0200
0010
0000
0310
,
2000
0001
0000
3001
,
0002
0010
0000
0013
,
0020
0100
0000
0130
,
1000
0100
1000
0001
,
0100
0100
0010
0010
,
1000
1000
0001
0001
,
1000
0100
0010
0001
1000
1000
0001
1001
,
0001
0100
0001
1000
0010
0100
0020
0000
,
1030
0100
1000
0001
0010
0100
0020
0000
,
0031
1000
0001
1000
0010
0100
0020
0000
,
1030
0001
1000
0001
0010
0100
0020
0000
,
0031
0001
0100
0000
0010
0010
1000
0000
,
0100
0100
0010
0000
0001
0001
1000
0000
,
0020
0000
0130
0000
0010
0100
0100
0010
,
1000
0100
0001
0100
1000
0010
0001
0010
,
2000
0000
0000
3000
,
0001
0010
0100
1000
0010
0020
0030
0000
;
