#TITLE:Snowfall;
#SUBTITLE:;
#ARTIST:Inverted Silence;
#TITLETRANSLIT:;
#SUBTITLETRANSLIT:;
#ARTISTTRANSLIT:;
#GENRE:;
#CREDIT:;
#MUSIC:Snowfall.ogg;
#BANNER:Snowfall-bn.png;
#BACKGROUND:Snowfall-bg.png;
#CDTITLE:;
#SAMPLESTART:34.556;
#SAMPLELENGTH:15.000;
#SELECTABLE:YES;
#OFFSET:2.054;
#BPMS:0.000=118.000;
#STOPS:;
#BGCHANGES:;
#FGCHANGES:;

//--------------- dance-single - ----------------
#NOTES:
     dance-single:
     :
     Beginner:
     1:
     0,0,0,0,0:
0000
0000
0000
0000
,
0000
0000
0000
0000
,
0000
0000
0000
0000
,
0000
0000
0000
0000
,
0000
0000
0000
0000
,
0000
0000
0000
0000
,
1000
0000
0000
0000
,
0001
0000
0000
0000
,
1000
0000
0100
0000
,
0010
0000
0000
0000
,
1001
0000
0001
0000
,
0100
0000
0010
0000
,
1000
0000
0001
0000
,
0010
0000
0100
0000
,
1000
0000
0001
0000
,
0100
0000
0010
0000
,
0100
0000
0001
0000
,
2000
0000
0000
3000
,
0001
0000
0001
0000
,
1000
0000
0010
0000
,
1000
0000
1000
0000
,
0001
0000
0010
0000
,
0001
0000
0001
0000
,
1000
0000
0010
0000
,
0100
0000
0001
0000
,
2000
0000
0000
3000
,
1001
0000
0000
0000
,
1001
0000
0000
0000
,
0110
0000
0000
0000
,
0110
0000
0000
0000
,
1001
0000
0000
0000
,
1001
0000
0000
0000
,
0110
0000
0000
0000
,
0110
0000
0000
0000
,
2000
0000
0000
0000
,
0000
0000
0000
3000
,
0002
0000
0000
0000
,
0000
0000
0000
0003
,
2000
0000
0000
0000
,
0000
0000
0000
3000
,
0002
0000
0000
0000
,
0000
0000
0000
0003
,
1000
0000
0010
0000
,
0000
0000
0000
0000
,
0001
0000
0010
0000
,
0000
0000
0000
0000
,
1000
0000
0100
0000
,
0000
0000
0000
0000
,
0001
0000
0100
0000
,
2000
0000
0000
3000
,
0001
0000
0100
0000
,
1000
0000
0100
0000
,
0001
0000
1000
0000
,
0100
0000
1000
0000
,
0001
0000
0010
0000
,
1000
0000
0010
0000
,
0100
0000
1000
0000
,
0002
0000
0000
0003
,
1001
0000
0000
0000
,
1001
0000
0000
0000
,
1001
0000
0000
0000
,
1001
0000
0000
0000
;

//--------------- dance-single - ----------------
#NOTES:
     dance-single:
     :
     Easy:
     6:
     0,0,0,0,0:
0000
0000
0000
0000
,
0000
0000
0000
0000
,
0000
0000
0000
0000
,
0000
0000
0000
0000
,
0000
0000
0000
0000
,
0000
0000
0000
0000
,
2000
0000
3001
1000
,
0100
0100
0020
0000
,
0032
0000
1003
0001
,
0100
0100
0020
0030
,
2002
3003
0100
0100
,
0001
1000
0200
0300
,
0022
0033
1000
1000
,
0001
0100
0010
1000
,
2002
3003
0100
0100
,
1000
0001
0200
0300
,
2020
3030
0001
0001
,
0020
0100
0100
0130
,
2000
0010
0001
3001
,
1000
0001
0010
0010
,
0100
1000
0001
0100
,
0010
1000
0001
1000
,
0002
0010
1000
1003
,
0001
1000
0010
0010
,
0100
0001
1000
0100
,
2000
0000
3002
0000
,
0203
0320
0030
1001
,
0020
0230
0300
1001
,
0020
0230
0300
0001
,
1000
0100
0010
0001
,
0200
0320
0030
1001
,
0020
0230
0300
1001
,
0020
0230
0300
1000
,
1000
0001
0001
0100
,
0020
0000
2030
0000
,
3001
0010
1000
0010
,
0002
0000
2003
0000
,
3010
0100
0001
0001
,
0020
0000
0032
0000
,
1003
0010
0001
0010
,
2000
0000
3002
0000
,
0013
0100
1000
1000
,
0002
0000
0103
0010
,
2000
0000
3001
0010
,
0200
0000
1300
0001
,
0100
0010
1000
0001
,
2000
0000
3100
0010
,
0002
0000
1003
0010
,
0200
0000
0302
0000
,
2000
0000
0000
3003
,
0020
1000
1000
0130
,
0001
0010
1000
0010
,
0001
0001
1000
0010
,
0001
1000
0100
0001
,
0020
0001
0001
0130
,
1000
0010
0001
0010
,
1000
1000
0001
0010
,
0200
0000
0320
0000
,
0032
2003
3000
0110
,
2000
3002
0003
0110
,
0020
0230
0300
1001
,
0200
0310
1001
0000
;

//--------------- dance-single - ----------------
#NOTES:
     dance-single:
     :
     Medium:
     9:
     0,0,0,0,0:
0000
0000
0000
0000
,
0000
0000
0000
0000
,
0000
0000
0000
0000
,
0000
0000
0000
0000
,
0000
0000
0000
0000
,
0000
0000
0000
0000
,
1000
0000
0001
0000
0100
0010
1000
0010
,
0100
0100
0001
0001
,
2000
0000
3100
0000
0010
0001
1000
0001
,
0010
0200
1000
0310
,
2001
0000
0000
0000
3010
0000
0000
0100
0000
0100
0000
0001
0000
0001
0000
0000
,
2000
0000
0000
3200
0000
0000
0000
0302
0000
0000
0000
0000
0103
0000
0010
0000
,
0002
0000
0000
0000
1003
0000
0000
0010
0000
0010
0000
0200
0000
0000
0301
0000
,
2000
0000
0000
3200
0000
0000
0000
0320
0000
0000
0000
0000
0031
0000
0000
0000
,
1002
0000
0000
0000
0103
0000
0000
0010
0000
0010
0000
1000
0000
1000
0000
0000
,
0002
0000
0000
0023
0000
0000
0000
2030
0000
0000
0000
0000
3010
0000
0100
0000
,
2000
0000
0000
0000
3001
0000
0000
0100
0000
0100
0000
0020
0000
0000
1030
0000
,
0002
0010
1000
0103
,
0001
0000
0100
0000
1000
0000
0000
0100
0000
0010
0000
0100
0000
0010
0000
0000
,
1000
0001
0010
0000
0010
0100
1000
0000
,
0001
0000
0100
0000
0010
0000
0000
1000
0000
0001
0000
1000
0000
0001
0000
0000
,
0010
0100
1000
0000
2001
0000
3010
0000
,
1000
0000
0010
0000
0001
0000
0000
0010
0000
0100
0000
0010
0000
0100
0000
0000
,
0001
1000
0100
0000
0001
1000
0010
0100
,
2000
3010
1002
0013
,
2001
0010
0001
3100
,
1000
0000
0100
0000
0000
0001
0000
0010
0000
0000
0000
0000
0000
0000
0000
0000
,
1000
0000
0010
0000
0000
0001
0000
0100
0000
0000
0000
0000
0000
0000
0000
0000
,
1000
0000
0100
0000
0000
0001
0000
0010
0000
0000
0200
0000
0320
0000
2030
0000
,
3002
0000
0013
0000
0000
1000
0000
0100
0000
0000
0010
0000
0010
0000
1000
0000
,
0001
0000
0100
0000
0000
1000
0000
0010
0000
0000
0000
0000
0000
0000
0000
0000
,
0001
0000
0010
0000
0000
1000
0000
0100
0000
0000
0000
0000
0000
0000
0000
0000
,
0001
0000
0100
0000
0000
1000
0000
0010
0000
0000
0001
0000
0000
0100
0000
1000
,
0000
0000
0010
0000
0000
0001
0000
0200
0000
0000
0000
0000
0320
0000
0000
0000
,
2030
0001
0100
3010
,
1000
0010
1000
0000
0001
0010
0001
0000
,
0100
1010
0102
1003
,
0001
0010
0001
0010
0100
1000
0100
1000
,
0002
0000
0103
0000
0010
1000
0001
1000
,
0100
1000
0001
1000
0010
0000
0100
0000
,
0001
1000
0001
1000
0100
0010
0001
0000
,
1000
0010
0100
0001
0010
0100
1000
0001
,
0200
0010
0301
0000
,
2000
0100
3001
0000
,
0020
0100
0031
0000
,
2000
0000
0010
0000
3001
0000
1000
1000
,
0200
0010
1300
0000
,
0002
0100
1003
0000
,
2020
3030
0202
0303
,
2001
0010
0001
3100
,
1000
0000
0100
0000
0001
0000
0000
0100
0000
0010
0000
0100
0000
0010
0000
0000
,
1000
0001
0100
0010
0001
0000
1001
0000
,
1000
0000
0010
0000
0100
0000
0000
0001
0000
1000
0000
0001
0000
1000
0000
0000
,
0100
0010
0001
0000
1002
0000
0103
0000
,
0001
0000
0100
0000
1000
0000
0000
0100
0000
0010
0000
0100
0000
0010
0000
0000
,
0001
1000
0100
0010
1000
0001
0010
0100
,
0001
0000
0100
0000
1000
0000
0000
0001
0000
0100
0000
0001
0000
0100
0000
0000
,
0210
1000
0001
0310
,
1000
0000
0010
0000
0000
0001
0000
0100
0000
0000
0000
0000
0000
0000
0000
0000
,
1000
0000
0100
0000
0000
0001
0000
0010
0000
0000
0000
0000
0000
0000
0000
0000
,
1000
0000
0010
0000
0000
0001
0000
0100
0000
0000
0000
0000
0000
0000
0000
0000
,
1000
0000
0100
0000
0000
0001
0000
0010
0000
0000
0000
0000
0000
0000
0000
0000
;

//--------------- dance-single - ----------------
#NOTES:
     dance-single:
     :
     Hard:
     12:
     0,0,0,0,0:
0000
0000
0000
0000
,
0000
0000
0000
0000
,
0000
0000
0000
0000
,
0000
0000
0000
0000
,
0000
0000
0000
0000
,
0000
0000
0000
0000
,
2001
0000
0000
0000
3010
0000
0000
0100
0000
0100
0000
0001
0000
0001
0000
0000
,
2000
0000
0000
3100
0000
0000
0000
0020
0000
0000
0000
0000
0031
0000
0000
1000
,
0002
0000
0000
0000
0013
0000
0000
0100
0000
0100
0000
1000
0000
0000
0001
0000
,
0200
0000
0000
0310
0000
0000
0000
2000
0000
0000
0001
0000
3001
0000
0000
0000
,
1200
0000
0000
0000
0001
0000
0000
1300
0000
0010
0000
0001
0000
0010
0000
1000
,
0100
0000
0010
0100
0010
0000
0001
2000
0000
0000
3010
0000
0100
0000
0000
0000
,
1002
0000
0000
0000
0010
0000
0000
0103
0000
0010
0000
1000
0000
0001
1000
0000
,
0100
0000
0010
0100
0010
0000
0001
2000
0000
0000
3010
0000
0100
0000
0000
0000
,
0201
0000
0000
0000
1000
0000
0000
0301
0000
0010
0000
1000
0000
0010
0000
0001
,
0100
0000
0010
0100
0010
0000
1000
0002
0000
0000
0013
0000
0100
0000
0000
0000
,
2001
0000
0000
0000
0010
0000
0000
3100
0000
0010
0000
0001
0000
1000
0001
0000
,
0200
0000
1000
0000
0301
1000
1001
0000
,
1100
0000
0000
0000
0011
0000
0000
0001
0000
0100
0000
0010
0000
0100
0000
1000
,
0100
0000
0001
1000
0000
0100
0000
0010
0100
0000
0010
0000
0001
0000
1000
0000
,
0010
0000
0100
0000
0001
1000
0000
0001
0000
0010
0000
0100
0000
1000
0000
0010
,
0100
0010
1000
0001
0010
0100
1000
0001
,
0101
0000
0000
0000
1010
0000
0000
1000
0000
0100
0000
0010
0000
0100
0000
0001
,
0100
0000
1000
0001
0000
0100
0000
0010
0100
0000
0010
0000
1000
0000
0001
0000
,
0010
0000
0100
0000
1000
0001
0000
1000
0000
0010
0000
0100
0000
0001
0000
0010
,
0100
0000
1000
0000
0010
0100
0000
0002
0000
0000
1000
0000
1003
0000
0000
0000
,
0001
0000
0201
0000
0000
0310
0000
2010
0000
0000
3100
0000
1001
0000
0000
0000
,
1000
0000
1020
0000
0000
0130
0000
0102
0000
0000
0013
0000
1001
0000
0000
0000
,
1000
0000
1200
0000
0000
0310
0000
0012
0000
0000
0103
0000
1000
0000
0100
0000
,
0001
0000
0010
0000
0100
0010
0000
0100
0000
1000
0001
0000
0100
0000
0010
0000
,
1000
0000
1200
0000
0000
0310
0000
0012
0000
0000
0103
0000
1001
0000
0000
0000
,
0001
0000
0021
0000
0000
0130
0000
2100
0000
0000
3010
0000
1001
0000
0000
0000
,
0001
0000
0201
0000
0000
0310
0000
2010
0000
0000
3001
0000
0010
0100
0000
0020
,
0000
0000
1030
0000
0010
0100
0000
0020
0000
0000
0031
0000
1000
0000
0000
0000
,
0201
0000
0000
0000
1000
0000
0000
0000
0310
0000
1000
0000
0001
1000
0000
0100
,
0000
0001
0000
1000
0000
0010
0000
0001
0000
0100
1000
0000
0100
0000
0010
0000
,
2000
0000
0000
0000
0001
0000
0000
0000
3100
0000
0010
0000
0001
0000
1000
0001
,
0000
0100
0000
0010
0000
0100
0000
1000
0000
0100
0000
0001
1000
0000
0000
0000
,
1200
0000
0000
0000
0001
0000
0000
0000
0310
0000
0001
0000
1000
0001
0000
0100
,
0000
1000
0000
0100
0010
0000
1000
0000
0100
0000
0001
0000
0100
0000
0010
0000
,
0002
0000
0000
0000
1000
0000
0000
0000
0103
0000
0010
0000
1000
0000
0001
1000
,
0000
0100
0010
0100
0000
0010
0001
0000
0100
0000
0010
0000
1000
0000
0001
0000
,
1000
0000
0100
0000
0001
0100
0000
0020
0000
0000
0031
0000
1000
0000
0010
0000
,
0100
0000
0001
1000
0000
0001
0000
0020
0000
0000
0130
0000
1000
0000
0001
0000
,
0100
0000
1000
0000
0100
0010
0000
2000
0000
0000
3001
0000
0010
0000
0100
0000
,
1000
0000
0001
1000
0000
0010
0000
0100
0010
0000
1000
0000
0100
0000
0010
0000
,
0001
0000
0100
0000
1000
0100
0000
0020
0000
0000
1030
0000
0001
0000
0010
0000
,
0100
0000
1000
0001
0000
1000
0000
0020
0000
0000
0130
0000
0001
0000
1000
0000
,
0200
0310
0201
0310
,
2002
0000
0000
3003
,
1010
0000
0000
0000
0101
0000
0000
0001
0000
1000
0000
0100
0000
0001
0000
0100
,
0010
0000
0100
1000
0000
0010
0000
0001
0000
1000
0000
0100
0010
0000
1000
0000
,
0001
0000
0010
0000
0100
0010
0000
0001
0000
0100
0000
1000
0000
0001
0000
0010
,
1000
0000
0001
1000
0000
0001
0000
0200
0000
0000
0310
0000
1000
0000
0001
0000
,
0011
0000
0000
0000
1100
0000
0000
1000
0000
0001
0000
0100
0000
1000
0000
0100
,
0010
0000
0100
0001
0000
0010
0000
1000
0000
0001
0000
0100
0010
0000
0001
0000
,
1000
0000
0010
0000
0100
0010
0000
1000
0000
0100
0000
0001
0000
1000
0000
0010
,
0001
0000
1000
0000
0010
0100
0000
0002
0000
0000
1000
0000
1003
0000
0000
0000
,
0001
0000
0101
0000
0000
0001
0000
1001
0000
0000
0000
0000
0110
0000
0000
0000
,
1000
0000
1100
0000
0000
1000
0000
1001
0000
0000
0000
0000
0110
0000
0000
0000
,
0001
0000
0101
0000
0000
1000
0000
1100
0000
0000
0000
0000
1001
0000
0000
0000
,
0001
0000
1000
0000
0010
0100
0000
0010
0000
0000
0000
0000
0000
0000
0000
0000
;

//--------------- dance-single - ----------------
#NOTES:
     dance-single:
     :
     Challenge:
     14:
     0,0,0,0,0:
0000
0000
0000
0000
,
0000
0000
0000
0000
,
0000
0000
0000
0000
,
0000
0000
0000
0000
,
0000
0000
0000
0000
,
0000
0000
0000
0000
0000
0100
0100
0000
,
1001
0000
0000
0001
0010
0000
0000
0100
0000
0100
0000
1000
0000
1000
0000
0000
,
0001
0000
0000
0001
0100
0000
0000
0010
0000
0100
0010
0000
1000
0001
0010
0100
,
1000
0000
0000
0001
0010
0000
0000
0001
0000
0001
0000
1000
0000
0000
0010
0000
,
0100
0000
0000
0100
0001
0000
0000
1000
0000
0001
0010
0000
1100
0000
0000
0000
,
1020
0000
0000
0000
0031
0000
0010
1000
0000
1100
0000
0010
0000
0011
0000
0001
,
1000
0000
0010
0100
0010
0000
0001
0020
0000
0000
1030
0000
0001
0000
1000
0000
,
1200
0000
0000
0000
0301
0000
0100
1000
0000
1010
0000
0101
0000
0001
0010
0000
,
1000
0000
0010
0100
0010
0000
0001
1000
0000
0010
0100
0010
0100
0001
1000
0000
,
0021
0000
0000
0000
1030
0000
0010
0001
0000
0101
0000
0010
0000
1010
0000
1000
,
0001
0000
0010
0100
0010
0000
1000
0020
0000
0000
0031
0000
1000
0000
0001
0000
,
0201
0000
0000
0000
1300
0000
0100
0001
0000
0011
0000
1100
0000
1000
0001
0000
,
0100
0000
0010
0100
0010
0000
1000
0100
0000
0010
0001
0000
0101
0000
0000
0000
,
1010
0000
1000
0000
0100
0001
0000
0100
0000
0110
0000
0001
0000
1001
0000
1000
,
0010
0000
0100
0010
0000
1000
0000
0001
0000
1000
0100
0010
0001
0000
0100
0000
,
0110
0000
1000
0000
0100
0001
0000
0100
0000
0110
0000
1001
0000
0001
0100
0000
,
1000
0000
0100
0010
0000
0100
0000
0001
1000
0000
0100
1000
0100
0000
0010
0000
,
0011
0000
0001
0000
0100
1000
0000
0100
0000
0110
0000
1000
0000
1001
0000
0001
,
0010
0000
0100
0010
0000
0001
0000
1000
0000
0001
0100
0010
1000
0000
0100
0000
,
0110
0000
0001
0000
0100
1000
0000
0100
0000
0110
0000
1001
0000
1000
0100
0000
,
0010
0100
0010
0000
0001
1000
0000
0010
0100
0000
0001
1000
0001
0000
0000
0000
,
1200
0000
0301
0000
0000
1200
0000
0301
0000
0001
0000
0100
0010
0001
0000
0000
,
0021
0000
1030
0000
0000
0021
0000
1030
0000
0010
0100
1000
0001
0000
0100
0000
,
0210
0000
0301
0000
1000
0200
0000
0301
0000
0000
2000
0000
3020
0000
0032
0000
,
2003
0000
3010
0000
0001
0010
0000
1010
0000
1000
0001
0010
0100
1000
0001
0000
,
0201
0000
1300
0000
0000
0201
0000
1300
0000
1000
0000
0100
0010
1000
0000
0000
,
1020
0000
0031
0000
0000
1010
0000
0011
0000
1000
0010
0100
0001
0000
1000
0000
,
1100
0000
0101
0000
0001
0100
0000
2100
0000
0000
3001
0000
1000
0100
0000
0102
,
0000
0000
1003
0000
0001
0100
0000
2100
0000
0000
0000
0000
3002
0000
0000
0000
,
0013
0000
0001
0000
2000
0000
0000
3020
0000
0000
0130
0010
1000
0001
0010
0100
,
0000
0000
1000
0000
0000
0001
0010
0000
0000
0000
0001
0000
0000
0000
1000
0000
0000
0000
0010
0000
0000
0000
0100
0000
0000
0000
0001
0000
1000
0000
0100
0000
,
0010
0000
0000
0000
0000
0000
0000
0000
1001
0000
0000
0000
0000
0000
0001
0100
0000
0000
0000
0000
0010
0000
0000
0000
1000
0000
0010
0000
0000
0000
0110
0000
,
0000
0001
0000
0110
0000
1000
0000
0011
0000
0001
1000
0100
0010
0001
1000
0010
,
0200
0000
0300
0000
0100
0001
0000
1000
0000
0100
0000
0102
0000
0013
0000
2010
,
0000
0000
3100
0000
0000
0000
0010
0000
0100
0000
0000
0000
1000
0001
0000
0000
0200
0000
0000
0000
0000
0000
0000
0000
0310
0000
0000
0000
0110
0000
0000
0000
,
0000
0000
1000
0000
0001
0000
0010
0000
0100
0000
1000
0000
0001
0000
0100
0000
0010
0000
1000
0000
0000
0000
0010
0000
0000
0100
0001
0000
0000
0000
1000
0000
,
0000
1000
0001
0010
0100
1000
0001
0100
0010
0001
0010
0100
0001
1000
0100
0010
,
0001
0000
2000
0000
3020
0032
0000
0023
0000
0000
0130
0000
0001
0000
1000
0001
,
0010
0000
0200
0320
0000
1000
0000
2030
0000
0000
3010
0000
0100
1000
0001
1000
,
0010
0000
2000
0000
3020
0032
0000
0023
0000
0000
0130
0000
0001
0000
1000
0000
,
0100
0000
0002
0203
0320
0032
0000
2003
0000
0000
3010
0000
1000
0001
0010
0100
,
1000
0000
0002
0000
0203
2300
0000
3200
0000
0000
0310
0000
1000
0000
0001
1000
,
0100
0000
0020
0230
0000
0001
0000
0302
0000
0000
0103
0000
0010
0001
1000
0001
,
0200
0310
1002
0013
,
2001
0000
0010
0000
0000
3010
0101
1000
,
1100
0000
0010
0000
0001
1000
0000
0010
0000
0110
0000
0001
0000
1001
0000
1000
,
0100
0000
0001
0100
0000
1000
0000
0010
0000
0100
0001
1000
0001
0000
1000
0100
,
0010
0000
0001
0000
0100
1000
0000
0100
0000
0110
0000
1000
0000
1001
0000
0001
,
0010
0000
1000
0010
0000
0100
0000
1000
0001
0000
0010
0100
0010
0000
0001
0000
,
0101
0000
0010
0000
1000
0001
0000
0010
0000
0110
0000
1000
0000
1001
0000
0001
,
0100
0000
1000
0100
0000
0001
0000
0010
0000
0100
1000
0001
1000
0000
0001
0100
,
0010
0000
1000
0000
0100
0001
0000
0100
0000
0110
0000
0001
0000
1001
0000
1000
,
0010
0000
0100
0001
0010
0000
0100
1000
0010
0100
0001
1000
0001
0000
0000
0000
,
1200
0000
0301
0000
0000
1200
0000
0301
0000
0000
0100
0000
1001
0000
0000
0000
,
1020
0000
0031
0000
0000
1020
0000
0031
0000
0000
0010
0000
1001
0000
0000
0000
,
0021
0000
1030
0000
0000
0021
0000
1030
0000
0000
0010
0000
1001
0000
0000
0000
,
1010
0000
0011
0000
0001
0010
0000
1010
0000
0000
0000
0000
0000
0000
0000
0000
;
