#TITLE:Sneakman;
#SUBTITLE:;
#ARTIST:長沼英樹;
#TITLETRANSLIT:;
#SUBTITLETRANSLIT:;
#ARTISTTRANSLIT:Hideki Naganuma;
#GENRE:Funky Breaks;
#CREDIT:;
#BANNER:Sneakman.png;
#BACKGROUND:Sneakman-bg.png;
#LYRICSPATH:;
#CDTITLE:cdtitle.png;
#MUSIC:Sneakman.ogg;
#OFFSET:-0.897500;
#SAMPLESTART:38.058601;
#SAMPLELENGTH:12.387096;
#SELECTABLE:YES;
#BPMS:0.000000=155.000000
;
#STOPS:
;
#BGCHANGES:;
#KEYSOUNDS:;
#ATTACKS:;

//---------------dance-single - ----------------
#NOTES:
     dance-single:
     8 - EXORBITANT:
     Hard:
     12:
     0.586570,0.603344,0.620329,0.000000,0.118158,556.000000,472.000000,84.000000,0.000000,0.000000,0.000000,0.586570,0.603344,0.620329,0.000000,0.118158,556.000000,472.000000,84.000000,0.000000,0.000000,0.000000:
0000
0000
0000
0000
,
0000
0000
0000
0000
,
0000
0000
0000
0000
,
0000
0000
0000
0000
,
1000
0000
0010
1000
0000
0010
0000
0011
,
0000
0010
0001
0000
0100
0001
1000
0000
,
0001
0000
0010
0001
0000
0011
0000
1010
,
0000
1000
1000
0000
1000
1010
1001
0000
,
1000
0000
0100
0000
0001
0000
0000
0000
0001
0000
0100
0000
1000
0000
0000
0100
,
0000
0000
1000
0000
0100
0000
0000
0010
0001
0000
0000
0001
1000
0000
0000
0000
,
0001
0000
0100
0000
1000
0000
0000
0000
1000
0000
0100
0000
0001
0000
0000
0100
,
0000
0000
0001
0000
0100
0000
0000
0010
1000
0000
0000
1000
0001
0000
0000
0000
,
0001
0010
1000
0000
0010
0001
0000
0100
,
1000
0000
0100
0001
0100
0001
1000
0100
,
0010
0010
0100
0100
0010
0010
0100
0100
,
0011
0101
1010
1100
,
0110
0000
0000
0011
0000
0000
0000
1100
,
0000
0000
0001
0000
0000
0001
0000
0000
,
1001
0000
0010
0100
0000
1010
0000
0101
,
0000
1000
1000
0010
0001
0001
0010
0000
,
0110
0000
0000
1010
0000
0000
0000
0101
,
0000
0000
1000
0000
0000
1000
0000
1000
,
0000
0000
0000
0000
0000
0000
0000
0001
,
0000
0010
0001
0000
0100
0000
0000
0010
1000
0000
0100
0000
0010
0000
0100
0000
,
1001
0000
1000
1010
0000
0001
0000
0011
,
0000
1000
0100
0001
0001
0100
1000
0000
,
1001
0000
0001
0101
0000
1010
0000
1001
,
0000
1000
0100
1000
1000
0001
0100
0010
,
1001
0000
0001
0011
0000
1000
0000
1010
,
0000
0001
0100
1000
1000
0100
0001
0000
,
1001
0000
0110
0110
0000
1001
0000
1000
,
0100
0010
0001
0100
0010
1000
0001
0000
,
1000
0000
0100
0001
0000
0101
0000
0001
,
0100
0000
1000
0000
0001
0000
0000
0001
0100
0000
0010
0000
1000
0000
0001
0000
,
0001
0000
0100
1000
0000
1100
0000
1000
,
0100
0000
0001
0000
1000
0000
0000
0001
0010
0000
0001
0000
1000
0000
0010
0000
,
1000
0000
0100
0001
0000
1001
0000
1000
,
0010
0000
0001
0000
0010
0000
0000
0010
0001
0000
0100
0000
0010
0000
1000
0000
,
0001
0000
0100
1000
0000
1001
0000
0001
,
0010
0000
1000
0000
0010
0000
0000
0010
1000
0000
0100
0000
0010
0000
0001
0000
,
0100
0000
0010
1000
0100
0000
0010
0001
,
1000
0000
0010
0000
0100
0000
0001
1000
0000
0001
1000
0000
0100
0000
1000
0000
,
0010
0000
0100
0001
0010
0000
0100
1000
,
0001
0000
0100
0000
0010
0000
1000
0001
0000
1000
0001
0000
1000
0000
0100
0000
,
0001
0000
1000
0010
0001
0000
0001
0100
,
1000
0000
0001
0010
1000
0010
1000
0100
,
0011
1000
1010
0001
,
1000
0001
1000
0000
0001
0000
1000
0000
0100
0000
0010
0000
0001
0000
0100
0000
,
1001
0000
1000
1010
0000
0010
0000
0011
,
0000
0001
0010
0000
0001
0010
1000
0010
,
0011
0000
0010
1010
0000
1001
0000
1100
,
0000
0100
0010
0001
0100
0010
1000
0010
,
1001
0000
0001
0011
0000
0010
0000
1010
,
0000
1000
0010
0000
1000
0010
0001
0010
,
1010
0000
0010
0011
0000
1001
0000
0101
,
1000
0010
1000
0000
1000
1010
1001
0000
,
0011
0000
0010
1010
0000
1000
0000
1001
,
0000
0001
0100
1000
1000
0001
0100
0010
,
0110
0000
0100
1010
0000
1001
0000
0011
,
0000
0001
0010
1000
1000
0010
0001
1000
,
1010
0000
0010
0011
0000
0001
0000
1001
,
0000
1000
0100
0001
0001
1000
0100
0010
,
0110
0000
0100
0011
0000
1001
0000
1010
,
0000
0000
1000
0000
0010
0000
0001
0010
0000
0000
0010
0000
1000
0000
0100
0000
,
0110
0000
0011
1001
0000
1010
0000
1001
,
0000
0000
0000
0000
,
1000
0000
0100
0000
1000
0000
0000
0000
0001
0000
0100
0000
0001
0000
0000
1000
,
0000
0000
0001
0000
0001
0000
0000
1000
0100
0000
0000
0001
0100
0000
0000
0000
,
1000
0000
0010
0000
1000
0000
0000
0000
0001
0000
0010
0000
0001
0000
0000
1000
,
0000
0000
0001
0000
0001
0000
0000
1000
0010
0000
0000
0001
0010
0000
0000
0000
,
1000
0100
0001
0000
0100
1000
0000
0010
,
0001
0000
0010
1000
0010
1000
0010
1000
,
0100
0010
0001
0100
0010
1000
0100
0010
,
0011
1100
1010
0101
,
1000
0000
0000
0000
1010
0000
0000
0001
0100
0000
0001
0000
0010
0000
0001
0000
,
0000
1000
0100
0000
0001
0100
0000
1000
,
0001
0000
0000
0000
0011
0000
0000
1000
0100
0000
1000
0000
0010
0000
1000
0000
,
0000
0001
0100
0010
0100
0010
1000
0100
,
0010
0000
0000
0000
1100
0000
0000
0001
0100
0000
0010
0000
0100
0000
1000
0000
,
0000
0000
0100
0000
0001
0000
1000
0000
0001
0000
0000
0001
0010
0000
0000
0010
,
0100
0000
0000
0000
0110
0000
0000
1000
0100
0000
0010
0000
0100
0000
0001
0000
,
0000
0100
1000
1000
0001
0100
0010
1000
,
1001
0000
0000
0011
0000
0000
0000
1100
,
0000
0000
0000
0001
0001
0100
0010
1000
,
0000
0000
0000
0000
,
0000
0000
0000
0000
0000
0000
0000
0000
0000
0000
0000
0000
0001
1000
0001
1000
,
0001
0000
0000
0000
;

//---------------dance-single - ----------------
#NOTES:
     dance-single:
     6 - GENUINE:
     Medium:
     9:
     0.431487,0.476324,0.457862,0.000000,0.000000,409.000000,347.000000,62.000000,0.000000,0.000000,0.000000,0.431487,0.476324,0.457862,0.000000,0.000000,409.000000,347.000000,62.000000,0.000000,0.000000,0.000000:
0000
0000
0000
0000
,
0000
0000
0000
0000
,
0000
0000
0000
0000
,
0000
0000
0000
0000
,
1000
0000
0010
1000
0000
0010
0000
1001
,
0000
1000
0100
1000
,
0001
0000
0010
0001
0000
0110
0000
1001
,
0000
0010
0010
0000
0000
0010
1001
0000
,
1000
0000
0010
0000
0001
0000
1000
0100
,
0001
0001
0101
1100
,
0001
0000
0010
0000
1000
0000
0001
0100
,
1000
1000
1100
0101
,
1000
0000
0010
0100
0000
0001
1000
0000
,
0100
0010
0100
0000
0100
0000
0100
0000
,
1000
0100
0001
0010
,
1000
1000
1000
1000
,
1010
0000
0000
0100
0000
0000
0000
0001
,
0000
0000
0000
0000
,
1001
0000
0010
0100
0000
0010
0000
0100
,
0000
0000
0000
0000
,
0011
0000
0000
0100
0000
0000
0000
1000
,
0000
0000
0000
0000
,
0000
0000
0000
0000
0000
0000
0000
0001
,
0000
0000
1000
0000
0000
0001
0100
0010
,
1000
0000
1000
0010
0000
0001
0000
0011
,
0000
0000
0001
0010
1000
0000
0010
0000
,
1001
0000
1000
0100
0000
0110
0000
1001
,
0000
0000
1000
0001
1000
0000
0100
0000
,
0011
0000
0001
0010
0000
1000
0000
1010
,
0000
0000
1000
0010
0001
0000
0010
0000
,
1001
0000
0100
0010
0000
1001
0000
0001
,
0100
0000
1000
0100
0000
0001
0001
0000
,
1000
0000
0100
0010
0000
0110
0000
0001
,
0000
0010
0001
0000
0010
0100
1000
0000
,
0001
0000
0100
0010
0000
0110
0000
1000
,
0000
0010
1000
0000
0010
0100
0001
0000
,
1000
0000
0100
0001
0000
0101
0000
0001
,
0000
0100
1000
0000
1000
0100
0010
0000
,
0001
0000
0100
1000
0000
1100
0000
1000
,
0000
0100
0001
0000
0010
0100
1000
0000
,
0001
0101
0001
0101
,
1000
0010
0100
0000
0001
1000
0001
0000
,
1000
1100
1000
1100
,
0001
0010
0100
0000
1000
0001
1000
0000
,
0001
0101
0100
1100
,
1000
1010
0010
0011
,
1001
0000
0110
0000
,
1000
0100
0010
0001
1000
0000
0100
0000
,
0011
0000
0001
0100
0000
0010
0000
0110
,
0000
1000
0010
0000
1000
0010
1000
0000
,
1010
0000
1000
0100
0000
0110
0000
0011
,
0000
0001
0100
0000
0010
1000
0100
0000
,
0011
0000
1000
0010
0000
0100
0000
0110
,
0000
0001
0100
0000
0001
0100
0001
0000
,
1010
0000
0001
0010
0000
0110
0000
1100
,
0000
1000
1000
0000
0000
0010
1001
0000
,
1010
0000
1000
0010
0000
0001
0000
1001
,
0000
0000
1000
0100
0001
0000
0010
0000
,
1100
0000
0010
0100
0000
0011
0000
1001
,
0000
0000
1000
0010
0100
0000
0001
0000
,
0011
0000
0001
0010
0000
1000
0000
1001
,
0000
0000
0001
0100
1000
0000
0010
0000
,
0101
0000
0010
0100
0000
1010
0000
1001
,
0000
0000
0001
1000
0100
0000
0100
0000
,
0011
0000
0100
0100
0000
1010
0000
1001
,
0000
0000
0000
0000
,
1000
0100
0001
0100
,
1000
0000
1000
0000
0100
1000
0001
0000
,
1000
0010
0001
0010
,
1000
0000
1000
0000
0010
1000
0001
0000
,
1000
0000
0100
0010
0000
0010
0100
0000
,
1000
0001
1000
0000
0001
0000
1000
0000
,
0001
0100
1000
0010
,
0001
0001
0001
0001
,
0010
0000
1100
0000
0000
0010
0100
1000
,
0000
1000
0010
0000
1000
0010
1000
0000
,
0010
0000
0101
0000
0000
0010
0100
0001
,
0000
0001
0010
0000
0001
0000
0010
0000
,
0100
0000
1001
0000
0000
1000
0010
0100
,
0000
0001
0010
0000
0010
0000
0010
0000
,
0100
0000
1001
0000
0000
0001
0100
0010
,
0000
1000
0100
0000
0010
0100
0010
0000
,
1001
0000
0000
0010
0000
0000
0000
0100
,
0000
0000
0000
0001
0010
0100
1000
0001
,
0000
0000
0000
0000
,
0000
0000
0000
0000
0000
0000
1000
0010
,
0001
0000
0000
0000
;

//---------------dance-single - ----------------
#NOTES:
     dance-single:
     4 - SUPERIOR:
     Easy:
     5:
     0.267965,0.349304,0.288010,0.000000,0.000000,254.000000,215.000000,39.000000,0.000000,0.000000,0.000000,0.267965,0.349304,0.288010,0.000000,0.000000,254.000000,215.000000,39.000000,0.000000,0.000000,0.000000:
0000
0000
0000
0000
,
0000
0000
0000
0000
,
0000
0000
0000
0000
,
0000
0000
0000
0000
,
1000
0000
0010
0000
,
1000
0000
0001
1000
,
0001
0000
0010
0000
,
0001
0000
0000
1001
,
0001
0000
0100
0000
,
0001
0100
0001
0001
,
1000
0000
0100
0000
,
1000
0100
1000
1000
,
0001
0000
1000
0000
,
0001
1000
0001
1000
,
0010
0010
0010
0010
,
1000
0100
0010
0001
,
1001
0000
0000
0010
0000
0000
0000
0010
,
0000
0000
0000
0000
,
1001
0000
0000
0010
0000
0010
0000
0010
,
0000
0000
0000
0000
,
1001
0000
0000
0100
0000
0000
0000
0010
,
0000
0000
0000
0000
,
0000
0000
0000
0000
,
0000
0000
0000
0010
,
1001
0000
0000
1000
0000
0000
0000
0100
,
0000
0000
0001
0000
,
1001
0000
0000
0001
0000
0100
0000
1000
,
0000
0000
0001
0000
,
1001
0000
0000
1000
0000
0000
0000
0010
,
0000
0000
0001
0000
,
1001
0000
0000
0001
0000
0010
0000
1000
,
0000
0000
0000
0000
,
1000
0100
0010
0000
,
0001
0010
0001
0010
,
0001
0100
0010
0000
,
1000
0010
1000
0010
,
1000
0001
0010
0000
,
0100
1000
0100
0010
,
0001
1000
0010
0000
,
0100
0001
0100
0010
,
1001
0000
1001
0000
,
0010
1000
0100
0010
,
1001
0000
1001
0000
,
0010
0001
0100
0010
,
1001
0000
1001
0000
,
0110
0000
0110
1000
,
0001
0000
1000
0000
,
1000
0100
0010
0001
,
1001
0000
0000
0001
0000
0000
0000
0100
,
0000
0010
0000
0010
,
1001
0000
0000
0001
0000
0100
0000
0001
,
0000
0010
0010
0010
,
1001
0000
0000
1000
0000
0000
0000
0100
,
0000
0010
0000
0010
,
1001
0000
0000
1000
0000
0100
0000
1000
,
0000
0010
0000
0110
,
1001
0000
0000
0001
0000
0000
0000
0010
,
0000
0000
1000
0000
,
1001
0000
0000
1000
0000
0100
0000
0001
,
0000
0000
1000
0000
,
1001
0000
0000
1000
0000
0000
0000
0010
,
0000
0000
0001
0000
,
1001
0000
0000
0001
0000
0100
0000
1000
,
0000
0000
0010
1000
,
1001
0000
0000
1001
0000
1001
0000
1001
,
0000
0000
0000
0000
,
1000
0000
0100
0000
,
1000
0100
0010
0001
,
1000
0000
0010
0000
,
1000
0010
0100
0001
,
1000
0000
0001
0000
,
1000
0001
1000
0001
,
0010
0010
0010
0010
,
0001
0010
0100
1000
,
0010
1010
0000
1010
,
0000
0010
1000
0100
,
0010
0011
0000
0011
,
0000
0010
0001
0100
,
0010
1001
0000
1001
,
0000
0001
1000
0001
,
0010
1001
0000
1001
,
0000
1000
0010
0010
,
1001
0000
0000
0100
0000
0000
0000
0010
,
0000
0000
0100
0000
,
0000
0000
0000
0000
,
0000
0000
0000
0000
,
1001
0000
0000
0000
;

//---------------dance-single - ----------------
#NOTES:
     dance-single:
     X-Special:
     Challenge:
     15:
     0.752202,0.762119,0.649869,0.000000,0.480017,713.000000,625.000000,88.000000,0.000000,0.000000,0.000000,0.752202,0.762119,0.649869,0.000000,0.480017,713.000000,625.000000,88.000000,0.000000,0.000000,0.000000:
0000
0000
0000
0000
,
0000
0000
0000
0000
,
0000
0000
0000
0000
,
0000
0000
0000
0000
,
1000
0000
0010
1000
0000
0010
1000
0110
,
0000
0001
1000
0000
0001
1000
0100
0010
,
0001
0000
0010
0001
0000
1001
0010
0110
,
0000
1000
0001
0000
1000
0000
0000
0001
1000
0000
1010
0000
1000
0010
0100
0001
,
1000
0000
0100
0000
0001
0100
0000
0000
0001
0000
0100
0000
1000
0100
1000
0010
,
0000
1000
0010
0100
0010
0000
0100
0010
1000
0000
0100
0010
0001
0000
1000
0000
,
0001
0000
0100
0000
1000
0100
0000
0000
1000
0000
0100
0000
0001
0100
0001
0010
,
0000
0001
0010
0100
0010
0000
0100
1000
0010
0000
0100
0001
0010
0000
0100
0000
,
1000
0000
0010
0000
0100
0010
0000
0000
0001
0000
0010
0100
0000
0000
0010
0000
,
1000
0001
0000
0000
1000
0000
0100
0000
0001
0000
0100
0000
1000
0000
0001
0000
,
0100
0000
0100
0000
0010
0000
0010
0000
0100
0000
0100
0000
0010
0000
0100
0001
,
0010
0000
0000
0010
1000
0000
0000
1000
0100
0000
0000
0100
0001
0000
0000
0000
,
0011
0000
0000
0110
0000
0000
0000
1100
,
0000
0000
0001
0000
0000
0001
0000
0000
,
1001
0000
0010
0100
0000
1010
0000
0101
,
0000
0000
1000
0000
0010
0100
0001
0000
0001
0000
0010
0100
1000
0000
0000
0000
,
1010
0000
0000
0110
0000
0000
0000
0101
,
0000
0000
1000
0000
0000
1000
0000
1000
,
0000
0000
0000
0000
0000
0000
0000
1000
,
0000
0100
0010
0000
0001
0000
0000
0100
0010
0000
1000
0000
0010
1000
0100
0010
,
0001
0000
0010
0011
0000
1000
1000
0101
,
0000
1000
0001
1001
1001
0100
0001
0010
,
0011
0000
0010
1100
0000
1010
0000
0101
,
0000
0000
1000
0000
0100
0000
0001
0100
0001
0000
0100
0000
1000
0000
0010
0000
,
1001
0000
0010
1010
0000
0001
0001
1100
,
0000
0001
1000
1001
1001
0100
1000
0010
,
1010
0000
1001
0011
0000
1001
0000
0110
,
0001
1000
0001
1000
0100
0000
1000
0001
1000
0001
0100
0000
0010
1000
0100
0000
,
0010
0100
0010
1000
0000
1010
0000
1000
,
0010
0100
0010
0000
0001
0000
1000
0000
0001
0100
0001
0000
1000
0100
1000
0000
,
0010
0100
0010
0001
0000
0011
0000
0001
,
0010
0100
0010
0100
0010
0000
1000
0100
0000
0100
0010
0000
0001
0000
1000
0000
,
0001
0100
1000
0001
0000
1001
0000
1000
,
0100
0010
0100
0000
0001
0000
0001
0000
1000
0010
1000
0000
0001
0010
0001
0000
,
1000
0100
0001
1000
0000
1001
0000
0001
,
0100
0010
0100
0010
0100
0000
1000
0001
0100
0000
0010
0000
0010
0000
1000
0010
,
1000
0000
0000
0000
1010
0000
0001
0010
0001
0000
0000
0000
0011
0000
1000
0000
,
0010
0100
0010
0000
0100
0000
0001
0010
0000
0010
0100
0000
1000
0000
0001
0100
,
0001
0000
0000
0000
0101
0000
1000
0100
1000
0000
0000
0000
1100
0000
0001
0000
,
0100
0010
0100
0000
0010
0000
1000
0100
0000
0100
0010
0000
0001
0000
1000
0010
,
1000
0000
0000
0000
1001
0000
0001
0010
0001
0000
0000
0000
1001
0000
1000
0000
,
0001
0100
0001
0000
1000
0000
0001
0000
1000
0100
1000
0000
0001
0100
0010
1000
,
0100
0011
0100
1010
,
1000
0100
0010
0000
0001
0000
0001
0100
0010
0000
1000
0000
1000
0100
0010
0001
,
0100
0000
0000
0010
1000
0000
1010
0000
0000
0000
1000
0000
0010
0000
0011
0000
,
0000
0000
0001
0000
0010
0000
0001
0010
1000
0000
0010
0000
1000
0000
0100
0000
,
0011
0000
0110
0011
0000
1001
0010
1010
,
0000
0000
0001
0000
0100
0010
0100
0000
1000
0000
0100
0010
0100
0000
0001
0000
,
1001
0000
0000
0001
0010
0000
0011
0000
0000
0000
0001
0000
0010
0000
1010
0000
,
0000
0000
1000
0000
0010
0000
1000
0010
0001
0000
0010
0000
0001
0000
0100
0000
,
1010
0000
0110
1010
0000
1001
0010
0011
,
0001
0000
0100
0000
0010
0000
0000
0010
1000
0000
1010
0000
0010
1000
0100
0010
,
0001
0000
0000
1000
0010
0000
1010
0000
0000
0000
0010
0000
0001
0000
1001
0000
,
0000
0000
1000
0000
0100
0000
0110
0000
0010
0100
0001
0000
1000
0000
0100
0000
,
0011
0000
0101
1001
0000
1010
0100
0011
,
0000
0000
0001
0000
0100
0000
1000
0100
1000
0000
0100
0010
0100
0001
1000
0000
,
1010
0000
0000
0001
0010
0000
0011
0000
0000
0000
0010
0000
1000
0000
1001
0000
,
0000
0000
0001
0000
0100
0000
0110
0000
0010
0100
1000
0000
0001
0000
0100
0000
,
1010
0000
1100
1001
0000
0011
0100
1010
,
0000
0000
1000
0000
0100
0000
0010
0001
0000
0001
0100
0000
0010
0000
1000
0001
,
1001
0000
0011
1100
0000
1010
0000
0101
,
0000
0000
0000
0000
0000
0000
0000
0000
0000
0000
0000
0000
1000
0100
0010
0001
,
1000
0000
0100
0000
1000
0001
0000
0000
0001
0000
1000
0000
0010
1000
0010
1000
,
0000
0001
1000
0010
1000
0000
0010
1000
0100
0000
0100
1000
0010
0000
0010
0100
,
0001
0000
0100
0000
0001
1000
0000
0000
1000
0000
0001
0000
0010
0001
0010
0001
,
0000
1000
0001
0010
0001
0000
0010
0001
0100
0000
0100
0001
0010
0000
0010
0100
,
1000
0000
0100
0000
0010
0100
0000
0000
0001
0000
0100
0010
0000
0000
0100
0000
,
1000
0001
0000
0000
1000
0000
0010
0000
1000
0000
0010
0000
1000
0000
0010
0000
,
1000
0000
0010
0000
0001
0000
1000
0000
0100
0000
0001
0000
1000
0000
0010
1000
,
0100
0000
0000
0100
0001
0000
0000
0001
0010
0000
0000
0010
1000
0000
0100
0000
,
0100
0000
0000
0000
0110
0000
0000
0001
0010
0000
0001
0000
0100
0000
0010
0000
,
1000
0100
0010
0000
0001
0100
0001
0000
0100
0000
0010
1000
0010
0000
1000
0000
,
0001
0000
0000
0000
0110
0000
0000
1000
0010
0000
1000
0000
0100
0000
0010
0000
,
0100
1000
0001
0000
0100
0000
0010
0000
0100
0000
0010
0000
1000
0000
0001
0000
,
0010
0000
0000
0000
1100
0000
0000
1000
0100
0000
0001
0000
0100
0000
1000
0000
,
0001
0100
0010
0000
1000
0000
0100
1000
0001
0000
0100
0001
1000
0000
0100
1000
,
0001
0000
0000
0000
0101
0000
0000
0001
0100
0000
1000
0000
0100
0000
0001
0000
,
0010
0100
1000
0000
0001
0000
1000
0100
0010
0000
0001
0000
0100
0000
0010
0000
,
1010
0000
0000
1001
0000
0000
0000
1100
,
0000
0000
0000
0001
0001
0010
0100
1000
,
0000
0000
0000
0000
,
0000
0000
0000
0000
0000
0000
0000
0000
0000
0000
0000
0000
1000
0100
0010
0100
,
0001
0000
0000
0000
;

//---------------dance-single - ----------------
#NOTES:
     dance-single:
     Added in DDR EXTREME:
     Beginner:
     2:
     0.166687,0.254040,0.051694,0.000000,0.000000,158.000000,151.000000,7.000000,0.000000,0.000000,0.000000,0.166687,0.254040,0.051694,0.000000,0.000000,158.000000,151.000000,7.000000,0.000000,0.000000,0.000000:
0000
0000
0000
0000
,
0000
0000
0000
0000
,
0000
0000
0000
0000
,
0000
0000
0000
0000
,
1000
0000
0001
0000
,
1000
0000
1000
0000
,
0001
0000
1000
0000
,
0001
0000
0000
0000
,
0001
0001
0001
0000
,
0001
0000
0001
0000
,
1000
1000
1000
0000
,
1000
0000
1000
0000
,
0010
0000
0100
0000
,
0010
0000
0100
0000
,
0010
0010
0010
0010
,
0010
0000
0010
0000
,
1001
0000
0000
0000
,
0000
0000
0000
0000
,
1001
0000
0000
0000
,
0000
0000
0000
0000
,
1001
0000
0000
0000
,
0000
0000
0000
0000
,
0000
0000
0000
0000
,
0000
0000
0000
0000
,
1000
0000
0010
0000
,
1000
0000
1000
0000
,
0010
0010
0010
0000
,
1000
0000
1000
0000
,
0001
0000
0010
0000
,
0001
0000
0001
0000
,
0010
0010
0010
0000
,
0001
0000
0000
0000
,
0001
0001
0001
0000
,
0010
0000
0100
0000
,
1000
1000
1000
0000
,
0100
0000
0010
0000
,
0001
0001
0001
0000
,
0100
0000
0010
0000
,
1000
1000
1000
0000
,
0010
0000
0100
0000
,
0001
0000
0001
0000
,
0001
0001
0001
0000
,
1000
0000
1000
0000
,
1000
1000
1000
0000
,
0001
0000
0001
0000
,
1000
0000
1000
0000
,
1001
0000
1001
0000
,
0000
0000
0000
0000
,
0001
0000
0010
0000
,
0100
0000
0000
0000
,
0010
0010
0010
0000
,
0100
0000
0000
0000
,
1000
0000
0010
0000
,
0100
0000
0000
0000
,
0010
0010
0010
0000
,
0100
0000
0000
0000
,
0001
0000
0010
0000
,
1000
0000
0100
0000
,
0001
0001
0001
0000
,
0010
0000
0100
0000
,
1000
0000
0010
0000
,
0001
0000
0100
0000
,
1000
1000
1000
0000
,
0010
0000
0010
0000
,
1001
0000
0000
0000
,
0000
0000
0000
0000
,
1000
0000
1000
0000
,
0001
0000
1000
0000
,
0001
0000
0001
0000
,
1000
0000
0001
0000
,
0010
0000
0100
0000
,
0010
0000
0100
0000
,
0010
0010
0010
0010
,
0010
0000
0010
0000
,
0000
0001
0000
0001
,
0000
0100
0000
0100
,
0000
0010
0000
0010
,
0000
1000
0000
1000
,
0000
0001
0000
0010
,
0000
0100
0000
1000
,
0000
0010
0000
0100
,
0000
0001
0000
0000
,
1001
0000
0000
0000
,
0000
0000
0000
0000
,
0000
0000
0000
0000
,
0000
0000
0000
0000
,
0010
0000
0000
0000
;
