#VERSION:0.83;
#TITLE:Singularity;
#SUBTITLE:;
#ARTIST:ETIA.;
#TITLETRANSLIT:;
#SUBTITLETRANSLIT:;
#ARTISTTRANSLIT:;
#GENRE:;
#ORIGIN:;
#CREDIT:;
#BANNER:Singularity.png;
#BACKGROUND:Singularity-bg.png;
#PREVIEWVID:;
#JACKET:Singularity-jacket.png;
#CDIMAGE:;
#DISCIMAGE:;
#LYRICSPATH:;
#CDTITLE:;
#MUSIC:Singularity.ogg;
#OFFSET:-0.609328;
#SAMPLESTART:12.934031;
#SAMPLELENGTH:15.000000;
#SELECTABLE:YES;
#DISPLAYBPM:175.000000;
#BPMS:0.000=175.000,
192.000=87.500,
208.000=175.000,
235.500=350.000,
243.500=175.000;
#STOPS:;
#DELAYS:;
#WARPS:192.750=14.000;
#TIMESIGNATURES:0.000=4=4;
#TICKCOUNTS:0.000=4;
#COMBOS:0.000=1;
#SPEEDS:0.000=1.000=0.000=0;
#SCROLLS:0.000=1.000,
235.500=-1.000,
236.500=1.000,
237.500=-1.000,
238.500=1.000,
239.500=-1.000,
240.500=1.000,
241.500=-1.000,
242.500=1.000;
#FAKES:;
#LABELS:0.000=Song Start;
#BGCHANGES:;
#KEYSOUNDS:;
#ATTACKS: TIME=66.48:LEN=0.09:MODS=*100 stealth: TIME=66.65:LEN=0.09:MODS=*100 stealth: TIME=66.82:LEN=0.17:MODS=*100 stealth: TIME=66.57:LEN=0.09:MODS=*100 no stealth: TIME=66.74:LEN=0.09:MODS=*100 no stealth: TIME=66.99:LEN=0.17:MODS=*100 no stealth;

//---------------dance-single - ----------------
#NOTEDATA:;
#CHARTNAME:;
#STEPSTYPE:dance-single;
#DESCRIPTION:;
#CHARTSTYLE:;
#DIFFICULTY:Hard;
#METER:15;
#RADARVALUES:0.674960,0.880265,0.299732,0.354946,0.425935,599.000000,561.000000,38.000000,45.000000,0.000000,0.000000,0.000000,0.000000,21.000000,0.674960,0.880265,0.299732,0.354946,0.425935,599.000000,561.000000,38.000000,45.000000,0.000000,0.000000,0.000000,0.000000,21.000000;
#CREDIT:;
#ATTACKS:TIME=66.48:LEN=0.09:MODS=*100 stealth:TIME=66.65:LEN=0.09:MODS=*100 stealth:TIME=66.82:LEN=0.17:MODS=*100 stealth:TIME=66.57:LEN=0.09:MODS=*100 no stealth:TIME=66.74:LEN=0.09:MODS=*100 no stealth:TIME=66.99:LEN=0.17:MODS=*100 no stealth:TIME=66.480003:LEN=0.090000:MODS=*100 stealth:TIME=66.650002:LEN=0.090000:MODS=*100 stealth:TIME=66.820000:LEN=0.170000:MODS=*100 stealth:TIME=66.570000:LEN=0.090000:MODS=*100 no stealth:TIME=66.739998:LEN=0.090000:MODS=*100 no stealth:TIME=66.989998:LEN=0.170000:MODS=*100 no stealth:TIME=66.480003:LEN=0.090000:MODS=*100 stealth:TIME=66.650002:LEN=0.090000:MODS=*100 stealth:TIME=66.820000:LEN=0.170000:MODS=*100 stealth:TIME=66.570000:LEN=0.090000:MODS=*100 no stealth:TIME=66.739998:LEN=0.090000:MODS=*100 no stealth:TIME=66.989998:LEN=0.170000:MODS=*100 no stealth;
#DISPLAYBPM:175.000000;
#NOTES:
0000
0000
0000
0000
,
0000
0000
0000
0000
,
0000
0000
0000
0000
,
0000
0000
0000
0000
,
0000
0000
0000
0000
,
1001
0000
0000
0000
1001
0000
0000
1000
0010
0000
0001
0000
0010
0000
1000
0000
,
0001
0000
0001
0000
0001
0000
0000
0010
1000
0000
0010
0000
0001
0000
1000
0000
,
0010
0100
0001
0100
0010
1000
0100
0010
,
0002
0000
0000
0000
,
1003
0100
0001
1000
0010
0001
1000
0100
,
0010
0001
0000
0001
1000
0000
0010
0000
1000
0000
0001
0000
0100
0010
0100
0000
,
0001
0100
1000
0001
0010
1000
0001
0010
,
0100
1000
0000
1000
0001
0000
0000
0000
0010
0100
0010
0100
0010
0000
0000
0000
,
0001
0010
1000
0001
0100
1000
0001
0010
,
0001
1000
0000
1000
0010
0000
0100
0000
0001
0000
1000
0000
0010
0100
0010
0000
,
1000
0010
0001
1000
0100
0001
1000
0100
,
0010
0001
0000
0001
1000
0000
0000
0000
0010
0100
0010
0100
0010
0000
1000
0000
,
0001
0100
1000
0100
0020
0000
0130
0001
,
1000
0100
0000
0100
1000
0000
0001
0010
0001
0000
1000
0000
0100
0000
0100
0000
,
1000
0100
0001
0100
0020
0000
0130
1000
,
0001
0100
0000
0100
0010
0000
0100
0000
0001
1000
0001
1000
0001
0000
0000
0000
,
1000
0100
0010
0100
1000
0001
0100
0020
,
0000
0130
0001
2000
0000
3002
0000
0000
,
1003
0000
1000
0000
0001
0010
0100
0000
1000
0000
0100
0010
0001
0000
1000
0000
,
0001
0000
0100
0010
1000
0000
0001
0000
1000
0010
0100
0000
0100
0001
1000
0001
,
0020
0000
0000
0000
0000
0000
0000
0032
,
0000
0000
0000
0000
0000
0000
0000
2003
,
0000
0000
0000
0000
,
0000
0000
0000
3000
,
0200
0000
0000
0000
0000
0000
0000
0302
,
0000
0000
0000
0000
0000
0000
0000
0023
,
0000
0000
0000
0000
0000
0000
0000
2030
,
0000
0000
0000
3000
,
1200
0000
1000
0000
0310
0000
0001
2000
,
0000
0000
3000
0000
0001
1000
0010
0200
,
0000
0000
0001
0000
0000
1000
0000
0000
,
0001
0000
0000
1000
0000
0000
0301
0000
,
0201
0000
0001
0000
0310
1000
0001
0020
,
0000
0000
0000
0230
0000
1000
0000
0000
,
0320
0000
0000
0000
0000
0030
0000
2002
,
0000
0000
0000
3003
,
0001
0100
0010
0010
0100
0002
0003
0000
,
1000
0100
0010
0010
0100
2000
3000
0000
,
0001
0100
1000
1000
0100
0002
0003
0000
,
1000
0100
0001
0001
0100
1000
0010
0100
,
0110
0000
0000
0000
0110
0000
0000
0100
0001
0000
1000
0000
0100
0000
0010
0000
,
0011
0000
1001
0000
1010
0000
0000
0010
0100
0000
0001
0000
1000
0000
0100
0000
,
1000
0000
1000
0000
0001
0000
0001
0000
0010
0001
0010
0001
1000
0010
1000
0010
,
0000
0000
0000
0000
0000
0000
0000
0000
0110
0000
0000
0000
0101
0000
0000
1000
,
0000
0010
1000
0000
0101
0000
0000
0000
0100
0001
0000
0001
1000
0000
1100
0000
,
0000
0100
0010
0000
0100
0000
1000
0000
1010
0000
0000
0000
0000
0000
0000
0000
,
0000
0000
0000
0000
,
1001
0000
0000
0000
1100
0000
0000
0001
0000
0010
0001
0000
1100
0000
0000
0000
,
0100
1000
0000
1000
0001
0000
0101
0000
0000
0100
0010
0000
0100
0000
0001
0000
,
0011
0000
0000
0000
1010
0000
0000
0010
0000
0100
0001
0000
0120
0000
1000
0000
,
0230
0001
0320
0100
2030
0010
3001
0100
,
1001
0000
0000
0000
0101
0000
0000
1000
0000
0001
0010
0000
1100
0000
0000
0000
,
0001
0100
0000
0100
0010
0000
1010
0000
0000
1000
0001
0000
0021
0000
0001
0000
,
0230
1000
0320
0100
0032
0100
2003
3001
,
0000
0000
0000
0000
,
0000
0000
0000
0000
,
1001
0000
0000
0000
0101
0000
0000
1000
0000
0010
0100
0000
0110
0000
0000
0000
,
0100
0001
0000
1000
0001
0000
0011
0000
0010
0100
0000
0000
0001
0000
0100
0000
,
2000
0000
0000
0000
3001
0000
0000
0100
0000
0100
0010
0000
0001
0000
0010
0000
,
1000
0000
0100
0000
0010
0000
0001
0100
0000
0010
0000
0000
1000
0010
1000
0010
,
0100
0000
0010
0000
1000
0000
0100
0010
0000
0100
0000
0000
0010
0001
0010
0001
,
1000
0010
0000
0010
0100
0000
0100
0001
0000
0001
0000
0000
0100
0010
0100
0010
,
1000
0000
1000
0000
0001
0000
0001
0000
1000
0100
1000
0001
1000
0001
0100
0001
,
0020
0000
0000
0030
,
0001
0100
1000
0001
0010
1000
0001
0100
,
0001
1000
0000
1000
0010
0000
1000
0000
0100
0000
0010
0001
0010
0000
0100
0000
,
1000
0100
0001
1000
0010
0001
1000
0010
,
1000
0001
0000
0001
0100
0000
0001
0000
0100
0010
0100
0010
0100
0000
0001
0000
,
1000
0010
0001
1000
0100
0001
1000
0010
,
0100
0001
0000
0001
0010
0000
0100
0000
0010
0000
0001
1000
0100
0000
1000
0000
,
0001
0010
1000
0001
0100
1000
0001
0100
,
0010
1000
0000
1000
0001
0000
0100
0000
0010
0100
0001
0000
0100
0010
1000
0000
,
1001
0001
0100
0001
0020
0000
0130
0010
,
0001
1000
0000
1000
0100
0000
1000
0000
0010
0000
0100
0001
1000
0000
0001
0000
,
1001
1000
0100
1000
0020
0000
0130
0010
,
1000
0001
0000
0001
0100
0000
0000
0000
0010
0100
0010
1000
0001
0000
0000
0000
,
2001
0100
0001
0010
3001
0100
0010
1020
,
0000
1000
0100
0001
0000
2030
0000
0000
,
3001
0100
0101
0001
1000
0100
1100
0110
,
0000
0000
0011
0000
0001
0000
1000
0000
1010
0000
0010
0000
0110
0000
0010
0100
,
0002
0100
1000
0100
,
0010
0100
1000
0010
,
1003
0000
0100
0000
0001
0000
0100
0010
0100
0000
2000
0000
3001
0000
0000
0000
,
0001
0000
0100
0000
1000
0000
0100
0010
0100
0000
0002
0000
1003
0000
0000
0000
,
1001
0000
0000
0000
1001
0000
0000
0001
0010
0000
1000
0000
0010
0000
0001
0000
,
1000
0000
1000
0000
1000
0000
0000
0010
0001
0000
0010
0000
1000
0000
0001
0000
,
0100
0001
0100
0000
0010
1000
0010
0000
1000
0100
1000
0000
0001
0010
0001
0010
,
0100
1000
0001
0100
0001
1000
0010
0002
,
0003
0000
0000
0000
;

//---------------dance-single - ----------------
#NOTEDATA:;
#CHARTNAME:;
#STEPSTYPE:dance-single;
#DESCRIPTION:;
#CHARTSTYLE:;
#DIFFICULTY:Challenge;
#METER:17;
#RADARVALUES:0.904830,1.136245,0.772993,0.236630,0.883420,803.000000,705.000000,98.000000,30.000000,0.000000,0.000000,0.000000,0.000000,26.000000,0.904830,1.136245,0.772993,0.236630,0.883420,803.000000,705.000000,98.000000,30.000000,0.000000,0.000000,0.000000,0.000000,26.000000;
#CREDIT:;
#DISPLAYBPM:175.000000;
#NOTES:
// measure 0
0000
0000
0000
0000
,  // measure 1
0000
0000
0000
0000
,  // measure 2
0000
0000
0000
0000
,  // measure 3
0000
0000
0000
0000
,  // measure 4
0000
0000
0000
0000
,  // measure 5
1001
0000
0000
0000
1001
0000
0000
1000
0010
0000
0001
0000
0010
0000
0100
0000
,  // measure 6
0110
0000
1001
0000
0110
0000
0000
0100
0001
1000
0001
0000
0010
0000
1000
0000
,  // measure 7
0010
0001
0010
0100
0010
0001
0010
0100
1000
0010
0100
0010
1000
0010
0100
0001
,  // measure 8
0020
0000
0000
0130
,  // measure 9
1000
0100
1000
0100
0010
0001
1000
0100
1000
0100
0010
0001
1000
0001
0100
0001
,  // measure 10
1000
0010
0000
0110
0000
0000
0100
0010
1000
0010
0100
0001
0100
0010
1000
0001
,  // measure 11
0100
0001
0100
0001
1000
0010
0100
0001
0100
0001
1000
0010
0100
0001
0010
0001
,  // measure 12
1000
0100
0000
0100
0010
0000
0100
0000
1100
0000
0101
0000
1100
0000
0000
0000
,  // measure 13
1000
0100
1000
0100
0001
0100
1000
0100
1000
0100
0001
0100
1000
0001
1000
0010
,  // measure 14
0100
0001
0000
1001
0000
0000
0001
0010
0100
0010
0001
1000
0010
0100
0010
1000
,  // measure 15
0001
0100
0001
0100
1000
0100
0001
0100
0001
0100
1000
0100
0001
1000
0001
0010
,  // measure 16
0001
0100
0000
0100
0010
0000
1000
0000
1010
0000
0011
0000
1010
0000
1001
0000
,  // measure 17
0002
0100
1000
0100
0023
0100
0130
1000
,  // measure 18
0100
0000
0000
0101
0000
0000
1000
0000
0100
0000
0001
0000
0100
0000
1000
0000
,  // measure 19
0020
0100
0001
0100
2030
0001
3100
0001
,  // measure 20
0001
0000
0000
1010
0000
0000
0001
0000
0100
0000
1000
0000
0100
0000
0001
0000
,  // measure 21
2002
0000
3003
0000
1000
0100
0010
0012
,  // measure 22
0000
0000
0000
1000
0000
0203
0000
0000
,  // measure 23
0301
0001
0100
0100
0010
0010
1000
1000
,  // measure 24
0010
1000
0001
1000
0100
1000
0001
0100
0001
1000
0001
0010
0001
0010
0100
1000
,  // measure 25
0020
0000
0000
0000
0000
0000
0000
2030
,  // measure 26
0000
0000
0000
0000
0000
0000
0000
3001
,  // measure 27
0000
0000
0101
0000
0000
0011
0000
0000
,  // measure 28
1010
0000
0000
1100
0000
0000
0110
0000
,  // measure 29
0020
0000
0000
0000
0000
0000
0000
0032
,  // measure 30
0000
0000
0000
0000
0000
0000
0000
1003
,  // measure 31
0000
0000
0000
0000
0001
0010
0100
1000
0000
0000
0001
0010
0100
1000
0000
0000
,  // measure 32
0010
1000
0001
0100
0000
0000
0010
1000
0001
0100
0000
0000
0001
1000
0001
1000
,  // measure 33
0100
0000
0100
0000
0011
0000
0100
2000
,  // measure 34
0000
0000
3001
0000
0101
0001
1000
0020
,  // measure 35
0000
0000
0000
0000
1000
0000
0100
0100
,  // measure 36
0000
0001
0001
0000
0100
0000
1030
0000
,  // measure 37
1001
0000
1100
0000
1000
1000
0100
0001
,  // measure 38
0000
0001
0100
0020
0000
0230
0000
0310
,  // measure 39
0001
0000
0001
0000
0001
0000
0001
0101
,  // measure 40
1000
0000
1000
0000
1000
0100
0001
0100
,  // measure 41
0020
0000
0000
0030
,  // measure 42
0001
0010
0100
1000
0100
0010
0011
0000
,  // measure 43
1000
0010
0100
0001
0100
0010
1010
0000
,  // measure 44
0001
0000
0010
0000
0100
0000
1000
0000
0010
0000
0100
0000
0001
1000
0001
0000
,  // measure 45
1001
0000
0000
0000
1001
0000
0001
0100
0010
0000
0010
0000
1000
0010
0100
0000
,  // measure 46
0101
0000
1001
0000
1100
0000
0100
0010
0001
1000
0001
0000
0100
0000
0100
0010
,  // measure 47
1000
0000
1000
0000
1000
0000
1000
0000
1000
0100
0010
0100
0001
0100
1000
0010
,  // measure 48
0000
0000
0000
0000
0000
0000
0000
0000
0110
0000
0000
0000
0101
0000
0000
1010
,  // measure 49
0000
1010
0000
0000
0101
0000
0100
0001
1000
0100
0000
0100
0010
0000
1100
0000
,  // measure 50
0000
1000
0001
0000
0011
0000
1100
0000
1001
0000
0000
0000
0000
0000
0000
0000
,  // measure 51
0000
0000
0000
0000
,  // measure 52
1001
0000
0000
0000
1100
0000
0000
0011
0000
0011
0000
0000
1100
0000
0100
1000
,  // measure 53
0001
0100
0000
0100
0010
0000
0101
0000
0000
0001
1000
0000
1010
0000
0101
0000
,  // measure 54
0110
0000
0010
0000
1001
0000
0000
0101
0000
0101
0000
0000
1010
0000
1000
0001
,  // measure 55
0010
0100
0010
0000
0011
0000
0000
1100
0000
1000
0001
0000
0100
0001
0100
0001
,  // measure 56
0010
0000
0000
0000
1001
0000
0000
1100
0000
1100
0000
0000
0011
0000
0001
1000
,  // measure 57
0010
0100
0000
0100
0001
0000
0101
0000
0000
0100
0010
0000
1010
0000
1000
0001
,  // measure 58
1000
0000
0100
0000
0001
0000
0100
1000
0000
0001
0100
0000
1000
0000
0100
0000
,  // measure 59
0000
0000
0000
0000
,  // measure 60
0000
0000
0000
0000
,  // measure 61
1001
0000
0000
0000
0101
0000
0000
0110
0000
0101
0000
0000
1001
0000
0001
1000
,  // measure 62
0100
0010
0000
0010
0100
0000
0011
0000
0000
0010
0100
0000
1100
0000
0001
0000
,  // measure 63
0110
0000
1100
0000
1001
0000
0000
1010
0000
1001
0000
0000
0101
0000
0001
0100
,  // measure 64
0001
1000
0010
0000
1000
0010
0100
0010
0000
1000
0001
0000
0100
0010
0100
0001
,  // measure 65
1000
0000
1000
0000
0100
0000
0100
0010
0000
0010
0001
0000
1000
0001
1000
0001
,  // measure 66
0100
0001
0000
1000
0010
0000
1000
0001
0000
0010
0100
0000
1000
0100
1000
0001
,  // measure 67
0010
0001
0010
0001
0010
0100
0010
0100
0010
1000
0010
1000
0010
0100
0010
0001
,  // measure 68
1000
0002
0000
0000
0200
0000
0303
0000
,  // measure 69
0001
0100
0010
0100
0001
1000
0001
0100
0010
0100
0001
1000
0001
0010
0100
0010
,  // measure 70
0001
1000
0000
1100
0000
0000
1000
0001
0010
0100
1000
0100
0010
0001
0100
0001
,  // measure 71
1000
0100
0010
0100
1000
0001
1000
0100
0010
0100
1000
0001
1000
0010
0100
0010
,  // measure 72
0100
0001
0000
0001
1000
0000
0100
0000
1100
0000
0110
0000
0011
0000
0110
0000
,  // measure 73
1000
0100
0010
0100
0001
0100
1000
0100
0010
0100
0001
0100
1000
0100
0010
0001
,  // measure 74
1000
0001
0000
0101
0000
0000
0001
0100
0010
0100
0001
1000
0100
0010
0100
1000
,  // measure 75
0001
0100
0010
0100
1000
0100
0001
0100
0010
0100
1000
0100
0001
1000
0010
0100
,  // measure 76
0010
1000
0000
1000
0001
0000
1000
0000
1010
0000
1001
0000
0101
0000
1001
0000
,  // measure 77
2010
0001
0100
0001
3020
0100
1030
0002
,  // measure 78
0010
0000
0000
1000
0000
0000
0100
0000
1000
0000
1000
0000
0013
0000
0010
0000
,  // measure 79
0012
1000
0100
1000
0023
0100
0031
2000
,  // measure 80
0100
0000
0000
0001
0000
0000
0010
0000
0001
0000
0100
0000
3001
0000
0001
0000
,  // measure 81
2002
0000
3003
0000
0101
1000
0010
0210
,  // measure 82
0000
0000
0000
1000
0000
0302
0000
0000
,  // measure 83
1003
1000
0100
0100
0001
0001
0010
0110
,  // measure 84
0000
0000
1000
0000
0001
0000
0100
0000
0010
0000
1000
0000
0010
0100
0010
0100
,  // measure 85
0001
1000
1010
1000
0001
0101
0010
0000
,  // measure 86
1000
0001
0011
0001
1000
1100
0010
0000
,  // measure 87
0001
0100
1100
0100
0010
1010
0001
0000
,  // measure 88
1000
0100
0101
0100
0010
0011
1000
0001
,  // measure 89
1001
0000
0000
0000
1001
0000
0000
0001
0010
0000
1000
0000
0010
0000
0001
0000
,  // measure 90
0011
0000
1010
0000
1100
0000
0000
0100
1000
0001
0100
0000
0010
0000
0010
0000
,  // measure 91
1000
0010
0100
0001
1000
0010
0100
0010
1000
0100
0010
0001
1000
0100
1000
0001
,  // measure 92
0010
0100
1000
0100
1000
0000
0010
0100
0001
0100
0001
0000
1000
0001
0010
1000
;

//---------------dance-single - ----------------
#NOTEDATA:;
#CHARTNAME:;
#STEPSTYPE:dance-single;
#DESCRIPTION:;
#CHARTSTYLE:;
#DIFFICULTY:Medium;
#METER:11;
#RADARVALUES:0.458612,0.586843,0.220855,0.394384,0.134091,407.000000,379.000000,28.000000,50.000000,0.000000,0.000000,0.000000,0.000000,14.000000,0.458612,0.586843,0.220855,0.394384,0.134091,407.000000,379.000000,28.000000,50.000000,0.000000,0.000000,0.000000,0.000000,14.000000;
#CREDIT:;
#DISPLAYBPM:175.000000;
#NOTES:
0000
0000
0000
0000
,
0000
0000
0000
0000
,
0000
0000
0000
0000
,
0000
0000
0000
0000
,
0000
0000
0000
0000
,
1000
0000
0000
0000
1000
0000
0000
0100
0000
0000
1000
0000
0100
0000
0010
0000
,
0001
0000
0001
0000
0001
0000
0000
0100
0000
0000
0001
0000
0100
0000
0010
0000
,
1000
0100
0010
0001
1000
0100
0010
0001
,
0020
0000
0000
0030
,
0001
1000
0010
0000
1000
0001
0100
0000
,
0001
0000
0000
0001
0000
0000
0100
0000
0010
0000
0100
0000
0010
0000
0000
0000
,
1000
0100
0010
0000
0001
0010
0100
0000
,
1000
0000
0000
1000
0000
0000
0100
0000
1000
0000
0001
0000
1000
0000
0000
0000
,
0001
0010
1000
0000
1000
0010
0001
0000
,
1000
0000
0000
1000
0000
0000
0100
0000
0010
0000
0100
0000
0010
0000
0000
0000
,
0001
0100
1000
0000
1000
0100
0001
0000
,
0010
0000
0000
0010
0000
0000
0001
0000
0010
0000
0100
0000
1000
0000
0001
0000
,
0200
0000
0000
0000
0320
0000
0130
0001
,
0100
1010
0100
0011
,
2000
0000
0000
0000
3002
0000
1003
0100
,
0010
1100
0010
0101
,
2002
0000
3003
0000
0001
1000
0100
0020
,
0000
0000
0000
0130
0000
0200
0000
0000
,
1300
1100
1001
0101
,
0001
0100
0001
0100
0010
1000
0010
1000
,
0002
0000
0000
0000
0000
0000
0000
2003
,
0000
0000
0000
0000
0000
0000
0000
3200
,
0000
0000
0000
0000
,
0000
0000
0000
0300
,
2000
0000
0000
0000
0000
0000
0000
3002
,
0000
0000
0000
0000
0000
0000
0000
0023
,
0000
0000
0000
0000
0000
0000
0000
0200
,
0000
0000
0000
0330
,
1000
0000
1000
0000
0010
0000
0100
0002
,
0000
0000
0000
0000
0013
0000
0100
2000
,
0000
0000
0000
0000
,
3000
0000
0000
0000
,
0200
0000
0300
0000
0100
1000
0001
0020
,
0000
0000
0000
0001
0000
0230
0000
0000
,
2300
0000
0000
0000
0000
0000
0000
0002
,
0000
0000
0000
3003
,
1001
0000
1001
0000
0001
0100
0001
0000
,
0110
0000
0110
0000
1000
0010
1000
0000
,
0011
0000
0011
0000
1000
0100
1000
0000
,
0101
0000
0101
0000
0100
0010
0100
0010
,
1000
0000
0000
0000
1000
0000
0000
0001
0000
0000
1000
0000
0010
0000
0100
0000
,
0001
0000
0001
0000
0001
0000
0000
1000
0000
0000
0001
0000
0010
0000
0100
0000
,
1000
0001
1000
0001
0010
0100
0010
0100
,
0000
0000
0000
0000
0000
0000
0000
0000
0110
0000
0000
0000
0001
0000
0000
0001
,
0000
0010
0000
0000
0001
0000
0000
0000
0001
0000
0000
1000
0001
0000
0010
0000
,
0000
0010
0000
0000
0001
0000
0000
0000
0110
0000
0000
0000
0000
0000
0000
0000
,
0000
0000
0000
0000
,
1001
0000
0000
0000
1000
0000
0000
1000
0000
0100
0000
0000
1000
0000
0000
0000
,
1000
0000
0000
0001
1000
0000
0100
0000
0000
0100
0000
0000
1000
0000
0000
0000
,
1001
0000
0000
0000
0001
0000
0000
0001
0000
0100
0000
0000
0001
0000
0000
0000
,
0002
0203
2300
3200
,
0310
0000
0000
0000
1000
0000
0000
0010
0000
0010
0000
0000
1000
0000
0000
0000
,
0001
0000
0000
1000
0001
0000
0010
0000
0000
0010
0000
0000
0001
0000
0000
0000
,
0002
0000
0023
0000
2030
0000
3020
0030
,
0000
0000
0000
0000
,
0000
0000
0000
0000
,
1001
0000
0000
0000
0001
0000
0000
0001
0000
0100
0000
0000
0001
0000
0000
0000
,
0001
0000
0000
1000
0001
0000
0100
0000
0000
0100
0000
0000
0001
0000
0000
0000
,
1001
0000
0001
0000
1000
0000
0000
1000
0000
0100
0000
0000
1000
0000
0000
0000
,
2000
0000
3200
0000
0301
0100
0020
0000
,
0032
0000
0203
0000
1300
0100
0020
0000
,
1030
0001
1000
0001
1000
0100
0020
0000
,
0031
1000
0100
0010
0001
1000
0010
0100
,
0002
0000
0000
0003
,
0001
1000
0100
0000
1000
0001
0010
0000
,
0001
0000
0000
0001
0000
0000
0010
0000
0100
0000
0010
0000
0100
0000
0000
0000
,
1000
0010
0100
0000
0001
0010
0100
0000
,
1000
0000
0000
1000
0000
0000
0100
0000
1000
0000
0001
0000
1000
0000
0000
0000
,
0001
0100
1000
0000
0001
0010
1000
0000
,
0001
0000
0000
0010
0000
0000
0001
0000
1000
0000
0100
0000
0010
0000
0000
0000
,
0001
0010
1000
0000
0001
0100
1000
0000
,
0010
0000
0000
1000
0000
0000
0001
0000
0010
0000
0100
0000
1000
0000
0001
0000
,
0200
0000
0000
0000
0320
0000
0130
0001
,
1000
0110
0001
0110
,
2000
0000
0000
0000
3002
0000
1003
0100
,
0010
1001
0100
1001
,
2002
0000
3003
0000
1000
0001
0100
0020
,
0000
0000
0000
0130
0000
0200
0000
0000
,
0301
0101
1001
1100
,
1000
0100
0010
0001
0010
0100
1000
0001
,
1000
0000
1000
0000
1000
0100
0010
0000
,
0001
0000
0001
0000
0001
0100
0010
0000
,
1000
0000
0001
0000
1000
0100
0010
0000
,
0001
0000
1000
0000
0001
0100
0010
0000
,
1000
0000
0000
0000
1000
0000
0000
0100
0000
0000
1000
0000
0100
0000
0010
0000
,
0001
0000
0001
0000
0001
0000
0000
0100
0000
0000
0001
0000
0100
0000
0010
0000
,
1000
0100
0010
0001
1000
0100
0010
0001
,
0020
0000
0000
0230
0000
0000
1300
0002
,
0003
0000
0000
0000
;

//---------------dance-single - ----------------
#NOTEDATA:;
#CHARTNAME:;
#STEPSTYPE:dance-single;
#DESCRIPTION:;
#CHARTSTYLE:;
#DIFFICULTY:Easy;
#METER:7;
#RADARVALUES:0.313254,0.476810,0.070989,0.260293,0.094652,278.000000,269.000000,9.000000,33.000000,0.000000,0.000000,0.000000,0.000000,13.000000,0.313254,0.476810,0.070989,0.260293,0.094652,278.000000,269.000000,9.000000,33.000000,0.000000,0.000000,0.000000,0.000000,13.000000;
#CREDIT:;
#DISPLAYBPM:175.000000;
#NOTES:
0000
0000
0000
0000
,
0000
0000
0000
0000
,
0000
0000
0000
0000
,
0000
0000
0000
0000
,
0000
0000
0000
0000
,
1000
0100
1000
0001
,
1000
0010
1000
0001
,
1000
0000
1000
0000
1000
0001
1000
0000
,
0020
0000
0000
0030
,
1000
1000
0001
0001
,
0100
0000
0000
0100
0000
0000
0010
0000
0100
0000
0000
0000
0100
0000
0000
0000
,
0001
0001
1000
1000
,
0100
0000
0000
0100
0000
0000
0010
0000
0200
0000
0000
0000
0300
0000
0000
0000
,
1000
1000
0010
0010
,
0100
0000
0000
0100
0000
0000
0001
0000
0100
0000
0000
0000
0100
0000
0000
0000
,
0001
0001
0010
0010
,
0100
0000
0000
0100
0000
0000
1000
0000
0200
0000
0000
0000
0300
0000
0000
0000
,
2000
0000
0000
0000
3001
0000
1000
0020
,
0000
0000
0000
0030
,
0200
0000
0000
0000
0310
0000
0100
0002
,
0000
0000
0000
0003
,
2002
0000
3003
0000
0001
0000
1000
0020
,
0000
0000
0000
0100
0000
0130
0000
0000
,
0001
0100
0010
1000
,
0001
0010
0100
1000
,
0020
0000
0000
0000
,
0000
0000
0000
0000
0000
0000
0000
0030
,
0000
0000
0000
0000
,
0000
0000
0000
0000
,
1000
0000
0000
0000
0000
0000
0000
0001
,
0000
0000
0000
0000
0000
0000
0000
0100
,
0000
0000
0000
0000
0000
0000
0000
0010
,
0000
0000
0000
0000
,
0001
0000
0001
0000
0010
0000
0001
2000
,
0000
0000
3000
0000
0010
0000
0100
0002
,
0000
0000
0000
0000
,
0003
0000
0000
0000
,
1000
0000
1000
0000
0100
0000
1000
0010
,
0000
0000
0000
0010
0000
0100
0000
0000
,
0002
0000
0000
0000
0000
0000
0003
2000
,
0000
0000
0000
3000
,
2002
0000
0000
3003
,
0001
0001
0001
0001
,
1000
0100
0001
0100
,
1000
0010
0001
0010
,
1000
1000
0010
0100
,
0001
0001
0010
0100
,
1000
0000
0001
0000
1000
0001
1000
0001
,
0000
0000
0000
0000
0000
0000
0000
0000
0110
0000
0000
0000
1000
0000
0000
1000
,
0000
1000
0000
0000
1000
0000
0000
0000
0010
0000
0000
0000
0010
0000
1000
0000
,
0000
1000
0000
0000
1000
0000
0000
0000
0110
0000
0000
0000
0000
0000
0000
0000
,
0000
0000
0000
0000
,
1001
0000
0000
0000
0001
0000
0000
0001
0000
0001
0000
0000
0001
0000
0000
0000
,
0100
0000
0000
0000
0100
0000
0001
0000
0000
0001
0000
0000
0001
0000
0000
0000
,
1001
0000
0000
0000
1000
0000
0000
1000
0000
1000
0000
0000
1000
0000
0000
0000
,
0100
0010
0001
1000
,
1001
0000
0000
0000
0001
0000
0000
0001
0000
0001
0000
0000
0001
0000
0000
0000
,
0100
0000
0000
0000
0100
0000
0001
0000
0000
0001
0000
0000
0001
0000
0000
0000
,
0100
0000
0010
0000
1000
0000
0002
0003
,
0000
0000
0000
0000
,
0000
0000
0000
0000
,
1001
0000
0000
0000
1000
0000
0000
0010
0000
0010
0000
0000
1000
0000
0000
0000
,
0100
0000
0000
0000
0100
0000
1000
0000
0000
1000
0000
0000
1000
0000
0000
0000
,
1001
0000
0000
0000
0001
0000
0000
0010
0000
0010
0000
0000
0001
0000
0000
0000
,
0100
0010
1000
0001
,
0100
0001
0010
0100
,
0100
1000
0010
0100
,
0020
0000
0000
0030
,
2002
0000
0000
3003
,
0001
0100
1000
0100
,
0010
0000
0000
0010
0000
0000
0100
0000
0010
0000
0000
0000
0010
0000
0000
0000
,
1000
0100
0001
0100
,
0010
0000
0000
0010
0000
0000
0100
0000
0020
0000
0000
0000
0030
0000
0000
0000
,
0001
0010
0100
1000
,
0010
0000
0000
0010
0000
0000
0100
0000
0010
0000
0000
0000
0010
0000
0000
0000
,
1000
0010
0100
0001
,
0010
0000
0000
0010
0000
0000
0100
0000
0020
0000
0000
0000
0030
0000
0000
0000
,
2000
0000
0000
0000
3010
0000
1000
0200
,
0000
0000
0000
0300
,
0020
0000
0000
0000
0031
0000
0100
0002
,
0000
0000
0000
0003
,
2002
0000
3003
0000
1000
0000
0001
0020
,
0000
0000
0000
0100
0000
0130
0000
0000
,
1000
0100
0010
0001
,
1000
0010
0100
0001
,
1000
0000
1000
0000
2000
3000
0000
0000
,
0001
0000
0001
0000
0002
0003
0000
0000
,
1000
0000
0100
0000
1000
1000
0000
0000
,
0001
0000
0100
0000
0001
0001
0000
0000
,
0001
0100
0001
1000
,
0001
0010
0001
1000
,
0001
0000
0001
0000
0001
1000
0001
0000
,
0100
0000
0001
0000
0100
0000
0010
2000
,
3000
0000
0000
0000
;

//---------------dance-single - ----------------
#NOTEDATA:;
#CHARTNAME:;
#STEPSTYPE:dance-single;
#DESCRIPTION:;
#CHARTSTYLE:;
#DIFFICULTY:Beginner;
#METER:4;
#RADARVALUES:0.192685,0.292633,0.055214,0.000000,0.000000,171.000000,164.000000,7.000000,0.000000,0.000000,0.000000,0.000000,0.000000,6.000000,0.192685,0.292633,0.055214,0.000000,0.000000,171.000000,164.000000,7.000000,0.000000,0.000000,0.000000,0.000000,0.000000,6.000000;
#CREDIT:;
#DISPLAYBPM:175.000000;
#NOTES:
0000
0000
0000
0000
,
0000
0000
0000
0000
,
0000
0000
0000
0000
,
0000
0000
0000
0000
,
0000
0000
0000
0000
,
1000
0000
1000
0000
,
0001
0000
0001
0000
,
1000
0000
0001
0000
,
1001
0000
0000
0000
,
0001
0000
1000
0000
,
0010
0010
0010
0000
,
1000
0000
0001
0000
,
0010
0010
0010
0000
,
1000
0000
0001
0000
,
0100
0010
0100
0000
,
0001
0000
1000
0000
,
0100
0010
0100
0000
,
1000
0000
1000
0000
,
0010
0000
0010
0000
,
0001
0000
0001
0000
,
0100
0000
0100
0000
,
0110
0000
0000
0000
0000
0000
0000
1001
,
0000
0000
0000
0000
,
0001
0000
0001
0000
,
1000
0000
1000
0000
,
1001
0000
0000
0000
,
0000
0000
0000
0000
,
0000
0000
0000
0000
,
0000
0000
0000
0000
,
1000
0000
0000
0000
0000
0000
0000
0100
,
0000
0000
0000
0000
0000
0000
0000
0010
,
0000
0000
0000
0000
0000
0000
0000
0001
,
0000
0000
0000
0000
,
0001
0000
0000
0000
0000
0000
0000
0100
,
0000
0000
0000
0000
0000
0000
0000
0010
,
0000
0000
0000
0000
,
0000
0000
0000
0000
,
1000
0000
0000
0000
0000
0000
0000
0001
,
0000
0000
0000
0000
,
0010
0000
0000
0000
0000
0000
0000
0100
,
0000
0000
0000
0000
,
1000
1000
1000
0000
,
0001
0001
0001
0000
,
0100
0100
0100
0000
,
0010
0010
0010
0000
,
1000
0000
0100
0000
,
0001
0000
0100
0000
,
1000
0000
0010
0010
,
0000
0000
0000
0001
,
0000
0001
0000
1000
,
0000
1000
0001
1000
,
0000
0000
0000
0000
,
0000
1000
0000
1000
,
0000
0001
0000
0001
,
1000
0001
0000
0001
,
0000
1000
0000
1000
,
0010
0100
0000
0100
,
0000
0010
0000
0010
,
0100
0010
0000
0010
,
0000
0000
0000
0000
,
0000
0000
0000
0000
,
0000
1000
0000
1000
,
0000
0001
0000
0001
,
1000
0001
0000
0001
,
0000
1000
0000
1000
,
0100
1000
0000
0001
,
0100
0001
0000
1000
,
1000
0100
0010
0001
,
1000
0000
0000
0000
,
0001
0000
1000
0000
,
0010
0010
0010
0000
,
1000
0000
0001
0000
,
0010
0010
0010
0000
,
0001
0000
1000
0000
,
0010
0100
0010
0000
,
1000
0000
0001
0000
,
0010
0100
0010
0000
,
0001
0000
0001
0000
,
0010
0000
0010
0000
,
1000
0000
1000
0000
,
0100
0000
0100
0000
,
0110
0000
0000
0000
0000
0000
0000
1001
,
0000
0000
0000
0000
,
1000
0000
1000
0000
,
0001
0000
0001
0000
,
1000
0100
1000
0000
,
0001
0100
0001
0000
,
1000
0100
0010
0000
,
0001
0100
0010
0000
,
1000
0000
1000
0000
,
0001
0000
0001
0000
,
1000
0000
0001
0000
,
1001
0000
0010
0010
;
