#VERSION:0.83;
#TITLE:Silver;
#SUBTITLE:;
#ARTIST:A.G. Cook;
#TITLETRANSLIT:;
#SUBTITLETRANSLIT:;
#ARTISTTRANSLIT:;
#GENRE:PC MUSIC;
#ORIGIN:;
#CREDIT:;
#BANNER:Silver.png;
#BACKGROUND:Silver-bg.png;
#PREVIEWVID:;
#JACKET:Silver-jacket.jpeg;
#CDIMAGE:;
#DISCIMAGE:;
#LYRICSPATH:;
#CDTITLE:;
#MUSIC:Silver.ogg;
#OFFSET:-0.165000;
#SAMPLESTART:81.007004;
#SAMPLELENGTH:15.000000;
#SELECTABLE:YES;
#BPMS:0.000=190.000;
#STOPS:;
#DELAYS:;
#WARPS:;
#TIMESIGNATURES:0.000=4=4;
#TICKCOUNTS:0.000=4;
#COMBOS:0.000=1;
#SPEEDS:0.000=1.000=0.000=0;
#SCROLLS:0.000=1.000;
#FAKES:;
#LABELS:0.000=Song Start;
#BGCHANGES:;
#KEYSOUNDS:;
#ATTACKS:
;

//---------------dance-single - mikeintyo----------------
#NOTEDATA:;
#CHARTNAME:mikeintyo;
#STEPSTYPE:dance-single;
#DESCRIPTION:mikeintyo;
#CHARTSTYLE:;
#DIFFICULTY:Beginner;
#METER:3;
#RADARVALUES:0.102806,0.151925,0.000000,0.175913,0.000000,90.000000,90.000000,0.000000,22.000000,0.000000,0.000000,0.000000,0.000000,0.000000,0.102806,0.151925,0.000000,0.175913,0.000000,90.000000,90.000000,0.000000,22.000000,0.000000,0.000000,0.000000,0.000000,0.000000;
#CREDIT:mikeintyo;
#NOTES:
0000
0000
0000
0000
,
0000
0000
0000
0000
,
0000
0000
0000
0000
,
0000
0000
0000
0000
,
1000
0000
2000
0000
,
3000
0000
0001
0000
,
0002
0000
0000
0000
,
0000
0000
0003
0000
,
2000
0000
0000
0000
,
3000
0000
0010
0000
,
0020
0000
0000
0000
,
0000
0000
0030
0000
,
0100
0000
0200
0000
,
0300
0000
0001
0000
,
0002
0000
0000
0000
,
0000
0000
0003
0000
,
2000
0000
0000
0000
,
3000
0000
0100
0000
,
2000
0000
0000
0000
,
0000
0000
3000
0000
,
0001
0000
0002
0000
,
0003
0000
0010
0000
,
0002
0000
0000
0000
,
0000
0000
0003
0000
,
0002
0000
0000
0000
,
0003
0000
1000
0000
,
0002
0000
0000
0000
,
0000
0000
0003
0000
,
1000
0000
2000
0000
,
3000
0000
0100
0000
,
2000
0000
0000
0000
,
0000
0000
3000
0000
,
0001
0000
0000
0000
,
0010
0000
0000
0000
,
0100
0000
1000
0000
,
1000
0000
0000
0000
,
0010
0000
0000
0000
,
1000
0000
0000
0000
,
0010
0000
0000
0000
,
0000
0000
0000
0000
,
0100
0000
0000
0000
,
0001
0000
0100
0000
,
0001
0000
0000
0000
,
1000
0000
0000
0000
,
0100
0000
0000
0000
,
1000
0000
0100
0000
,
1000
0000
0000
0000
,
0010
0000
0000
0000
,
0100
0000
0000
0000
,
0000
0000
0001
0000
,
0100
0000
0000
0000
,
0000
0000
0010
0000
,
1000
0000
0000
0000
,
0000
0000
0001
0000
,
1000
0000
0000
0000
,
0000
0000
0100
0000
,
0010
0000
0000
0000
,
0000
0000
0001
0000
,
0100
0000
0000
0000
,
0000
0000
0001
0000
,
0100
0000
0000
0000
,
0000
0000
0010
0000
,
1000
0000
0000
0000
,
0000
0000
0010
0000
,
2000
0000
0000
0000
,
3000
0000
0100
0000
,
0200
0000
0000
0000
,
0300
0000
0010
0000
,
0001
0000
0001
0000
,
0000
0000
2000
0000
,
0002
0000
0000
0000
,
0000
0000
3003
0000
,
0100
0000
0000
0000
,
0000
0000
0000
0000
,
0010
0000
0000
0000
,
0000
0000
0000
0000
,
1000
0000
0000
0000
,
0000
0000
0000
0000
,
0001
0000
0000
0000
,
0000
0000
0000
0000
,
0001
0000
0000
0000
,
0000
0000
0010
0000
,
0100
0000
0000
0000
,
0000
0000
1000
0000
,
0100
0000
0000
0000
,
0000
0000
1000
0000
,
0100
0000
0000
0000
,
0000
0000
0010
0000
,
0002
0000
0003
0000
,
0010
0000
0100
0000
,
2000
0000
3000
0000
,
0001
0000
1000
0000
,
0010
0000
0020
0000
,
0030
0000
0100
0000
,
0002
0000
0003
0000
,
1000
0000
0000
0000
;

//---------------dance-single - mikeintyo----------------
#NOTEDATA:;
#CHARTNAME:mikeintyo;
#STEPSTYPE:dance-single;
#DESCRIPTION:mikeintyo;
#CHARTSTYLE:;
#DIFFICULTY:Easy;
#METER:6;
#RADARVALUES:0.318699,0.382810,0.063968,0.351826,0.000000,279.000000,271.000000,8.000000,44.000000,0.000000,0.000000,0.000000,0.000000,0.000000,0.318699,0.382810,0.063968,0.351826,0.000000,279.000000,271.000000,8.000000,44.000000,0.000000,0.000000,0.000000,0.000000,0.000000;
#CREDIT:mikeintyo;
#NOTES:
0000
0000
0000
0000
,
0000
0000
0000
0000
,
0000
0000
0000
0000
,
0000
0000
0000
0000
,
2000
0000
0002
0000
,
0000
3003
2002
3003
,
2002
0000
0000
0000
,
0000
0000
0000
3003
,
0220
0000
0000
0000
,
0330
0000
1010
0000
,
0220
0000
0000
0000
,
0000
0000
0000
0330
,
0020
0000
0200
0000
,
0330
0000
2002
3003
,
0220
0000
0000
0000
,
0000
0000
0330
0000
,
0001
0000
0001
0000
,
0100
0010
0100
0000
,
0001
0000
0001
0000
,
0100
0010
0100
0000
,
0001
1000
0001
0000
,
0100
0100
0100
0000
,
0010
1000
0010
0000
,
0100
0100
0100
0000
,
0001
0000
0001
0000
,
0010
0001
0021
0000
,
0031
0000
1000
0000
,
0100
1000
0100
0000
,
1000
0001
1000
0000
,
0010
0010
0200
0000
,
0301
0100
0001
0000
,
1000
0001
1000
0000
,
0010
1000
0010
0100
,
0001
0001
0001
0000
,
0010
0001
0010
0100
,
1000
1000
2000
0000
,
3001
0100
0001
1000
,
0010
0010
0010
0000
,
1000
0100
1000
0010
,
0100
0100
0200
0000
,
0301
0010
0100
1000
,
1000
0100
2000
0000
,
3100
1000
0010
0100
,
0001
0010
0002
0000
,
1003
0100
0010
0001
,
0010
0010
0020
0000
,
0130
0010
0100
1000
,
0001
0001
0002
0000
,
1003
0000
0010
0100
,
0001
0100
0020
0000
,
0130
0000
0010
1000
,
0100
1000
0020
0000
,
1030
0000
0001
1000
,
0100
1000
0002
0000
,
0103
0000
0001
1000
,
0010
1000
0002
0000
,
0013
0100
0010
0000
,
0001
0001
0002
0000
,
0103
0010
0100
0010
,
1000
1000
0002
0000
,
1003
0100
0010
0100
,
1000
0001
2000
0000
,
3001
0010
0100
0010
,
0001
1000
0002
0000
,
1003
1000
2000
0000
,
3010
0010
0200
0000
,
0301
0100
0020
0000
,
1030
0010
0200
0000
,
0301
1000
0002
0000
,
0103
0100
0200
0000
,
0310
0100
0002
0000
,
1003
0100
0020
0000
,
0130
1000
0100
0010
,
0100
1000
0001
0001
,
0100
0010
0100
0001
,
1000
1000
0020
0000
,
0130
0010
0100
0001
,
0100
0010
2000
0000
,
3100
1000
0010
1000
,
0100
1000
0200
0000
,
0310
0100
1000
0000
,
0001
0100
0010
0000
,
1000
0010
1000
0000
,
1000
1000
0001
0000
,
0100
0010
1000
0000
,
0010
1000
0010
0000
,
0100
0001
0010
0000
,
0100
0010
0100
0000
,
1000
0100
0010
0001
,
1000
0001
0010
0100
,
1000
0010
0100
0001
,
0010
0010
0010
0000
,
0001
1000
0001
1000
0001
0000
0100
0000
,
0010
0010
0020
0000
,
0130
0010
1000
0010
,
0100
0001
0100
0010
;

//---------------dance-single - mikeintyo----------------
#NOTEDATA:;
#CHARTNAME:mikeintyo;
#STEPSTYPE:dance-single;
#DESCRIPTION:mikeintyo;
#CHARTSTYLE:;
#DIFFICULTY:Medium;
#METER:11;
#RADARVALUES:0.450062,0.498953,0.151925,0.335833,0.000000,394.000000,375.000000,19.000000,42.000000,0.000000,0.000000,0.000000,0.000000,0.000000,0.450062,0.498953,0.151925,0.335833,0.000000,394.000000,375.000000,19.000000,42.000000,0.000000,0.000000,0.000000,0.000000,0.000000;
#CREDIT:mikeintyo;
#NOTES:
0000
0000
0000
0000
,
0000
0000
0000
0000
,
0000
0000
0000
0000
,
0000
0000
0000
0000
,
0001
1000
0001
2000
0002
0000
0000
0000
,
0000
3003
2020
3030
,
0220
0000
0000
0000
,
0000
0000
0000
0330
,
2000
0000
0000
0000
,
0000
0000
0020
3030
,
0200
0000
0000
0000
,
0020
0000
0000
0330
,
0100
0010
0100
0020
0200
0000
0000
0000
,
0000
0330
0002
0000
,
2000
0000
0000
0000
,
0000
0000
0000
3003
,
1000
0100
1000
0000
0100
0000
0010
0000
,
0001
0100
0010
0000
2000
0000
3000
0000
,
1000
0100
0010
0000
0001
0000
0010
0000
,
0010
0100
1000
0000
0010
0000
0100
0000
,
0001
0100
1000
0100
0001
0000
0010
0000
,
0100
0010
0100
0000
0120
0000
0000
0000
,
0130
1000
0100
0000
0100
0000
1000
0000
,
0010
0100
0010
0000
1000
0000
0010
0000
,
0100
0001
0100
0000
0010
0000
1000
0000
,
0100
0000
0010
0100
0220
0000
0330
0000
,
0100
0010
0100
0000
0010
0000
0001
0000
,
0001
0100
0010
0000
1000
0000
0001
0000
,
0001
0100
0010
0100
0001
0000
0010
0000
,
0001
0000
0100
0010
1000
0000
0100
0000
,
0010
0100
1000
0000
0100
0000
0010
0000
,
0100
1000
0100
0000
1000
0000
0001
0000
,
0100
0010
0100
0000
0010
0000
1000
0000
,
0100
0010
0001
0000
0200
0000
0000
0300
,
0001
0010
0100
0000
0100
0000
1000
0000
,
1000
0010
0100
0000
0001
0000
0100
0000
,
0001
0010
0001
0000
1000
0000
0100
0000
,
1000
0100
1000
0000
0200
0000
0000
0000
,
0310
0100
0010
0000
0001
0000
0100
0000
,
0010
0100
0001
0000
0100
0000
0010
0000
,
0100
0010
1000
0000
0100
0000
0010
0000
,
0001
1000
0010
0000
0100
0000
0020
0000
,
0000
0130
0010
0000
0100
0000
0001
0000
,
0010
0100
1000
0000
0100
0000
0020
0000
,
0000
0130
0010
0000
0001
0000
0100
0000
,
0010
1000
0010
0000
0100
0000
0002
0000
,
0000
0013
0100
0000
1000
0000
1000
0000
,
0100
0010
0001
0000
0100
0000
0010
0000
,
0210
0000
0000
0000
0301
0000
0000
0100
,
0000
0010
1000
0000
1001
0000
0000
0000
,
2100
0000
0000
0000
3010
0000
1000
0010
,
0000
0010
0100
0000
0110
0000
0000
0000
,
1020
0000
0000
0000
0130
0000
0010
0100
,
0000
0010
0100
0000
0101
0000
0000
0000
,
2001
0000
0000
0000
3001
0000
0100
0001
,
0000
0001
1000
0000
1002
0000
0000
0000
,
2003
0000
0000
0000
3010
0000
0000
1000
,
0000
1000
0100
0000
1100
0000
0000
0000
,
1020
0000
0000
0000
0130
0000
0100
0010
,
0000
0010
1000
0000
2010
0000
0000
0000
,
3100
0000
0000
0000
0010
0000
0001
0100
,
0000
0100
0010
0000
0120
0000
0000
0000
,
0130
0000
0000
0000
0001
0000
0100
0001
,
0000
0100
0010
0000
2010
0000
0000
0000
,
3100
0000
0100
0000
1000
0000
0000
0100
,
0000
0010
0100
0000
2100
0000
0000
0000
,
3010
0000
0100
0000
0001
0000
0000
0100
,
0000
0001
0010
0000
0100
0000
0010
0000
,
0100
1000
0010
1000
0100
0000
0010
0000
,
0001
0000
1000
0001
1000
0010
0000
0000
,
0100
0000
0001
0000
1000
0000
0000
0100
,
0000
0010
0100
0000
1000
0100
0000
0000
,
0010
0001
0100
0000
0010
0000
0010
0000
,
1000
0100
0010
0000
0200
0000
0000
0000
,
0310
0100
1000
0000
0100
0000
1000
0000
,
1000
0001
0010
0000
0001
0000
0100
0000
,
0010
0100
0001
0000
0001
0000
0010
0000
,
0100
0010
0001
0000
0200
0000
0000
0000
,
0310
0100
0010
0000
0100
0000
0001
0200
,
0300
0000
0100
0020
0030
0000
0010
0100
,
1000
0100
0010
0000
0100
0000
0001
0100
,
0000
0010
1000
0000
1200
0000
0000
0000
,
1300
0100
1000
0000
0010
0000
1000
0001
,
1000
0100
0010
0100
,
1000
0010
1000
0000
0001
0000
0100
0001
,
0000
0001
0100
0000
0020
0000
0000
0000
,
1030
0010
0100
0000
0001
0000
1000
0001
,
0000
1000
0010
0000
0200
0000
0000
0000
,
0310
0100
0001
0000
0100
0000
0010
0000
,
0100
0010
0100
0000
0001
0000
1000
0000
,
0100
1000
0100
0000
0010
0000
0100
0000
,
0010
0001
0010
0000
0001
0000
0100
0000
,
0001
0100
1000
0100
0001
0000
0010
0000
,
0100
0010
0001
0100
,
0001
0100
0010
0000
1000
0000
0100
0000
,
0001
0100
1000
0000
0100
0000
0020
0000
,
0030
0000
0000
0000
;

//---------------dance-single - mikeintyo----------------
#NOTEDATA:;
#CHARTNAME:mikeintyo;
#STEPSTYPE:dance-single;
#DESCRIPTION:mikeintyo;
#CHARTSTYLE:;
#DIFFICULTY:Hard;
#METER:13;
#RADARVALUES:0.461485,0.650777,0.191905,1.047480,0.015992,404.000000,380.000000,24.000000,131.000000,0.000000,0.000000,10.000000,0.000000,0.000000,0.461485,0.650777,0.191905,1.047480,0.015992,404.000000,380.000000,24.000000,131.000000,0.000000,0.000000,10.000000,0.000000,0.000000;
#CREDIT:mikeintyo;
#NOTES:
0000
0000
0000
0000
,
0000
0000
0000
0000
,
0000
0000
0000
0000
,
0000
0000
0000
0000
,
4400
3300
2100
0000
,
0000
0000
0000
3000
0012
0000
0003
0000
,
2002
0000
0000
0000
,
0000
0000
0000
3003
,
0200
0000
0000
0000
,
0000
0000
0302
0000
,
0023
0000
0000
0000
,
0200
0000
0000
0330
,
0440
0330
0220
0000
,
0000
0330
0002
0000
,
2000
0000
0000
0000
,
0000
0000
0000
3003
,
0001
0100
0002
0000
0010
0000
0100
0003
,
1000
0100
0010
0000
0120
0000
0030
0000
,
0001
0010
0200
0000
1000
0000
1000
0000
,
1300
0001
1000
0000
0001
0000
1000
0000
,
4004
0000
3003
1000
,
0010
0100
0001
0000
2002
0000
3000
0003
,
1000
0020
0100
0000
1000
0000
0100
0030
,
1000
0010
0100
0000
0001
0000
0010
0000
,
0100
0010
0200
0000
2300
0000
3002
0000
,
0023
0000
0130
1000
0200
0000
1000
0000
,
2300
0000
0010
0010
,
3100
0000
0010
0100
0010
0000
0001
0000
,
0404
0303
0020
2030
,
3010
0000
0010
1000
0020
0000
2030
0000
,
0002
0000
0000
0000
3000
0000
0010
0020
,
0030
0000
0100
0200
0300
0000
1003
2000
,
3001
0010
0002
0000
0203
0000
0320
0000
,
1030
0000
1000
0010
2000
0000
3010
0000
,
0100
0010
0100
0000
0002
0000
1000
0000
,
1003
0000
1000
0100
0020
0000
0031
0000
,
0010
0001
0100
0000
0002
0000
0013
0000
,
0100
0000
1000
0010
0100
0000
0020
0000
,
0200
0000
0000
0000
0030
0000
0010
2000
,
3000
0000
1000
0020
0030
0000
0310
0002
,
1003
0010
0200
0000
0320
0000
0130
0000
,
0010
0100
0002
0000
0023
0000
0032
0000
,
0003
0010
0002
0000
0023
0000
0230
0000
,
1300
0100
2000
0000
3020
0000
0230
0000
,
0300
0010
0200
0000
0302
0000
0203
0000
,
0310
0100
0020
0000
2030
0000
3200
0000
,
0300
0010
0002
0000
1000
0000
0010
0000
,
0103
0010
2000
0000
3020
0000
0130
0000
,
0100
0001
0100
0000
0102
0000
0000
0010
,
0003
1000
0001
0000
2100
0000
0000
0000
,
3100
0010
0100
0000
1000
0000
0100
0010
,
0000
0010
0002
0000
0203
0000
0320
0000
,
0130
0010
1000
0000
0001
0000
0010
0100
,
0000
0100
1000
0000
2001
0000
0000
0000
,
3010
0100
0010
0000
1000
0000
1000
0020
,
0000
0030
0010
0200
0000
0300
0100
0001
,
0100
0010
0200
0000
0010
0000
1000
0000
,
0310
0000
0010
0100
0020
0000
1000
0030
,
0100
0001
0100
0000
0110
0000
0001
0100
,
0000
0100
0020
0000
2030
0000
3020
0000
,
0130
0001
0100
0000
0002
0000
0023
0000
,
0230
0000
1300
0001
0200
0000
0020
0000
,
0330
0000
0010
0100
0001
0000
0001
1000
,
0000
1000
0010
0000
0100
0000
0001
0000
,
0101
0000
0100
0000
0110
0000
0000
0010
,
0000
0010
1000
0000
2002
0000
3003
0000
,
0210
0000
0001
0000
0320
0000
0000
0100
,
0000
0100
2000
3000
0000
0230
0300
0000
,
0404
0000
0303
0000
0202
0300
0000
0103
,
0000
0100
0001
0000
0001
1000
0000
0000
,
2001
0000
0010
0000
3200
0000
0300
0010
,
0100
1000
0001
0000
1000
0001
1000
0000
,
0100
1000
0020
0000
0230
0000
0302
0000
,
1003
0000
1000
0100
2000
0000
3010
0000
,
2000
0000
3010
0010
,
0100
0000
0100
0001
0200
0000
0302
0003
,
0010
0100
2000
0000
3002
0000
2003
0000
,
3020
0030
1000
0010
2000
0000
3002
0000
,
0023
0000
0000
0000
0000
0000
0001
0200
,
0300
0000
0100
0002
0003
0030
0100
1000
,
0100
1000
0020
0000
0230
0300
0001
0100
,
0010
0100
0001
0000
0102
0000
0000
0003
,
1000
0100
0010
0000
0002
0000
1000
0000
,
1003
0000
1000
0100
2000
0000
3001
0000
,
0100
0001
0100
0000
0201
0000
0010
0000
,
0302
0003
1000
0100
2000
0000
3002
0000
,
0203
0000
0000
0000
0001
0000
0001
0020
,
0030
0000
0010
2000
3000
0300
1000
0100
,
0010
0100
0002
0000
0023
0000
0230
0300
,
1000
0100
0001
0100
1000
0000
0100
0000
,
0100
1000
0020
0000
0230
0000
0301
0000
,
0001
0100
1000
0100
0001
0000
0010
0000
,
0001
0010
0001
0010
0001
0010
0001
0010
0200
0000
0000
0000
2300
0000
0000
0000
,
3100
0010
0100
0000
2100
0000
0000
0000
,
3001
0010
0001
0000
0020
0000
0130
0000
,
0100
1000
0020
0000
0230
0000
0301
0000
;

//---------------dance-single - mikeintyo----------------
#NOTEDATA:;
#CHARTNAME:mikeintyo;
#STEPSTYPE:dance-single;
#DESCRIPTION:mikeintyo;
#CHARTSTYLE:;
#DIFFICULTY:Challenge;
#METER:15;
#RADARVALUES:0.563149,0.729238,0.183909,1.023492,0.175913,493.000000,470.000000,23.000000,128.000000,0.000000,0.000000,0.000000,0.000000,0.000000,0.563149,0.729238,0.183909,1.023492,0.175913,493.000000,470.000000,23.000000,128.000000,0.000000,0.000000,0.000000,0.000000,0.000000;
#CREDIT:mikeintyo;
#NOTES:
// measure 0
0000
0000
0000
0000
,  // measure 1
0000
0000
0000
0000
,  // measure 2
0000
0000
0000
0000
,  // measure 3
0000
0000
0000
0000
,  // measure 4
1000
0100
1000
0100
1000
0100
1000
0100
2000
0000
0000
0000
0000
0000
0000
0000
,  // measure 5
0000
0000
0000
3000
1002
0000
0003
0000
,  // measure 6
2002
0000
0000
0000
,  // measure 7
0000
0000
0000
3003
,  // measure 8
0200
0000
0010
0000
0301
0000
2000
0000
0001
0000
3100
0000
,  // measure 9
0200
0000
1000
0000
1300
0000
0020
0000
0001
0000
0031
0000
,  // measure 10
0002
0000
0010
0000
0103
0000
2000
0000
0100
0000
3010
0000
,  // measure 11
0002
0000
0100
0000
0013
0000
0200
0000
0010
0000
1300
0000
,  // measure 12
1000
0100
0010
0100
0010
0100
0010
0100
0020
0000
0000
0000
0000
0000
0000
0000
,  // measure 13
0000
0030
2000
0000
,  // measure 14
3002
0000
0000
0000
,  // measure 15
1000
0000
0100
0000
0010
0000
1000
0000
0100
0000
0013
0000
,  // measure 16
0001
0100
0002
0000
0010
0000
0100
0003
,  // measure 17
1000
0100
0010
0000
0120
0000
0030
0000
,  // measure 18
0001
0010
0200
0000
1000
0000
0010
0000
,  // measure 19
1300
0100
1000
0000
0100
0000
1000
0000
,  // measure 20
0100
1000
0001
1000
0100
1000
0001
1000
0100
0000
0000
0000
1000
0000
0000
0000
,  // measure 21
0010
0100
0001
0000
2002
0000
3000
0003
,  // measure 22
1000
0020
0100
0000
1000
0000
0100
0030
,  // measure 23
1000
0010
0100
0010
1000
0000
0100
0000
,  // measure 24
0010
0001
0200
0000
0320
0000
2030
0000
,  // measure 25
3020
0000
0130
0001
0200
0000
0010
0000
,  // measure 26
0302
0000
0010
0010
,  // measure 27
0103
0000
1000
0100
1000
0000
0001
0000
,  // measure 28
0100
0001
0100
0010
0100
0001
0100
0010
0200
0000
0000
0000
0302
0000
0000
0000
,  // measure 29
0013
0000
0010
0100
2000
0000
3002
0000
,  // measure 30
0203
0000
0000
0000
0000
0000
0001
0020
,  // measure 31
0030
0000
0010
2000
3000
0000
1300
0020
,  // measure 32
1030
0010
0200
0000
0301
0000
0020
0000
,  // measure 33
0130
0000
1000
0100
2000
0000
3010
0000
,  // measure 34
1000
0010
0100
0000
0002
0000
1000
0000
,  // measure 35
1003
0000
1000
0001
0200
0000
0301
0000
,  // measure 36
0010
0001
0100
0000
0002
0000
0023
0000
,  // measure 37
0230
0000
1300
0100
1000
0000
0001
0010
,  // measure 38
0001
0100
0001
0020
0000
0000
0001
0200
,  // measure 39
0300
0000
1000
0200
0300
0000
0031
0200
,  // measure 40
1300
0100
2000
0000
3020
0000
1030
0000
,  // measure 41
0010
0100
0001
0100
0020
0000
2030
0000
,  // measure 42
3100
0010
0001
0010
0200
0000
0320
0000
,  // measure 43
0031
0010
0200
0000
2300
0000
3200
0000
,  // measure 44
0310
0001
0100
0001
0020
0000
0230
0000
,  // measure 45
0310
0100
1000
0100
0020
0000
0230
0000
,  // measure 46
0300
0010
0002
0000
1000
0000
0100
0000
,  // measure 47
0013
0001
2000
0000
3020
0000
0130
0000
,  // measure 48
0101
0001
0100
0000
1002
0000
0000
0010
,  // measure 49
0000
1003
0001
0000
2100
0000
0000
0000
,  // measure 50
3100
1000
0100
0000
1010
0000
0100
0010
,  // measure 51
0000
0010
0200
0000
0302
0000
0023
0000
,  // measure 52
0130
1000
0001
0000
1001
0000
1000
0001
,  // measure 53
0000
1000
0100
0000
2001
0000
0010
0000
,  // measure 54
3100
1000
0100
0000
1100
0000
1000
0020
,  // measure 55
0000
0030
1000
0200
0000
0300
0010
0100
,  // measure 56
0001
0100
0020
0000
1000
0000
0100
0000
,  // measure 57
0031
0000
0001
0010
0002
0000
1003
0000
,  // measure 58
1010
0010
0100
0000
0110
0000
0001
0100
,  // measure 59
1000
0100
0002
0000
0203
0000
0320
0000
,  // measure 60
0130
0001
0100
0000
0002
0000
0023
0000
,  // measure 61
0230
0000
1300
0001
0200
0000
0020
0000
,  // measure 62
0330
1000
0010
0100
0001
0000
1000
0001
,  // measure 63
0000
0001
1001
0000
1000
0000
0001
0000
,  // measure 64
0101
0000
0010
0000
0101
0000
0000
0010
,  // measure 65
1000
0010
1000
0000
0002
1000
0003
0000
,  // measure 66
2010
0000
0001
0000
3200
0000
0000
1000
,  // measure 67
0000
1300
0010
0000
0010
0200
0300
0000
,  // measure 68
0010
0100
0010
0100
0010
0100
0010
0100
0020
0000
0000
0000
0000
0000
1030
0000
,  // measure 69
0010
0100
1000
0000
1001
1000
0000
0000
,  // measure 70
2001
0000
0100
0000
3020
0000
0030
0100
,  // measure 71
0010
1000
0001
0000
1000
0001
1000
0000
,  // measure 72
0100
1000
0020
0000
2030
0000
3002
0000
,  // measure 73
0103
0000
0010
0100
2000
0000
3100
0000
,  // measure 74
0020
0000
0130
0001
,  // measure 75
0100
0000
0010
1000
0020
0000
0230
0000
,  // measure 76
0310
0100
0002
0000
0023
0000
0032
0000
,  // measure 77
0203
0300
0010
0100
0001
0000
0200
0000
,  // measure 78
0310
0001
2000
0000
0200
3300
1000
0200
,  // measure 79
0000
0000
0310
0200
0000
0000
1300
0200
,  // measure 80
0310
0100
0020
0000
1030
0000
0010
0100
,  // measure 81
0001
0100
0010
0100
0020
0000
1000
0000
,  // measure 82
0130
0010
0100
0001
0200
0000
1000
0000
,  // measure 83
1300
0000
1000
0100
0002
0000
0103
1000
,  // measure 84
0100
0010
0100
0000
0201
0000
0010
0300
,  // measure 85
0002
0003
1000
0010
2000
0000
3002
0000
,  // measure 86
0203
0000
0000
0000
0010
0000
0001
0020
,  // measure 87
0030
0000
0010
2000
3000
0300
1000
0100
,  // measure 88
0010
0100
0002
0000
0023
0000
0230
0300
,  // measure 89
1000
0100
0001
0100
1002
0000
0103
0000
,  // measure 90
0010
1000
0020
0000
0230
0000
0301
0000
,  // measure 91
0001
0100
1000
0100
2001
0000
3010
0000
,  // measure 92
1000
0010
1000
0001
1000
0010
1000
0001
0200
0000
0000
0000
0320
0000
0000
0000
,  // measure 93
0130
1000
0100
0010
0102
0000
0010
0000
,  // measure 94
0103
0010
1000
0000
0020
0000
0130
0001
,  // measure 95
0100
1000
0200
0000
1000
0000
0001
0000
,  // measure 96
0300
0000
0000
0000
;
