#VERSION:0.83;
#TITLE:Shuffle cats;
#SUBTITLE:;
#ARTIST:猫叉Master;
#TITLETRANSLIT:;
#SUBTITLETRANSLIT:;
#ARTISTTRANSLIT:Nekomata Master;
#GENRE:;
#ORIGIN:;
#CREDIT:;
#BANNER:Shuffle cats.png;
#BACKGROUND:Shuffle cats-bg.png;
#PREVIEWVID:;
#JACKET:Shuffle cats-jacket.png;
#CDIMAGE:;
#DISCIMAGE:;
#LYRICSPATH:;
#CDTITLE:cdtitlesc2021.png;
#MUSIC:Shuffle cats.ogg;
#OFFSET:-0.001000;
#SAMPLESTART:17.463638;
#SAMPLELENGTH:17.545456;
#SELECTABLE:YES;
#BPMS:0.000=110.000,
188.000=75.000;
#STOPS:;
#DELAYS:;
#WARPS:;
#TIMESIGNATURES:0.000=4=4;
#TICKCOUNTS:0.000=4;
#COMBOS:0.000=1;
#SPEEDS:0.000=1.000=0.000=0;
#SCROLLS:0.000=1.000;
#FAKES:;
#LABELS:0.000=Song Start;
#BGCHANGES:;
#KEYSOUNDS:;
#ATTACKS:
;

//---------------dance-single - ----------------
#NOTEDATA:;
#CHARTNAME:;
#STEPSTYPE:dance-single;
#DESCRIPTION:;
#CHARTSTYLE:;
#DIFFICULTY:Hard;
#METER:13;
#RADARVALUES:0.518716,0.597840,0.444081,0.435373,0.500679,417.000000,366.000000,51.000000,50.000000,0.000000,0.000000,0.000000,0.000000,0.000000,0.518716,0.597840,0.444081,0.435373,0.500679,417.000000,366.000000,51.000000,50.000000,0.000000,0.000000,0.000000,0.000000,0.000000;
#CREDIT:Pandemonium X;
#NOTES:
// measure 0
0000
0000
0000
0000
,  // measure 1
2010
0000
0000
0000
0000
0002
0000
0000
0000
3003
0000
0000
0102
0000
0000
0000
0000
2000
0000
0000
0000
0000
0000
0000
,  // measure 2
3003
0000
0001
0000
0001
0000
0100
0000
0010
0000
1000
0000
0100
0000
0000
0000
0000
1100
0000
0000
0000
0001
0000
0000
,  // measure 3
0021
0000
0000
0000
0000
0200
0000
0000
0000
0330
0000
0000
1200
0000
0000
0000
0000
0020
0000
0000
0000
0000
0330
0000
,  // measure 4
1001
0000
0000
0000
0000
0000
0000
0000
0000
0000
0000
0220
0000
0000
0000
0000
0000
0000
0000
0000
0000
0000
0000
0000
,  // measure 5
0330
0000
1000
0100
0000
0000
0010
0000
0000
0001
0000
0000
1000
0000
0000
0100
0000
0000
0110
0000
0000
0001
0000
0000
,  // measure 6
1000
0010
1000
0010
0100
0001
0100
0001
,  // measure 7
1000
0000
0000
0100
0000
0000
1000
0000
0000
0100
0000
0000
0020
0000
0000
0031
0000
0000
2000
0000
0000
3010
0000
0100
,  // measure 8
0001
0000
0000
0010
0000
0000
0100
0000
0000
0010
0000
0000
0001
0000
0000
1000
0000
0010
0000
0000
0100
0001
0000
0000
,  // measure 9
0010
0000
0000
0100
0000
0010
0000
0000
0001
0100
0000
0000
0010
0000
1000
0001
0000
0001
0010
0000
0000
0100
0000
0000
,  // measure 10
0010
0000
0000
0001
0000
0000
1000
0000
0000
0100
0000
0000
0010
0000
0000
0100
0000
1000
0000
0000
0010
0100
0000
0000
,  // measure 11
0010
1000
0001
1000
0200
0310
0002
0103
,  // measure 12
0010
0000
0000
1000
0000
0000
0010
0000
0000
0100
0000
0000
0001
0000
0000
0010
0000
0001
0000
0000
0010
0100
0000
0000
,  // measure 13
0010
0000
0000
0100
0000
1000
0000
0000
0010
0100
0000
0000
0010
0000
1000
0010
0000
0000
0100
0000
0000
0001
0000
1000
,  // measure 14
0001
0000
0000
0010
0000
0000
0001
0000
0000
1000
0000
0000
0100
0000
0000
0010
0000
0100
0000
0000
0010
0001
0000
0000
,  // measure 15
1000
0010
0100
0001
1000
0100
0010
0001
,  // measure 16
1000
0010
1000
0000
0001
0001
0001
0000
,  // measure 17
0010
0001
0010
0000
0100
0010
0001
1000
,  // measure 18
0001
0010
0001
0000
0100
0100
0100
0010
,  // measure 19
1000
0001
1000
0001
0100
0010
1000
0100
,  // measure 20
0010
0000
0000
0001
0000
0000
0010
0000
0000
0000
0000
0000
1001
0000
0000
1001
0000
0000
1001
0000
0000
0000
0000
0001
,  // measure 21
1000
0100
1000
0000
0011
0000
1010
0000
,  // measure 22
0001
0000
0000
0010
0000
0000
0100
0000
0000
0000
0000
0000
0110
0000
0100
0010
0000
0010
0100
0000
0000
1000
0000
0000
,  // measure 23
0010
0001
0010
1000
0010
0100
0001
1000
,  // measure 24
1100
0000
0000
0000
0000
1000
0001
0000
1000
0000
0000
0011
0000
0000
0000
0000
0000
0001
0100
0000
0001
0000
0000
0101
,  // measure 25
0000
0000
0000
1010
0000
0000
1100
0000
0000
0000
0000
0102
0000
0000
0000
0000
0000
0000
2003
0000
0000
0000
0000
0000
,  // measure 26
3100
0000
0000
0010
0000
0000
0001
0000
1000
0001
0000
0011
0000
0000
0000
0010
0000
0000
0100
0000
1000
0001
0000
0101
,  // measure 27
0000
0100
0000
0100
0000
0100
0000
0100
0000
0100
0000
0201
0000
0000
0000
0000
0000
0000
0320
0000
0000
0000
0000
0000
,  // measure 28
0130
0000
0001
0100
0000
0010
1000
0000
0100
0010
0000
1001
0000
0000
1000
0100
0000
0010
0100
0000
1000
0010
0000
0101
,  // measure 29
0000
0000
0000
0001
1000
0001
0000
0000
1000
0001
0000
0021
0000
0000
0000
0000
0000
0000
0230
0000
0000
0000
0000
0000
,  // measure 30
1300
0000
0100
0010
0000
0010
0001
0000
0001
0010
0000
1001
0000
0000
1000
0100
0000
0100
1000
0000
1000
0001
0000
1010
,  // measure 31
0000
0000
1000
0100
0000
0100
0010
0000
0010
0001
0000
0021
0000
0000
0000
0000
0000
0000
0230
0000
0000
0000
0000
0000
,  // measure 32
1300
0001
0100
0001
0010
0001
1000
0000
0001
1000
0010
1000
0001
0010
0001
0010
,  // measure 33
0100
1000
0100
0010
0100
1000
0010
0100
,  // measure 34
0000
0010
1000
0100
0020
0032
2003
3002
,  // measure 35
0000
0000
0000
0000
0000
0000
0000
0000
0000
1003
0000
1000
0200
0000
0000
0000
0000
0000
2300
0000
0000
0000
0000
0000
,  // measure 36
3001
1000
0100
1000
0001
0100
0001
0000
0100
0001
0010
0100
0010
0001
0100
0010
,  // measure 37
1000
0100
1000
0001
1000
0010
0100
0001
,  // measure 38
0000
0010
0100
1000
0100
1000
0010
0000
,  // measure 39
1001
0000
0000
0000
0000
2020
0000
0000
0000
3030
0000
0000
1001
0000
0000
0000
0000
0022
0000
0000
0000
0000
0000
0000
,  // measure 40
0033
0000
0010
0000
0010
0000
0001
0000
0100
0000
0010
0000
1010
0000
0000
0000
0000
1002
0000
0000
0000
1003
0000
0000
,  // measure 41
0101
0000
0000
0000
0000
2020
0000
0000
0000
3030
0000
0000
1100
0000
0000
0000
0000
0202
0000
0000
0000
0000
0000
0000
,  // measure 42
0303
0000
0001
0000
0001
0000
0010
0000
0001
0000
1000
0000
2100
0000
0000
0000
0000
0000
0020
0000
0000
3030
0000
0000
,  // measure 43
1001
0000
0000
0000
0000
0022
0000
0000
0000
0033
0000
0000
1001
0000
0000
0000
0000
2020
0000
0000
0000
0000
0000
0000
,  // measure 44
3030
0000
1000
0000
1000
0000
0001
0000
0100
0000
0010
0000
0100
0000
0000
0000
0000
0201
0000
0000
0000
0310
0000
0000
,  // measure 45
1010
0000
0000
0000
0000
0202
0000
0000
0000
0303
0000
0000
0011
0000
0000
0000
0000
2020
0000
0000
0000
3030
0000
0000
,  // measure 46
1001
0000
0001
0000
0000
0010
0100
0000
1000
0000
0000
0100
0010
0000
0001
0000
0000
0010
0100
0000
1000
0000
0000
0001
,  // measure 47
1000
0220
0000
0000
,  // measure 48
0000
0000
0000
0000
,  // measure 49
0000
0330
0000
0000
0000
0000
0000
0000
0000
0000
0000
0000
0000
0000
0000
0000
0000
0000
0000
0000
0000
0000
0000
0000
;

//---------------dance-single - ----------------
#NOTEDATA:;
#CHARTNAME:;
#STEPSTYPE:dance-single;
#DESCRIPTION:;
#CHARTSTYLE:;
#DIFFICULTY:Medium;
#METER:10;
#RADARVALUES:0.368201,0.384326,0.348299,0.182857,0.230748,296.000000,256.000000,40.000000,21.000000,0.000000,0.000000,0.000000,0.000000,0.000000,0.368201,0.384326,0.348299,0.182857,0.230748,296.000000,256.000000,40.000000,21.000000,0.000000,0.000000,0.000000,0.000000,0.000000;
#CREDIT:Pandemonium X;
#NOTES:
0000
0000
0000
0000
,
1000
0000
0000
0000
0000
0012
0000
0000
0000
0000
0000
0000
1003
0000
0000
0000
0000
1020
0000
0000
0000
0000
0000
0000
,
0030
0000
0100
0000
0010
0000
1000
0000
0001
0000
0010
0000
0100
0000
0000
0000
0000
0010
0000
0000
0000
0001
0000
0000
,
1000
0000
0000
0000
0000
0120
0000
0000
0000
0000
0000
0000
1030
0000
0000
0000
0000
0102
0000
0000
0000
0000
0000
0000
,
0013
0000
0000
0000
0000
0000
0000
0000
0000
0000
0000
2200
0000
0000
0000
0000
0000
0000
0000
0000
0000
0000
0000
0000
,
0000
0000
0000
3300
,
0010
0001
0100
0000
0010
1000
0100
0000
,
0010
0001
0100
0000
0010
0100
0001
1000
,
0100
0000
0000
1000
0000
0000
0100
0000
0000
0010
0000
0000
0001
0000
0000
0000
0000
0010
0000
0000
0000
0100
0000
0000
,
0010
0000
0000
0000
0000
0001
0000
0000
0000
1000
0000
0000
0001
0000
0000
0001
0000
0000
1000
0000
0000
0001
0000
0000
,
1000
0000
0000
0010
0000
0000
0100
0000
0000
0001
0000
0000
1000
0000
0000
0000
0000
0010
0000
0000
0000
0100
0000
0000
,
0010
1000
0010
0100
0010
0010
0100
0100
,
0001
0000
0000
0100
0000
0000
0010
0000
0000
1000
0000
0000
0100
0000
0000
0000
0000
1000
0000
0000
0000
0100
0000
0000
,
1000
0000
0000
0000
0000
0010
0000
0000
0000
0100
0000
0000
0010
0000
0000
1000
0000
0000
0001
0000
0000
0001
0000
0000
,
0010
0000
0000
0001
0000
0000
1000
0000
0000
0010
0000
0000
0100
0000
0000
0000
0000
0001
0000
0000
0000
0010
0000
0000
,
0100
1000
0100
0001
0100
0010
0001
1000
,
0010
0010
0010
0000
0100
0100
0100
0000
,
0010
0010
0010
0000
1000
0001
0010
0001
,
1000
1000
1000
0000
0001
0001
0001
0000
,
0010
0001
0010
0000
0100
1000
0100
0000
,
1000
1000
1000
0000
0101
0101
0101
0000
,
0001
0001
0001
0000
1000
0000
0010
0000
,
0100
0010
0100
0000
0010
0010
0010
0000
,
1000
0010
0100
0001
0010
1000
0010
0001
,
1001
0000
0000
0000
0000
0000
0000
0000
0000
0000
0000
1010
0000
0000
0000
0000
0000
0000
0000
0000
0000
0000
0000
1100
,
0000
0000
0000
0000
0000
0000
0000
0000
0000
0000
0000
0011
0000
0000
0000
0000
0000
0000
1100
0000
0000
0000
0000
0000
,
0101
0000
0000
0000
0000
0000
0000
0000
0000
0000
0000
1001
0000
0000
0000
0000
0000
0000
0000
0000
0000
0000
0000
0011
,
0000
0000
0000
0000
0000
0000
0000
0000
0000
0000
0000
0110
0000
0000
0000
0000
0000
0000
1100
0000
0000
0000
0000
0000
,
0110
0000
0000
0000
0000
0000
0000
0000
0000
0000
0000
1001
0000
0000
0000
0000
0000
0000
0000
0000
0000
0000
0000
0101
,
0000
0000
0000
0000
0000
0000
0000
0000
0000
0000
0000
1010
0000
0000
0000
0000
0000
0000
0101
0000
0000
0000
0000
0000
,
0011
0000
0000
0000
0000
0000
0000
0000
0000
0000
0000
0110
0000
0000
0000
0000
0000
0000
0000
0000
0000
0000
0000
1100
,
0000
0000
1100
0011
,
0001
0100
1000
0100
0001
0100
1000
0100
,
0001
0001
1000
1000
0001
1000
0010
1000
,
0000
0001
0010
0100
1000
0100
0001
0200
,
0000
0000
0000
0310
0002
0000
2003
0000
,
3001
0010
1000
0010
0001
0010
1000
0010
,
0001
0001
1000
1000
0001
1000
0010
0100
,
0000
0001
0100
0010
1000
0100
0010
0000
,
0100
0000
0000
0000
0000
2100
0000
0000
0000
0000
0000
0000
3010
0000
0000
0000
0000
0102
0000
0000
0000
0000
0000
0000
,
0003
0000
0010
0000
0001
0000
0100
0000
0010
0000
1000
0000
0001
0000
0000
0000
0000
1010
0000
0000
0000
0010
0000
0000
,
0110
0000
0000
0000
0000
0102
0000
0000
0000
0000
0000
0000
0013
0000
0000
0000
0000
2100
0000
0000
0000
0000
0000
0000
,
3000
0010
0100
0001
1000
0001
0020
0000
0000
0230
0000
0000
,
0310
0000
0000
0000
0000
0012
0000
0000
0000
0000
0000
0000
1003
0000
0000
0000
0000
0120
0000
0000
0000
0000
0000
0000
,
0030
0000
1000
0000
0001
0000
0010
0000
0001
0000
1000
0000
0010
0000
0000
0000
0000
0100
0000
0000
0000
0001
0000
0000
,
1000
0000
0000
0000
0000
2100
0000
0000
0000
0000
0000
0000
3001
0000
0000
0000
0000
1020
0000
0000
0000
0000
0000
0000
,
0130
0100
0000
0010
0010
0000
1000
1000
0000
0001
0001
0000
,
1001
0220
0000
0000
,
0000
0000
0000
0000
,
0000
0330
0000
0000
0000
0000
0000
0000
0000
0000
0000
0000
0000
0000
0000
0000
0000
0000
0000
0000
0000
0000
0000
0000
;

//---------------dance-single - ----------------
#NOTEDATA:;
#CHARTNAME:;
#STEPSTYPE:dance-single;
#DESCRIPTION:;
#CHARTSTYLE:;
#DIFFICULTY:Easy;
#METER:7;
#RADARVALUES:0.221418,0.277569,0.078367,0.078367,0.148027,178.000000,169.000000,9.000000,9.000000,0.000000,0.000000,0.000000,0.000000,0.000000,0.221418,0.277569,0.078367,0.078367,0.148027,178.000000,169.000000,9.000000,9.000000,0.000000,0.000000,0.000000,0.000000,0.000000;
#CREDIT:Pandemonium X;
#NOTES:
0000
0000
0000
0000
,
1000
0000
0000
0000
0000
1001
0000
0000
0000
0000
0000
0000
0001
0000
0000
0000
0000
1001
0000
0000
0000
0000
0000
0000
,
0000
0020
0000
0000
0000
0000
0030
0000
0000
0000
0000
0000
,
0100
0000
0000
0000
0000
0110
0000
0000
0000
0000
0000
0000
0010
0000
0000
0000
0000
0110
0000
0000
0000
0000
0000
0000
,
1001
0000
0000
0000
0000
0000
0000
0000
0000
0000
0000
2002
0000
0000
0000
0000
0000
0000
0000
0000
0000
0000
0000
0000
,
0000
0000
0000
3003
,
1000
0100
1000
0010
,
1000
0000
0001
0000
1000
0100
1000
0000
,
0100
0000
0000
0000
0000
0000
1000
0000
0000
0000
0000
0000
0010
0000
0000
0000
0000
1000
0000
0000
0000
0000
0000
0000
,
0001
0000
0000
0000
0000
0010
0000
0000
0000
0000
0000
0000
0100
0000
0000
0010
0000
0000
0100
0000
0000
0000
0000
0000
,
0010
0000
0000
0000
0000
0000
0001
0000
0000
0000
0000
0000
0100
0000
0000
0000
0000
0010
0000
0000
0000
0000
0000
0000
,
1000
0000
0001
0000
0010
0001
0100
0010
,
1000
0000
0000
0000
0000
0000
0001
0000
0000
0000
0000
0000
0010
0000
0000
0000
0000
0001
0000
0000
0000
0000
0000
0000
,
0010
0000
0000
0000
0000
0100
0000
0000
0000
0000
0000
0000
0010
0000
0000
0001
0000
0000
1000
0000
0000
0000
0000
0000
,
0010
0000
0000
0000
0000
0000
1000
0000
0000
0000
0000
0000
0100
0000
0000
0000
0000
1000
0000
0000
0000
0000
0000
0000
,
0010
1000
0001
0100
,
0001
1000
0001
0000
0001
1000
0001
0000
,
1000
0001
1000
0000
1000
0001
1000
0000
,
0001
0100
0001
0000
0100
0001
0100
0000
,
0001
0100
0010
1000
,
0001
1000
0001
0000
0010
0010
0010
0000
,
0001
1000
0001
0000
0100
0000
0100
0000
,
0001
0010
0100
0000
0010
0100
1000
0000
,
0100
1000
0010
0100
,
0101
0000
0000
0000
0000
0000
0000
0000
0000
0000
0000
0001
0000
0000
0000
0000
0000
0000
0000
0000
0000
0000
0000
1000
,
0000
0000
0000
0000
0000
0000
0000
0000
0000
0000
0000
0010
0000
0000
0000
0000
0000
0000
0100
0000
0000
0000
0000
0000
,
0010
0000
0000
0000
0000
0000
0000
0000
0000
0000
0000
1000
0000
0000
0000
0000
0000
0000
0000
0000
0000
0000
0000
0100
,
0000
0000
0000
0000
0000
0000
0000
0000
0000
0000
0000
0010
0000
0000
0000
0000
0000
0000
0001
0000
0000
0000
0000
0000
,
0100
0000
0000
0000
0000
0000
0000
0000
0000
0000
0000
0010
0000
0000
0000
0000
0000
0000
0000
0000
0000
0000
0000
1000
,
0000
0000
0000
0000
0000
0000
0000
0000
0000
0000
0000
0001
0000
0000
0000
0000
0000
0000
1000
0000
0000
0000
0000
0000
,
0100
0000
0000
0000
0000
0000
0000
0000
0000
0000
0000
1000
0000
0000
0000
0000
0000
0000
0000
0000
0000
0000
0000
0010
,
0000
0000
0100
0010
,
1000
0001
0010
0001
,
1000
1000
0001
0001
,
0000
0100
0001
0010
,
0200
0000
1300
0010
,
0100
0010
1000
0001
,
0010
0001
1000
0100
,
0000
1000
0010
0100
,
0001
0000
0000
0000
0000
0001
0000
0000
0000
0000
0000
0000
1000
0000
0000
0000
0000
1000
0000
0000
0000
0000
0000
0000
,
0000
0020
0000
0000
0000
0000
0030
0000
0000
0000
0000
0000
,
0100
0000
0000
0000
0000
0100
0000
0000
0000
0000
0000
0000
0010
0000
0000
0000
0000
0010
0000
0000
0000
0000
0000
0000
,
0000
2000
0000
0000
0000
0000
3000
0000
0000
0000
0000
0000
,
0001
0000
0000
0000
0000
0010
0000
0000
0000
0000
0000
0000
0100
0000
0000
0000
0000
1000
0000
0000
0000
0000
0000
0000
,
0000
0200
0000
0000
0000
0000
0300
0000
0000
0000
0000
0000
,
0010
0000
0000
0000
0000
0001
0000
0000
0000
0000
0000
0000
0100
0000
0000
0000
0000
0010
0000
0000
0000
0000
0000
0000
,
1000
0100
0010
0001
,
0110
2002
0000
0000
,
0000
0000
0000
0000
,
0000
3003
0000
0000
0000
0000
0000
0000
0000
0000
0000
0000
0000
0000
0000
0000
0000
0000
0000
0000
0000
0000
0000
0000
;

//---------------dance-single - ----------------
#NOTEDATA:;
#CHARTNAME:;
#STEPSTYPE:dance-single;
#DESCRIPTION:;
#CHARTSTYLE:;
#DIFFICULTY:Beginner;
#METER:3;
#RADARVALUES:0.121904,0.185142,0.095782,0.000000,0.000000,98.000000,87.000000,11.000000,0.000000,0.000000,0.000000,0.000000,0.000000,0.000000,0.121904,0.185142,0.095782,0.000000,0.000000,98.000000,87.000000,11.000000,0.000000,0.000000,0.000000,0.000000,0.000000,0.000000;
#CREDIT:Pandemonium X;
#NOTES:
0000
0000
0000
0000
,
0000
0000
0000
0000
,
0000
0000
0000
0000
,
0000
0000
0000
0000
,
0000
0000
0010
0000
,
0000
0000
0000
0000
,
1000
0000
0001
0000
,
0100
0000
0010
0010
,
1000
0000
0001
0000
,
0010
0000
0001
0001
,
1000
0000
0010
0000
,
1000
0000
0100
0100
,
1000
0000
0010
0000
,
1000
0000
0001
1000
,
0001
0000
0010
0000
,
0001
0000
0100
0000
,
0010
0000
0000
0000
,
0010
0000
0000
0000
,
0010
0000
0000
0000
,
0010
0000
0100
0010
,
0100
0000
1001
0000
,
0100
0000
0001
1000
,
0100
0000
0000
0000
,
0010
0001
1000
0010
,
0110
0000
0010
0000
,
1000
0000
0000
0000
,
0001
0000
0010
0000
,
0100
0000
0000
0000
,
1000
0000
0010
0000
,
0100
0000
0000
0000
,
0010
0000
1000
0000
,
0001
0000
1000
0001
,
0100
0000
0001
0000
,
0010
0000
0001
0000
,
1000
0000
0001
0000
,
0100
0000
0010
0010
,
1000
0000
0100
0000
,
1000
0000
0001
0000
,
0100
0000
0010
0000
,
1001
0000
0110
0000
,
1000
0000
0000
0000
,
1001
0000
0110
0000
,
0001
0000
0000
0000
,
1001
0000
0110
0000
,
0001
0000
0000
0000
,
1001
0000
0110
0000
,
1000
0001
0100
0010
,
1000
0110
0000
0000
;
