#TITLE:Servant;
#SUBTITLE:;
#ARTIST:BLOSSO;
#TITLETRANSLIT:;
#SUBTITLETRANSLIT:;
#ARTISTTRANSLIT:;
#GENRE:;
#CREDIT:;
#BANNER:Servant.png;
#BACKGROUND:Servant-bg.png;
#LYRICSPATH:;
#CDTITLE:;
#MUSIC:Servant.ogg;
#OFFSET:1.460955;
#SAMPLESTART:25.750343;
#SAMPLELENGTH:12.799995;
#LASTBEATHINT:1.074145;
#SELECTABLE:YES;
#BPMS:0.000000=150.000000
;
#STOPS:
;
#BGCHANGES:;
#KEYSOUNDS:;
#ATTACKS:;

//---------------dance-single - ----------------
#NOTES:
     dance-single:
     :
     Hard:
     14:
     0.515629,0.669159,0.437995,0.519105,0.279830,445.000000,391.000000,54.000000,64.000000,0.000000,0.000000,0.515629,0.669159,0.437995,0.519105,0.279830,445.000000,391.000000,54.000000,64.000000,0.000000,0.000000:
0000
0000
0000
0000
,
0000
0000
0000
0000
,
0000
0000
0000
0000
,
0000
0000
0000
0000
,
0000
0000
0000
0000
,
0000
0000
0000
0000
,
0000
0000
0000
0000
,
0000
0000
0000
0000
,
0000
0000
0000
0000
,
0100
0000
0000
0100
0000
0000
2000
0000
0000
0000
0000
0000
0000
0000
0000
0000
,
0000
0000
0000
0000
,
0001
0000
0000
0001
0000
0000
3020
0000
0000
0000
0000
0000
0000
0000
0000
0000
,
0000
0000
0000
0000
,
0001
0000
0000
0001
0000
0000
0230
0000
0000
0000
0000
0000
0000
0000
0000
0000
,
0000
0000
0000
0000
,
1000
0000
0000
1000
0000
0000
0302
0000
0000
0000
0000
0000
0000
0000
0000
0000
,
0000
0000
0000
0000
0000
0000
0000
0000
0003
0000
0000
0000
0001
0010
0100
1000
,
0010
0000
0000
0010
1000
0000
0100
0000
0000
0100
0000
0000
0110
0000
0000
0010
,
0000
0000
0001
0000
0010
0100
0000
0000
0100
0000
0000
0100
1000
0000
0001
0000
,
0100
0000
0000
0100
0001
0000
0010
0000
0000
0010
0000
0000
0110
0000
0000
0100
,
0000
0000
1000
0000
0100
0010
0000
0000
0010
0000
0000
0010
0001
0000
1000
0000
,
1001
0000
0000
0001
0100
0000
0010
0000
0000
0010
0000
0000
0110
0000
0000
0100
,
0000
0000
0001
0000
0100
0010
0000
0000
0010
0000
0000
0010
1000
0000
0001
0000
,
0010
0000
0000
0010
0001
0000
0100
0000
0000
0100
0000
0000
0110
0000
0000
0010
,
0000
0000
1000
0000
0010
0100
0000
0000
0100
0000
0000
0100
0001
0100
0010
1000
,
0001
0000
0101
0000
1000
0000
0010
1000
,
0000
0002
0010
1003
0000
0002
0010
1003
,
0010
0000
1010
0000
0001
0000
0100
0001
,
0000
0000
2000
0000
0100
0000
3001
0000
0000
0000
1000
0100
0010
0000
0001
0000
,
1000
0110
0001
0110
,
1000
0011
0100
1010
,
1000
0001
0010
1000
0001
0100
1000
0010
,
0100
0000
0000
0010
,
2001
0000
3000
0000
0010
1000
0001
0010
0200
0000
1000
0000
0000
1300
0000
0000
,
2100
0000
0000
0100
0000
0000
3100
0000
0020
0001
0000
0000
0001
0000
0031
0000
,
0202
0000
0303
0000
0100
0001
1000
0100
0020
0000
0001
0000
0000
0031
0000
0000
,
0102
0000
0000
0100
0000
0000
0103
0010
2000
0000
0000
0000
0000
0000
3000
0000
,
1002
0000
0003
0000
0010
0001
1000
0010
0200
0000
0001
0000
0000
0301
0000
0000
,
0102
0000
0000
0100
0000
0000
0103
0000
0020
1000
0000
0000
1000
0000
1030
0000
,
0100
1000
0001
0001
0100
0010
0010
1000
,
0001
0000
0000
0010
0000
0000
1000
0000
0020
0000
0000
0000
0031
1000
0100
0000
,
2200
0000
3300
0000
0202
0000
0303
0000
2010
0000
0000
0001
0000
0000
3001
0000
,
0021
0000
0000
0100
0000
0000
0130
0000
2000
0001
0000
0000
0010
0000
3010
0000
,
0210
0000
0300
0000
0001
0100
0010
1000
0002
0000
0100
0000
0000
0103
0000
0000
,
0210
0000
0000
0010
0000
0000
0310
1000
0002
0000
0000
0000
0000
0000
0003
0000
,
2002
0000
3003
0000
1000
0100
0010
0001
2000
0000
0010
0000
0000
3010
0000
0000
,
0120
0000
0000
1000
0000
0000
1030
0000
0002
0100
0000
0000
0010
0000
0013
0000
,
0100
1000
0010
0010
0100
0001
0001
1000
,
0001
0000
0000
0100
0000
0000
1000
0000
0200
0000
0000
0000
0300
0000
0000
0000
,
0010
0000
1001
0000
0001
0000
0010
0001
,
0000
2000
0010
3001
0000
2000
0010
3001
,
0100
0000
1001
0000
1000
0000
0100
1000
,
0000
0000
0002
0000
0100
0000
1003
0000
0000
0000
0001
0010
0100
0000
1000
0000
,
0001
1010
1000
0101
,
0001
1100
1000
0011
,
1000
0100
0001
1000
0010
0001
0100
0010
,
1000
0000
0000
0000
0000
0000
0001
1000
,
1001
0001
0100
0010
1010
1000
0010
0100
,
0101
0000
0001
0000
0100
0000
0001
0010
0100
0000
1000
0000
0001
0000
0100
0000
,
0110
0000
2020
3030
0022
0033
0202
0303
,
2200
0000
3300
0000
0001
0000
0010
0100
0010
0000
0001
0000
0100
0000
0010
0000
,
1010
1000
0100
0010
0011
0001
0010
0100
,
1100
0000
1000
0000
0100
0000
1000
0010
0100
0000
0001
0000
1000
0000
0100
0000
,
0010
0001
0100
0100
1000
0100
0100
0001
,
1000
0000
0010
0000
1000
0001
1000
0000
0001
0000
0010
0000
0001
1000
0010
0000
,
0220
0330
2020
3030
0011
0001
0010
0100
,
0110
0000
0010
0000
0100
0000
1000
0100
0010
0000
0001
0000
1000
0000
0010
0000
,
0110
0000
0202
0303
2200
3300
2020
3030
,
0022
0000
0033
0000
1000
0000
0100
0010
0100
0000
1000
0000
0010
0000
0100
0000
,
0101
0001
0100
0010
0110
0100
0010
1000
,
1010
0000
0010
0000
0100
0000
0001
0100
0010
0000
1000
0000
0001
0000
0010
0000
,
0100
1000
0010
0010
0001
0010
0010
1000
,
0001
2000
0100
3001
0000
2000
0100
3001
,
0020
0000
0000
0000
,
0000
0000
0000
0000
,
0030
0000
0000
0000
;

//---------------dance-single - ----------------
#NOTES:
     dance-single:
     :
     Medium:
     11:
     0.418297,0.517078,0.056777,0.267664,0.081110,361.000000,354.000000,7.000000,33.000000,0.000000,0.000000,0.418297,0.517078,0.056777,0.267664,0.081110,361.000000,354.000000,7.000000,33.000000,0.000000,0.000000:
0000
0000
0000
0000
,
0000
0000
0000
0000
,
0000
0000
0000
0000
,
0000
0000
0000
0000
,
0000
0000
0000
0000
,
0000
0000
0000
0000
,
0000
0000
0000
0000
,
0000
0000
0000
0000
,
0000
0000
0000
0000
,
1000
0000
0000
1000
0000
0000
0200
0000
0000
0000
0000
0000
0000
0000
0000
0000
,
0000
0000
0000
0300
,
0010
0000
0000
0010
0000
0000
0002
0000
0000
0000
0000
0000
0000
0000
0000
0000
,
0000
0000
0000
0003
,
0001
0000
0000
0001
0000
0000
0200
0000
0000
0000
0000
0000
0000
0000
0000
0000
,
0000
0000
0000
0300
,
0010
0000
0000
0010
0000
0000
2000
0000
0000
0000
0000
0000
0000
0000
0000
0000
,
0000
0000
3000
1001
,
0001
0010
0100
0010
0001
1000
0010
2000
,
0000
3001
0000
0002
0000
1003
0100
0100
,
1000
0010
0100
0010
1000
0001
0010
0002
,
0000
1003
0100
2000
0000
3001
0000
0000
,
1000
0100
0010
0100
1000
0001
0100
0002
,
0000
1003
0000
2000
0000
3001
0010
0010
,
0001
0100
0010
0100
0001
1000
0100
2000
,
0000
3001
0010
0002
0000
1003
0100
1000
,
0001
0000
0010
0000
0001
0000
1000
0010
,
0000
0100
0010
1000
0000
0100
0010
0001
,
1000
0000
0010
0000
1000
0000
0001
0010
,
0000
0100
0010
0001
0000
0010
0100
1000
,
0001
1000
0001
0100
,
0010
1000
0100
0010
,
0001
0010
0001
0010
0100
0010
0100
1000
,
0100
0000
0000
0010
,
2002
0000
3003
0000
0001
0000
0100
0000
0010
0000
1000
0000
0000
1000
0000
0000
,
0001
0000
0000
0001
0000
0000
0001
0000
0000
0010
0000
0000
0010
0000
0010
0000
,
0200
0000
0300
0000
1000
0000
0100
0000
0010
0000
0001
0000
0000
0001
0000
0000
,
1000
0000
0000
1000
0000
0000
1000
0000
0020
0000
0000
0000
0000
0000
0030
0000
,
2002
0000
3003
0000
1000
0000
0010
0000
0100
0000
0001
0000
0000
0001
0000
0000
,
1000
0000
0000
1000
0000
0000
1000
0000
0000
0100
0000
0000
0100
0000
0100
0000
,
0010
0001
1000
0001
0100
0010
1000
0002
,
0000
0103
0001
2000
0000
3010
0100
0001
,
0020
0000
0030
0000
0200
0000
0300
0000
1001
0000
0000
0001
0000
0000
0001
0000
,
0100
0000
0000
0100
0000
0000
0100
0000
0000
0010
0000
0000
0010
0000
0010
0000
,
2000
0000
3000
0000
0001
0000
0010
0000
0100
0000
1000
0000
0000
1000
0000
0000
,
0001
0000
0000
0001
0000
0000
0001
0000
0200
0000
0000
0000
0000
0000
0300
0000
,
2002
0000
3003
0000
1000
0000
0100
0000
0010
0000
0001
0000
0000
0001
0000
0000
,
1000
0000
0000
1000
0000
0000
1000
0000
0000
0010
0000
0000
0010
0000
0010
0000
,
0100
0001
1000
0001
0010
0100
1000
0002
,
0000
0013
0001
2000
0000
3100
0010
0001
,
1000
0000
0100
0000
1000
0000
0001
0010
,
0000
0100
0010
0001
0000
0010
0100
1000
,
0001
0000
0100
0000
0001
0000
1000
0010
,
0000
0100
0010
1000
0000
0010
0100
0001
,
1000
0001
1000
0100
,
0010
0001
0100
0010
,
1000
0010
1000
0010
0100
0010
0100
0001
,
0100
0000
0000
0000
0000
0000
0001
1000
,
1000
0001
0010
0100
1000
0001
1000
0100
,
1000
0001
1000
0010
1000
0001
1000
0100
,
0010
0001
0110
0100
,
1000
0000
0001
1000
0100
0100
0010
0010
,
0001
0010
0001
1000
0001
1000
0001
0100
,
0001
1000
0001
0010
0001
1000
0001
0100
,
0010
1000
0010
1000
0001
1000
0100
0010
,
0000
0001
1000
0001
0100
0100
0100
0000
,
0020
0030
0200
0300
0001
1000
0001
0100
,
0001
1000
0001
0010
0001
1000
0001
0100
,
0010
1000
0110
0100
,
0001
0000
0010
0001
0010
0010
0100
0100
,
1000
0010
1000
0001
1000
0001
1000
0100
,
1000
0001
1000
0010
1000
0001
1000
0100
,
0010
0001
0010
0001
1000
0010
1000
0002
,
0000
0103
0001
2000
0000
3010
0100
0001
,
0020
0000
0000
0000
,
0000
0000
0000
0000
,
0030
0000
0000
0000
;

//---------------dance-single - ----------------
#NOTES:
     dance-single:
     :
     Easy:
     8:
     0.275775,0.364996,0.064888,0.121665,0.000000,238.000000,230.000000,8.000000,15.000000,0.000000,0.000000,0.275775,0.364996,0.064888,0.121665,0.000000,238.000000,230.000000,8.000000,15.000000,0.000000,0.000000:
0000
0000
0000
0000
,
0000
0000
0000
0000
,
0000
0000
0000
0000
,
0000
0000
0000
0000
,
0000
0000
0000
0000
,
0000
0000
0000
0000
,
0000
0000
0000
0000
,
0000
0000
0000
0000
,
0000
0000
0000
0000
,
1000
0000
0000
0020
0000
0000
0000
0000
,
0000
0000
0000
0030
,
0100
0000
0000
0002
0000
0000
0000
0000
,
0000
0000
0000
0003
,
1000
0000
0000
0200
0000
0000
0000
0000
,
0000
0000
0000
0300
,
0010
0000
0000
0002
0000
0000
0000
0000
,
0000
0000
0000
0003
,
1000
0000
0010
0000
1000
0000
0001
0100
,
0000
0000
0001
0100
0000
0000
0100
0000
,
0001
0000
0010
0000
0001
0000
1000
0100
,
0000
0000
1000
0100
0000
0000
0010
0000
,
0001
0000
0100
0000
0001
0000
1000
0010
,
0000
0000
1000
0010
0000
0000
0010
0000
,
1000
0000
0100
0000
1000
0000
0001
0010
,
0000
0000
0001
0010
0000
0000
0001
1000
,
0001
0100
0000
0100
,
0010
0100
0001
1000
,
0100
0010
0000
0010
,
0100
1000
0010
0100
,
0001
0001
0100
0100
,
0010
0010
1000
1000
,
0001
0000
0010
0000
0100
0010
0100
0010
,
0100
0000
0000
0010
,
1001
0001
0101
0000
,
0010
0000
0000
1000
0000
0000
0001
0000
,
1000
0100
0110
0000
,
0010
0001
2000
0000
,
3100
0010
0011
0000
,
0001
0000
0000
0100
0000
0000
0010
0000
,
1000
0000
0001
0000
1000
0000
0100
0010
,
0000
0000
0010
0100
0000
0000
0010
0000
,
0001
1000
1001
0000
,
0010
0000
0000
1000
0000
0000
0100
0000
,
0010
0010
0100
0000
,
1000
0100
0020
0000
,
0031
1000
1010
0000
,
0010
0000
0000
0100
0000
0000
0001
0000
,
1000
0000
0100
0000
0010
0000
0001
1000
,
0000
0000
1000
0001
0000
0000
0001
1000
,
0001
1000
0000
1000
,
0010
1000
0100
0010
,
0001
0100
0000
0100
,
0010
1000
0010
0100
,
0001
0001
1000
1000
,
0100
0100
0010
0010
,
0001
0000
1000
0000
0001
1000
0001
1000
,
0001
0000
0000
1001
,
1000
0000
0100
0000
1000
0100
1000
0000
,
0001
0000
1000
0000
0001
1000
0001
0000
,
0100
0000
0020
0030
0020
0030
2000
3000
,
2000
3000
0001
0000
1000
0001
1000
0000
,
0100
0000
0010
0000
0001
0010
0001
0000
,
1000
0000
0001
0000
1000
0010
1000
0000
,
0001
0000
0010
0000
0001
0000
1000
0001
,
0000
0000
1000
0000
0010
0010
0010
0000
,
0100
0010
0110
0100
,
0001
0000
1000
0000
0100
0010
0100
0000
,
0010
0000
0002
0003
0002
0003
0200
0300
,
0200
0300
0010
0000
1000
0001
1000
0000
,
0001
0000
0010
0000
0001
0100
0001
0000
,
1000
0000
0100
0000
1000
0010
1000
0000
,
0001
0000
1000
0000
0010
0000
0100
0001
,
0000
0000
0001
1000
0000
0000
1000
0001
,
2000
0000
0000
0000
,
0000
0000
0000
0000
,
3000
0000
0000
0000
;

//---------------dance-single - ----------------
#NOTES:
     dance-single:
     :
     Beginner:
     3:
     0.176125,0.236842,0.032444,0.000000,0.000000,152.000000,148.000000,4.000000,0.000000,0.000000,0.000000,0.176125,0.236842,0.032444,0.000000,0.000000,152.000000,148.000000,4.000000,0.000000,0.000000,0.000000:
// measure 0
0000
0000
0000
0000
,  // measure 1
0000
0000
0000
0000
,  // measure 2
0000
0000
0000
0000
,  // measure 3
0000
0000
0000
0000
,  // measure 4
0000
0000
0000
0000
,  // measure 5
0000
0000
0000
0000
,  // measure 6
0000
0000
0000
0000
,  // measure 7
0000
0000
0000
0000
,  // measure 8
0000
0000
0000
0000
,  // measure 9
1000
0000
0000
1000
0000
0000
0000
0000
,  // measure 10
0000
0000
0000
0000
,  // measure 11
0001
0000
0000
0001
0000
0000
0000
0000
,  // measure 12
0000
0000
0000
0000
,  // measure 13
1000
0000
0000
1000
0000
0000
0000
0000
,  // measure 14
0000
0000
0000
0000
,  // measure 15
0001
0000
0000
0001
0000
0000
0000
0000
,  // measure 16
0000
0000
0000
0000
,  // measure 17
1000
0001
0000
0001
,  // measure 18
0000
0010
0000
0100
,  // measure 19
0100
1000
0000
1000
,  // measure 20
0000
0001
0000
0100
,  // measure 21
0100
0010
0000
0010
,  // measure 22
0000
1000
0000
0001
,  // measure 23
0001
0010
0000
0010
,  // measure 24
0000
0100
0000
0100
,  // measure 25
0100
0000
0010
0000
,  // measure 26
0001
0000
1000
0000
,  // measure 27
0010
0000
1000
0000
,  // measure 28
0001
0000
0100
0000
,  // measure 29
0001
0001
0001
0000
,  // measure 30
1000
1000
1000
0000
,  // measure 31
0001
1000
0001
1000
,  // measure 32
0001
0000
0000
0000
,  // measure 33
1001
0000
0001
0000
,  // measure 34
0100
0000
0010
0010
,  // measure 35
0010
0000
1000
0000
,  // measure 36
0100
0100
0100
0000
,  // measure 37
0110
0000
0010
0000
,  // measure 38
0001
0000
1000
1000
,  // measure 39
1000
0000
0010
0000
,  // measure 40
0100
0000
0001
0000
,  // measure 41
0010
0010
0010
0000
,  // measure 42
0100
0000
1000
1000
,  // measure 43
1000
0000
0010
0000
,  // measure 44
0100
0100
0100
0000
,  // measure 45
1001
0000
0001
0000
,  // measure 46
1000
0000
0100
0100
,  // measure 47
0100
0000
0010
0000
,  // measure 48
0001
0000
1000
0000
,  // measure 49
0001
0100
0000
0100
,  // measure 50
0000
0010
0000
0010
,  // measure 51
0010
1000
0000
1000
,  // measure 52
0000
0001
0000
0001
,  // measure 53
1000
1000
1000
0000
,  // measure 54
0001
0001
0001
0000
,  // measure 55
1000
0001
1000
0001
,  // measure 56
1000
0000
0000
0000
,  // measure 57
0010
0010
0100
0000
,  // measure 58
0010
0000
1000
1000
,  // measure 59
0001
0000
0010
0000
,  // measure 60
0100
0000
1000
0000
,  // measure 61
0001
0001
1000
0000
,  // measure 62
0010
0000
0100
0100
,  // measure 63
0001
0000
0010
0000
,  // measure 64
0100
0100
0100
0000
,  // measure 65
1000
0000
0001
0000
,  // measure 66
0001
0001
0010
0000
,  // measure 67
0100
0000
1000
0000
,  // measure 68
0010
0010
0010
0000
,  // measure 69
1000
1000
0001
0000
,  // measure 70
0100
0000
0010
0010
,  // measure 71
0010
0000
0100
0000
,  // measure 72
0001
0000
0000
0000
,  // measure 73
1001
0000
0000
0000
;
