#VERSION:0.83;
#TITLE:Sein;
#SUBTITLE:;
#ARTIST:朔(Apo11o program vs.お月さま交響曲) ft. kuroa*×荒巻;
#TITLETRANSLIT:;
#SUBTITLETRANSLIT:;
#ARTISTTRANSLIT:Saku(Apo11o program vs.Otsukisama Koukyoukyoku) ft. kuroa*×Aramaki;
#GENRE:;
#ORIGIN:;
#CREDIT:;
#BANNER:Sein-bn.png;
#BACKGROUND:Sein-bg.png;
#PREVIEWVID:;
#JACKET:Sein-jacket.png;
#CDIMAGE:;
#DISCIMAGE:;
#LYRICSPATH:;
#CDTITLE:;
#MUSIC:Sein.ogg;
#OFFSET:1.110000;
#SAMPLESTART:37.175999;
#SAMPLELENGTH:15.000000;
#SELECTABLE:YES;
#BPMS:0.000=210.000;
#STOPS:;
#DELAYS:;
#WARPS:;
#TIMESIGNATURES:0.000=4=4;
#TICKCOUNTS:0.000=4;
#COMBOS:0.000=1;
#SPEEDS:0.000=1.000=0.000=0;
#SCROLLS:0.000=1.000;
#FAKES:;
#LABELS:0.000=Song Start;
#BGCHANGES:;
#KEYSOUNDS:;
#ATTACKS:
;

//---------------dance-single - ----------------
#NOTEDATA:;
#CHARTNAME:;
#STEPSTYPE:dance-single;
#DESCRIPTION:;
#CHARTSTYLE:;
#DIFFICULTY:Challenge;
#METER:19;
#RADARVALUES:1.187548,1.445097,0.568326,0.500467,1.497158,980.000000,913.000000,67.000000,59.000000,0.000000,0.000000,0.000000,0.000000,0.000000,1.187548,1.445097,0.568326,0.500467,1.497158,980.000000,913.000000,67.000000,59.000000,0.000000,0.000000,0.000000,0.000000,0.000000;
#CREDIT:Talkion (feat. Kekkle);
#NOTES:
0000
0000
0000
0000
,
0000
0000
0000
0000
,
0000
0000
0000
0000
,
2001
0000
0000
0000
3100
0000
1000
0100
0010
0001
1000
0010
0100
0000
1000
0000
,
1200
0000
0000
0000
0310
0000
1000
0010
0100
0001
1000
0100
0010
0100
0002
0000
,
0000
0000
0103
0000
1000
0000
0001
0100
0010
1000
0001
0010
0100
0000
0010
0001
,
1000
0000
0000
0000
0100
0000
0000
0000
0010
0000
0000
0000
0001
0000
0000
0000
1000
0000
0000
0000
0010
0000
0000
0000
0100
0000
0000
0001
0000
0000
0100
0000
0000
0001
0000
0000
1000
0000
0000
0010
0000
0000
0001
0000
0000
0000
0000
0000
,
0021
0000
0000
0000
0130
0000
0001
0100
0010
1000
0001
0010
0100
0000
0001
0000
,
0201
0000
0000
0000
1300
0000
0001
0010
0001
1000
0010
0100
2000
0000
0000
0000
,
3100
0000
0001
0100
0010
1000
0001
0010
0100
1000
0001
1000
0010
0100
0010
0100
,
0001
1000
0001
1000
0100
0010
0001
1000
0100
1000
0010
0100
0002
0000
0000
0000
,
1003
0001
1000
0100
1000
0001
1000
0010
,
0100
0000
0000
0001
0000
0000
1000
0000
0100
0000
0010
0000
0001
0000
0100
0000
0010
0000
2000
0000
0000
0000
0000
0000
,
3001
0010
0001
0000
0000
0000
0011
0000
1000
0000
1002
0000
0000
0000
0103
0010
,
0100
0000
0001
0100
0010
1000
0001
0010
0200
0000
0000
0000
1300
0000
0001
0000
,
0001
0000
0001
0000
0100
0010
1000
0010
0100
0000
2001
0000
0000
0000
3100
0000
,
0010
0000
0000
0000
0000
0000
0001
0000
0000
0010
0000
0000
0001
0000
0000
0000
0000
0000
0000
0000
0110
0000
0000
0000
0000
0000
0000
0000
1001
0000
0000
0000
0000
0000
0000
0000
0001
0000
0000
0000
0000
0000
0100
0000
0000
0000
0000
0000
,
0100
0000
0100
0000
0010
1000
0001
1000
0100
0000
0010
0000
0010
0000
0010
0000
,
0001
0010
0100
1000
0010
0100
0002
0000
0000
1003
0000
1000
,
0001
0000
0001
0010
0000
0010
1000
0000
0000
0010
0000
0010
,
0100
0000
0100
1100
0000
0101
0000
0000
0110
0000
0000
1002
,
0000
0000
0000
0000
0000
0000
0103
0000
0000
0000
0010
0100
0010
0000
0000
0000
1010
0000
0000
0000
0101
0000
0000
0000
,
1000
0100
0010
0001
0100
0010
2000
0000
0000
0001
0000
0000
,
0000
0001
3100
0010
,
0001
0000
1000
0010
0100
0000
0102
0000
0000
0000
1003
0000
0100
0000
0102
0000
,
0000
0000
1003
0000
0010
0000
0012
0000
0000
0000
1003
0100
1000
0000
0100
1000
,
0001
0100
0010
0100
0001
0000
1000
0010
0100
0000
1001
0000
0001
0010
0100
0000
,
1001
0000
1000
0010
0100
0000
1001
0000
0000
0000
1001
0000
0001
0010
0100
1000
,
0001
0000
0100
0001
0010
0000
1001
0000
0100
1000
0010
0000
1001
0000
0100
0001
,
0010
0000
1001
0000
0000
0000
1001
0000
1000
0100
0010
0001
1000
0000
0001
0100
,
1000
0000
0110
0000
1000
0010
0001
0000
0110
0000
0001
0100
1000
0000
0110
0000
,
0000
0000
0110
0000
1000
0010
0100
0001
1000
0000
0000
0000
0000
0000
0000
0000
,
0000
0000
0000
0000
0001
1000
0100
0010
0001
1000
0010
1000
0100
0000
1000
0001
,
0010
0001
0100
0000
0010
0001
0010
1000
0200
0000
0000
0000
0001
0000
0000
0000
,
0010
0000
0000
0000
1300
0000
0000
0000
0001
0000
0100
0010
0100
0000
1000
0000
,
0100
0010
0100
0000
0001
0000
1002
0000
0000
0000
0010
0000
0013
0000
0001
0010
,
0100
0000
1000
0001
0010
0000
0000
0000
0001
0000
1000
0010
0100
0000
0201
0000
,
0000
0000
0310
0000
1000
0000
2001
0000
0000
0000
3100
0010
0001
1000
0100
1000
,
0001
0000
0000
0000
0100
0000
0000
0000
0010
0000
0000
0000
1000
0000
0000
0001
0000
0000
1000
0000
0000
0001
0000
0000
0010
0000
0000
0000
0000
0000
1000
0000
0000
0010
0000
0000
0001
0000
0000
0100
0000
0000
0010
0000
0000
0000
0000
0000
,
0000
0000
0010
0000
0100
0000
1000
0100
0001
0010
0100
0000
0000
0000
0100
0000
,
1100
0000
0000
0000
0000
0000
0000
0000
0011
0000
0000
0000
0000
0000
0000
0000
1001
0000
0000
0000
0000
0000
0000
0000
0000
0000
0000
0000
0000
0000
1000
0000
0000
0010
0000
0000
0200
0000
0000
0000
0000
0000
0000
0000
0000
0000
0000
0000
,
0302
0000
0000
0000
1003
0100
0010
0001
1000
0000
0001
0100
0010
0000
1010
0000
,
0000
0000
0101
0000
1000
0000
1001
0000
0000
0000
0001
0010
2000
0000
0000
0000
,
3010
0001
0100
0000
0000
0000
0100
0000
0010
0000
0001
0010
1000
0100
0010
0000
,
0000
0000
0110
0000
0001
0000
1001
0000
0000
0000
1000
0000
0001
0100
0001
0000
,
1000
0100
0010
0000
0100
0000
0002
0000
0000
0000
0203
0000
0000
0000
2300
0000
,
0000
0000
0000
0001
0000
0000
0000
0000
0000
0000
0000
0000
3020
0000
0000
0000
0000
0000
1030
0000
0010
0000
0010
0000
,
0200
0000
0000
1300
0010
0010
0002
0000
0000
1003
0010
0100
,
0101
0000
1100
0000
0101
0000
0210
0000
0000
0301
0100
0100
,
0020
0000
0000
0031
0100
0100
2000
0000
0000
3001
0010
0100
,
0001
0000
0000
0000
0100
0000
0000
0000
0100
0000
0000
0000
0100
0000
0000
0000
1000
0000
0000
0000
0001
0000
0000
0000
0100
0000
0000
0010
0000
0000
1000
0000
0000
0001
0000
0000
0010
0000
0000
0000
0010
0000
0000
0000
1000
0000
0000
0000
,
0100
0000
0000
0010
0000
0000
0001
0000
0000
1000
0000
0000
0010
0000
0000
0000
0010
0000
0000
0000
0001
0000
0000
0000
0100
0000
0000
0010
0000
0000
1000
0000
0000
0001
0000
0000
0010
0000
0000
0000
0010
0000
0000
0000
0010
0000
0000
0000
,
0001
1000
0010
0100
1000
0100
0020
0000
0000
0000
1000
0000
1030
0000
0001
0100
,
0010
1000
0001
0010
0100
0000
0001
0000
0201
0000
0000
0000
0310
0000
0001
0010
,
0100
1000
0001
0100
0010
0100
2000
0000
0000
0000
3100
0000
0001
0000
1000
0100
,
0010
0000
0000
0001
0000
0000
1000
0000
0000
0010
0000
0000
0100
0000
0000
0000
0000
0000
0010
0000
0000
1000
0000
0000
0001
0000
0000
0000
0010
0000
0000
0000
0100
0000
0000
0000
0001
0000
0000
0000
1000
0000
0000
0000
0010
0000
0000
0000
,
0100
1000
0100
1000
0001
0010
0100
0010
1000
0000
0010
0100
1000
0000
0001
1000
,
0010
0100
0001
1000
0100
0000
0010
0100
0001
0000
0100
0010
0001
0000
1000
0100
,
1000
0001
0100
0010
0001
0000
0010
0100
0001
0000
1000
0001
0010
0100
1000
0001
,
0100
0010
0100
0010
1000
0001
0010
0001
0100
0010
1000
0100
1000
0001
0100
0010
,
1000
0001
0010
0100
0002
0000
0000
0000
0000
0000
0000
0000
0003
0000
0000
0000
,
0100
1000
0001
1000
0010
0100
0001
0000
0000
0000
0000
0000
,
1000
0010
0100
0001
0010
0001
1000
0100
0010
0001
0000
0000
,
0000
0000
0000
1000
0100
0010
1000
0010
0001
1000
0010
0001
,
0010
0100
0001
1000
0000
0000
0000
0000
0000
0010
1000
0001
,
1000
0100
0010
0001
0000
0000
0000
0000
0000
1000
0100
0010
,
0001
0100
0001
1000
0000
0000
0001
0010
0001
1000
0010
1000
,
0001
0000
0000
1000
0100
0010
1000
0010
0100
0001
0100
0010
,
0001
1000
0010
0001
0010
0100
0001
0000
0000
2000
0000
0000
,
3200
0000
0320
0000
0032
0000
0000
1000
,
0000
0203
0000
0001
,
1000
0010
0301
2000
,
3200
0000
0320
0000
0032
0000
1003
0020
,
0100
0001
0100
0000
,
0000
0000
0000
0000
,
0000
0000
0000
0000
0000
0000
0000
0000
1030
0001
0010
0100
1000
0010
1000
0001
,
0100
0010
1000
0100
1000
0001
0010
0100
0001
0100
1000
0001
0010
0001
1000
0010
,
0001
0010
0100
0001
1000
0100
0010
0001
0200
0000
0000
0000
0000
0000
0000
0000
,
1000
0000
0010
0000
,
0301
1000
0001
1000
0001
1000
0001
1000
0000
0000
0000
0000
1100
0000
0011
0000
,
0000
0000
1000
0010
0100
0000
0201
0000
0000
0000
0310
1000
0010
0000
1000
0000
,
1001
0000
0000
0000
0000
0000
0000
0000
0011
0000
0000
0000
0000
0000
0000
0000
1100
0000
0000
0000
0000
0000
0000
0000
1000
0000
0000
0001
0000
0000
1000
0000
0000
0001
0000
0000
0010
0000
0000
0000
0000
0000
0021
0000
0000
0000
0000
0000
,
0000
0000
0130
0000
1000
0000
2001
0000
0000
0000
3010
0100
0001
1000
0010
1000
,
0001
0000
0000
0000
0010
0000
0000
0000
0100
0000
0000
0000
1000
0000
0000
0001
0000
0000
1000
0000
0000
0001
0000
0000
0100
0000
0000
0000
0000
0000
1000
0000
0000
0100
0000
0000
0001
0000
0000
0010
0000
0000
0100
0000
0000
0000
0000
0000
,
0000
0000
0100
0000
0010
0000
1000
0010
0001
0100
0010
0000
0000
0000
0010
0000
,
1010
0000
0000
0000
0000
0000
0000
0000
0101
0000
0000
0000
0000
0000
0000
0000
1001
0000
0000
0000
0000
0000
0000
0000
0000
0000
0000
0000
0000
0000
1000
0000
0100
0000
0010
0000
0001
0000
0000
0000
0000
0000
1000
0000
0000
0001
0000
0000
,
0010
0001
1000
0001
0010
0001
1000
0001
0010
0100
1000
0010
0100
0000
0101
0000
,
0000
0000
1010
0000
0000
0000
1001
0000
0000
0000
0001
0010
0100
1000
0001
0100
,
0010
1000
0001
0010
0001
1000
0010
1000
0100
0000
0010
0100
0010
0000
1000
0000
,
0010
0100
0010
0000
0001
0000
1002
0000
0000
0000
0100
0000
0103
0000
0001
0100
,
0001
0000
1000
0100
0010
0001
1000
0010
0100
0000
0001
1000
0100
0000
1200
0000
,
0000
0000
0310
0000
0001
0010
2000
0000
0000
0000
3010
0000
0100
0010
0001
0100
,
0010
0000
0000
0000
0000
0000
1020
0000
0000
0000
0000
0000
0000
0000
0000
0000
0000
0000
0130
0000
0001
0000
1000
0000
0010
0000
0000
0000
0000
0000
0001
0000
0000
0010
0000
0000
1000
0000
0000
0100
0000
0000
0010
0000
0000
0000
0000
0000
,
0100
0000
0000
0000
0000
0000
0010
0000
0001
0000
1000
0000
0100
0000
0000
0000
0000
0000
0001
0000
0000
0100
0000
0000
1000
0000
0000
0010
0000
0000
0100
0000
0000
0000
0000
0000
0010
0000
0000
0000
0000
0000
0100
0000
0001
0000
1000
0000
,
0010
0000
0000
1010
0000
0000
0000
0000
0000
0101
0000
0000
0000
0000
0000
0001
0000
0000
1000
0000
0100
0000
0010
0000
,
0001
0000
0000
0000
1000
0000
0000
0000
0010
0000
0000
0000
0100
0000
0000
0000
0000
0000
2000
0000
0000
0000
0000
0000
0000
0000
0000
0000
0000
0000
3100
0000
0000
0000
0000
0000
0001
0000
0000
0100
0000
0000
0010
0000
0000
1000
0000
0000
,
0001
0010
0100
1000
0010
1000
0001
0010
0100
0000
0001
0000
0100
0000
1000
0000
,
0100
0001
0100
2100
0000
3001
1000
0010
,
0001
0001
0000
0021
0000
0000
0100
0000
,
0000
0100
0000
0100
,
1030
0000
0000
0001
0000
0000
0010
0000
0000
0100
0000
0000
1000
0000
0000
0001
0000
0000
0100
0000
0000
0010
0000
0000
1000
0000
0000
0000
0010
0000
0000
0000
0010
0000
0000
0000
0001
0000
0000
0000
0100
0000
0000
0000
0010
0000
0000
0000
,
2000
0000
0000
0000
0000
0000
0000
0000
0000
0000
0000
0000
3001
0000
0000
0000
0010
0000
0000
0000
0010
0000
0000
0000
1000
0000
0000
0001
0000
0000
0010
0000
0000
0001
0000
0000
1000
0000
0000
0010
0000
0000
0100
0000
0000
0001
0000
0000
,
1000
0000
0000
0000
0010
0000
0000
0000
0010
0000
0000
0000
0001
0000
0000
1000
0000
0000
0010
0000
0000
1000
0000
0000
0100
0000
0000
0000
0001
0000
0000
0000
0001
0000
0000
0000
0001
0000
0000
0000
0100
0000
0000
0000
0010
0000
0000
0000
,
0001
1000
0010
0001
0000
0000
0000
0000
0000
0000
0000
0000
;

//---------------dance-single - ----------------
#NOTEDATA:;
#CHARTNAME:;
#STEPSTYPE:dance-single;
#DESCRIPTION:;
#CHARTSTYLE:;
#DIFFICULTY:Medium;
#METER:15;
#RADARVALUES:0.781600,1.138561,0.466537,0.856731,0.610739,645.000000,590.000000,55.000000,101.000000,0.000000,0.000000,0.000000,0.000000,0.000000,0.781600,1.138561,0.466537,0.856731,0.610739,645.000000,590.000000,55.000000,101.000000,0.000000,0.000000,0.000000,0.000000,0.000000;
#CREDIT:Kekkle;
#NOTES:
0000
0000
0000
0000
,
0000
0000
0000
0000
,
0000
0000
0000
0000
,
1002
0000
0103
0010
0100
1000
0100
0001
,
2000
0000
0000
0000
3001
0000
0010
0000
0100
1000
0100
0000
1000
0000
1002
0000
,
0000
0000
0013
0000
0100
0000
1000
0000
0001
0100
0001
0000
0100
0000
0010
0000
,
1000
0000
0000
0000
0001
0000
0000
0000
0010
0000
0000
0000
0100
0000
0000
0000
0000
0000
1000
0000
0000
0000
0000
0000
0001
0000
0000
1000
0000
0000
0001
0000
0000
1000
0000
0000
0001
0000
0000
0000
0000
0000
0000
0000
0000
0000
0000
0000
,
2001
0000
0000
0000
3010
0000
0100
0000
0001
1000
0001
0000
0010
0000
0100
0000
,
2100
0000
0000
0000
3001
0000
0100
0000
0010
0100
0010
0000
0210
0000
0000
0000
,
0301
0000
1000
0000
0100
1000
0100
0000
1000
0001
1000
0001
2000
0000
0000
0000
,
0000
0000
0000
0000
0000
0000
0000
0000
3001
0100
0001
0100
0002
0000
0000
0000
,
1003
0000
0100
0010
0000
0001
1000
0000
,
0010
0000
0000
0100
0000
0000
0001
0000
1000
0000
0001
0000
0010
0000
0100
0000
0010
0000
0200
0000
0000
0000
0000
0000
,
1300
1100
0000
0101
0000
2001
0000
0000
,
3010
0000
0100
0000
0001
1000
0001
0000
0010
0000
0100
0000
1000
0000
0001
0000
,
0001
0100
0010
0010
1000
1002
0000
0013
,
0100
0000
0000
0010
0000
0000
0002
0000
0000
0000
2003
0000
0000
0000
3020
0000
0000
0000
0130
0000
0000
0001
0000
0000
,
0010
2000
0000
3010
0001
0100
0010
0001
,
0010
1000
0010
0100
0001
1000
0002
0000
0000
0013
0000
0000
,
0100
0000
0000
0010
0000
0000
0001
0000
0001
1000
0000
1000
,
0010
0000
0010
0200
0000
0302
0000
0000
2003
0000
0000
3200
,
0000
0000
0000
0310
0000
1001
0000
0000
1000
0000
1000
0000
,
1000
0000
0001
0000
0001
0000
0002
0000
0000
0100
0000
0000
,
0000
0100
1003
0200
,
0310
0001
1000
0020
0000
0130
0001
0020
,
0000
0130
1000
0020
0000
0000
0130
0000
,
0001
1000
0001
1000
0002
0000
0000
0000
0013
0000
0200
0000
0000
0000
1300
0000
,
0002
0000
0000
0000
0103
0000
0020
0000
0000
0000
1030
0000
0001
0100
0001
0100
,
0002
0000
1003
0200
0000
0310
0002
0000
,
1003
0000
0020
0000
0000
0000
0130
0000
0001
1000
0001
1000
0002
0000
0000
0000
,
0013
2000
0000
3010
0002
0000
0103
2000
,
0000
0000
3100
0000
0010
0100
0010
0100
0010
0000
0000
0000
0000
0000
0000
0000
,
0000
0000
0000
0000
0000
0000
0000
0000
1000
0001
1000
0000
0001
0000
0010
0100
,
0010
0000
0100
0000
1000
0001
1000
0001
2000
0000
0000
0000
0010
0000
0000
0000
,
0010
0000
3010
0000
1000
0100
0010
0001
,
0100
0010
1000
1002
0000
0000
0013
0100
,
0010
0001
0100
0010
1000
0000
0001
0201
,
0000
0000
0000
0000
0310
0000
2010
0000
0000
0000
3001
0010
0001
0000
1000
0000
,
0010
0000
0100
0000
0001
0000
1000
0000
0000
0000
0000
0000
1200
0000
0000
0000
0000
0000
0310
0000
0000
0011
0000
0000
,
0000
0000
0201
0000
0310
1010
0000
1000
,
1001
0000
0000
0000
0000
0000
0000
0000
1001
0000
0000
0000
0000
0000
0000
0000
1001
0000
0000
0000
0000
0000
0000
0000
0000
0000
0000
0000
0000
0000
0001
0000
0000
0010
0000
0000
0002
0000
0000
0000
0000
0000
0000
0000
0000
0000
0000
0000
,
2003
0000
0000
0000
3001
0000
0100
0001
0100
0000
0010
0000
1000
0000
1001
0000
,
0000
0000
0011
0000
0000
0000
1100
0000
0000
0000
1000
0001
2000
0000
0000
0000
,
3010
0002
0000
0013
2000
0000
3100
0002
,
0000
0103
1000
1002
0000
0000
0010
0000
,
1003
0000
0001
1000
0001
0000
0021
0000
0000
0000
1000
0000
0000
0000
0100
0000
,
0000
0000
0000
0031
0000
0000
0000
0000
0000
0000
0000
0000
2000
0000
0000
0000
0000
0000
3001
0000
0100
0000
0010
0000
,
2000
0000
0000
3001
0010
0100
2000
0000
0000
3001
0000
0000
,
1001
0000
1001
0000
1001
0000
0002
0000
0000
1003
0100
0010
,
0002
0000
0000
1003
0010
0100
0002
0000
0000
1003
0000
0000
,
0001
0100
0001
1000
0100
1000
0002
0000
0000
1003
0010
0100
,
0002
0000
0000
1003
0100
0010
0002
0000
0000
1003
0010
0100
,
0001
1000
0001
0000
1000
0000
1200
0000
0000
0000
0310
0000
0001
0000
1000
0000
,
0001
0100
0001
0100
0001
0000
0000
0000
1000
0000
0100
0000
0001
0000
0100
0000
,
1000
0100
1000
0100
1000
0000
1002
0000
0000
0000
0013
0000
0100
0000
0010
0000
,
0001
0000
0000
1000
0000
0000
0001
0000
0000
1000
0000
0000
0001
0000
0000
0000
0000
0000
0000
0000
0000
0000
0000
0000
1000
0000
0000
0000
0010
0000
0000
0000
1000
0000
0000
0000
0001
0000
0000
0000
0010
0000
0000
0000
0001
0000
0000
0000
,
1000
0000
0100
0000
1000
0000
0001
0000
0100
0000
0001
0000
2000
0000
0000
0000
0000
0000
3001
0000
0000
0010
0000
0000
,
0100
1000
0100
1000
0100
0000
1000
0000
0002
0000
0000
0000
0103
0000
0010
0000
,
0100
0000
0001
0000
2001
0000
0000
0000
3100
0000
0010
0000
0001
0010
0001
0000
,
1000
0010
0100
0000
0020
0000
0000
0000
0000
0000
0000
0000
0000
0000
0000
0000
,
0030
2001
0000
0000
,
0000
0000
0000
0000
,
0000
3020
0000
0000
,
0000
0000
0000
0000
,
0000
0230
0000
0000
,
0000
0000
0000
0000
,
0000
0302
0000
0000
,
2003
0000
0000
3200
,
0000
0000
0020
0000
,
0000
0000
0330
0000
0200
0000
0000
2300
,
0000
3002
0000
0000
,
0000
0000
0003
2000
,
3020
0000
0230
0000
0302
0000
0000
2003
,
0000
0000
0000
0000
,
0000
0000
0000
0000
,
0000
0000
3000
0000
,
0000
0000
0000
0000
,
0000
0000
2001
0000
,
0100
0000
0001
0000
,
3010
0100
0010
0000
1000
0001
1000
0001
0000
0000
0000
0000
1000
0000
1100
0000
,
0000
0001
0100
0110
0000
0010
1000
0001
,
0011
0000
0000
0000
1001
0000
0000
0000
1010
0000
0000
0000
0020
0000
0000
0000
0000
0000
0000
0000
0000
0230
0000
0000
,
0000
0301
1000
0200
0000
0301
0100
0010
,
0001
1000
0001
1000
0001
0000
0000
0000
0021
0000
0000
0000
0130
0000
2100
0000
,
0000
3001
0201
0000
0310
2010
0000
3001
,
0011
0000
0000
0000
0000
0000
0000
0000
1001
0000
0000
0000
0000
0000
0000
0000
1010
0000
0000
0000
0000
0000
0000
0000
0000
0000
0000
0000
0000
0000
0010
0000
0000
0100
0000
0000
0020
0000
0000
0000
0000
0000
0000
0000
0000
0000
0000
0000
,
1030
0000
0100
0000
0001
0000
0100
0000
1000
0000
0001
1000
0001
1000
0001
0000
,
0000
0000
0011
0000
0000
0000
1100
0000
0000
0000
1000
0001
1000
0001
1000
0000
,
0001
0100
0001
0100
0001
0100
0001
0000
1000
0000
0010
0000
0100
0000
0001
0000
,
0010
0100
2000
0000
0000
3001
0100
0010
,
1000
0000
0100
0000
0010
0001
0010
0001
0010
0000
0000
0000
0001
0000
0201
0000
,
0000
0310
1000
0200
0000
0310
0001
1000
,
0010
0000
0002
0000
0000
0000
0013
1000
0010
0000
1000
0000
0100
0000
0110
0000
,
0000
0010
0011
0001
0100
0110
0000
0010
,
1000
0000
0000
1000
0000
0000
0000
0000
0000
1002
0000
0000
0000
0000
0000
0000
0000
0000
0013
0000
0100
0000
1000
0000
,
0001
0000
0100
0000
0010
0000
1000
0000
0000
1002
0000
0000
0000
0000
0000
0023
0000
0000
0000
0000
0000
0230
0000
0000
,
0000
0000
1300
0000
0001
1000
0001
1000
0001
0000
0100
0000
1000
0000
0100
0000
,
0010
1000
0000
1002
0000
0013
0100
1000
,
0001
0001
0000
2001
0000
0000
0010
0000
,
0000
0010
0000
3010
,
1000
0000
0000
0001
0000
0000
1000
0000
0000
0001
0000
0000
1000
0000
0000
0001
0000
0000
1000
0000
0000
0000
0000
0000
0001
0000
0000
0000
0100
0000
0000
0000
0001
0000
0000
0000
1000
0000
0000
0000
0100
0000
0000
0000
0010
0000
0000
0000
,
0002
0000
0000
0000
0000
0000
0000
0000
0000
0000
0000
0000
1003
0000
0000
0000
0010
0000
0000
0000
0100
0000
0000
0000
0001
0000
0000
0000
0010
0000
0000
0000
0100
0000
0000
0000
1000
0000
0000
0001
0000
0000
1000
0000
0000
0001
0000
0000
,
1000
0100
1000
0001
0100
0001
1000
0100
0010
0001
0100
0010
,
1000
0010
0100
0001
0000
0000
0000
0000
0000
0000
0000
0000
;

//---------------dance-single - ----------------
#NOTEDATA:;
#CHARTNAME:;
#STEPSTYPE:dance-single;
#DESCRIPTION:;
#CHARTSTYLE:;
#DIFFICULTY:Beginner;
#METER:9;
#RADARVALUES:0.318699,0.481699,0.186615,0.339299,0.067860,263.000000,241.000000,22.000000,40.000000,0.000000,0.000000,0.000000,0.000000,0.000000,0.318699,0.481699,0.186615,0.339299,0.067860,263.000000,241.000000,22.000000,40.000000,0.000000,0.000000,0.000000,0.000000,0.000000;
#CREDIT:Kekkle;
#NOTES:
0000
0000
0000
0000
,
0000
0000
0000
0000
,
0000
0000
0000
0000
,
0001
0000
1000
0010
,
1000
0000
0000
0000
0001
0000
0000
1001
,
0000
0000
1000
0100
,
0020
0000
0032
0000
,
1003
0000
0001
0100
,
0001
0000
1000
0001
,
0000
0010
0100
0020
,
0000
0000
0000
0031
,
0000
1000
0000
0010
,
0000
0100
0001
1000
,
0000
0001
0000
0001
0000
0002
0000
0000
,
1003
0100
0000
0010
,
0000
0001
0000
0000
0000
1000
0000
0000
,
0010
0200
0000
0301
,
0000
1001
0000
0000
1000
0000
0000
1001
,
0000
0001
0100
0000
,
0010
0000
1000
0001
,
1000
0000
0000
0200
0000
0000
0000
0000
0310
0000
0000
0001
,
0000
0000
0000
1001
0000
0000
0000
0000
1000
0000
0001
0000
,
1000
0000
0001
0000
1000
0000
0001
0000
0000
0100
0000
0000
,
0000
0100
0100
0000
,
0010
0000
0000
1001
0000
0000
0000
0110
,
0000
0000
0000
2002
0000
0000
0000
0000
,
3003
0000
0001
0000
0000
0100
0000
0000
,
1000
0000
0000
0020
0000
0000
0030
0000
,
0001
0000
0000
0010
0000
0000
1000
0000
,
0000
0200
0000
0000
0300
0000
0001
0000
,
0000
0010
0000
0000
1000
0000
0000
0200
,
0000
0300
0001
1000
,
0100
0000
0000
0000
0010
0000
0000
0100
,
0000
0010
0020
0000
,
0000
0000
0000
0000
0031
0000
0000
1000
,
0000
0010
0000
0100
,
0001
0000
1000
0000
0100
0000
0000
0220
,
0000
0000
0330
0000
,
0010
0000
0001
0000
1000
0000
0000
1000
,
0000
0000
0001
0000
0000
0001
0000
0000
,
0100
0000
0010
0000
0100
0000
0000
0000
0000
0010
0000
0000
,
1000
0000
0001
0000
0010
0000
0000
0100
,
0000
0100
0000
0100
0000
0000
2000
0000
,
0000
3001
0000
0000
0002
0000
0000
0103
,
0000
0000
0000
0010
0000
0000
1000
0000
,
0001
0000
0000
0010
0000
0100
0000
0010
,
0000
0100
0000
0000
2000
0000
0000
0000
,
3002
0000
0203
0000
,
0310
0000
0100
0000
0010
0000
0200
0000
0000
0000
0000
0000
,
0302
0000
2003
0000
,
3100
0000
0010
0000
0100
0000
0020
0000
0000
0000
0000
0000
,
0032
0000
2003
0000
,
3010
0000
0000
0110
0000
0000
0100
0000
,
0001
0000
1000
0100
,
0010
0000
0000
0110
0000
0000
0100
0000
,
1000
0000
0002
0000
,
2003
0000
3010
0000
,
0100
0001
1000
0000
,
0001
0010
0000
0100
,
1000
0002
0000
0000
,
0000
2003
0000
0000
,
0000
0000
0000
0000
,
0000
0001
0000
0000
,
0000
0000
0000
0000
,
0000
3002
0000
0000
,
0000
0000
0000
0000
,
0000
1000
0000
0000
,
1000
0000
0000
1000
,
0000
0000
2003
0000
,
0000
0000
3000
0000
,
0000
0000
0000
0001
,
1000
0001
2000
0000
,
0000
0000
0000
3100
,
0010
0100
0020
0000
,
0000
0000
0000
0000
,
0000
0000
0032
0000
,
0000
0000
0000
0000
,
0000
0000
2000
0000
,
0000
0000
0000
3003
,
0001
0000
1000
0000
0000
0000
0000
1001
,
0000
0000
0000
1001
0000
0000
0000
0000
,
0001
0000
0000
0000
1000
0000
0000
0000
0001
0000
0000
0000
1000
0000
0000
0000
0000
0000
0000
0000
0000
2002
0000
0000
,
0000
0000
0000
3003
,
0001
0000
1000
0000
0010
0000
0000
0110
,
0000
0000
1000
0000
0000
1001
0000
0000
,
0001
0000
1000
0000
0001
0000
0000
0000
0000
0010
0000
0000
,
0100
0000
1000
0000
0001
0000
0000
1000
,
0000
1000
0000
1000
0000
0000
0010
0000
,
0100
0000
0010
0000
1000
0000
0000
0001
,
0000
0010
0000
0100
,
1000
0000
0001
0000
0100
0000
0000
0110
,
0000
0000
0000
1001
0000
0000
0000
0000
,
0001
0000
1000
0000
0100
0000
0000
0110
,
0000
0000
0001
0000
0000
1001
0000
0000
,
1000
0000
0000
1001
0000
0000
0001
0000
,
0100
0000
0000
0001
0000
1000
0000
0100
,
0000
0010
0000
0000
0001
0000
1000
0000
,
0010
0000
0000
0100
0000
0000
0001
0000
,
1000
0000
0000
2002
0000
0000
0000
0000
,
0000
0000
0000
3003
,
0002
0000
1003
0100
,
1000
0001
0100
0001
,
1000
0000
0010
0000
0100
0000
0001
1000
,
0001
1001
0000
0000
;

//---------------dance-single - ----------------
#NOTEDATA:;
#CHARTNAME:;
#STEPSTYPE:dance-single;
#DESCRIPTION:;
#CHARTSTYLE:;
#DIFFICULTY:Hard;
#METER:18;
#RADARVALUES:1.053040,1.360802,0.593774,0.627704,1.085758,869.000000,799.000000,70.000000,74.000000,0.000000,0.000000,0.000000,0.000000,0.000000,1.053040,1.360802,0.593774,0.627704,1.085758,869.000000,799.000000,70.000000,74.000000,0.000000,0.000000,0.000000,0.000000,0.000000;
#CREDIT:Kekkle;
#NOTES:
// measure 0
0000
0000
0000
0000
,  // measure 1
0000
0000
0000
0000
,  // measure 2
0000
0000
0000
0000
,  // measure 3
2001
0000
0000
0000
3100
0000
0010
0000
0001
1000
0010
0100
0010
0000
1000
0000
,  // measure 4
1020
0000
0000
0000
0130
0000
0001
0000
1000
0000
0001
0010
0100
0010
2000
0000
,  // measure 5
0000
0000
3010
0000
0001
0000
1000
0000
0010
0100
0001
1000
0001
0000
1000
0000
,  // measure 6
0001
0000
0000
0000
0010
0000
0000
0000
1000
0000
0000
0000
0001
0000
0000
0000
1000
0000
0000
0000
0010
0000
0000
0000
0001
0000
0000
1000
0000
0000
0001
0000
0000
1000
0000
0000
0010
0000
0000
0100
0000
0000
0001
0000
0000
0000
0000
0000
,  // measure 7
2001
0000
0000
0000
3010
0000
0100
0000
0001
1000
0100
0010
0100
0000
0010
0000
,  // measure 8
0012
0000
0000
0000
1003
0000
0001
0000
1000
0010
0100
0010
0002
0000
0000
0000
,  // measure 9
0013
0000
1000
0000
0001
0010
0100
1000
0001
0100
0010
0100
0002
0000
0000
0000
,  // measure 10
0000
0000
0000
0000
0000
0000
0000
0000
1003
0010
0100
0001
2000
0000
0000
0000
,  // measure 11
3001
0100
0010
0001
0000
1000
0100
0010
,  // measure 12
1000
0000
0000
0001
0000
0000
0010
0000
0100
0000
0001
0000
1000
0000
0010
0000
0100
0000
2000
0000
0000
0000
0000
0000
,  // measure 13
3001
0201
0000
1300
0001
0020
0000
1030
,  // measure 14
0001
0010
0100
1000
0000
0000
0001
0100
,  // measure 15
0100
0000
0100
0000
0010
0000
0010
1000
0001
0000
0021
0000
0000
0000
0130
0000
,  // measure 16
1000
0000
0000
0001
0000
0000
0101
0000
0000
0000
1001
0000
0000
0000
1100
0000
0000
0000
0100
0000
0000
0010
0000
0000
,  // measure 17
0010
0000
0010
0000
0001
1000
0010
0100
0010
0000
0100
0000
0100
0000
0100
0000
,  // measure 18
0001
0100
0010
0001
1000
0100
0010
0000
0000
1000
0000
0000
,  // measure 19
0001
0000
0000
0010
0000
0000
1000
0000
0010
0001
0000
0001
,  // measure 20
0100
0000
0100
0120
0000
1000
0000
0000
0001
0000
0000
0230
,  // measure 21
0000
0000
0000
0301
0000
1000
0100
0000
0010
0000
0001
0000
,  // measure 22
1000
0010
0100
0001
0010
0100
2000
0000
0000
0100
0000
0000
,  // measure 23
0001
0010
3020
0130
,  // measure 24
0001
0000
1000
0001
0100
0010
2000
0000
0000
0000
3100
0000
0010
0000
0012
0000
,  // measure 25
0000
0103
0010
2010
0000
0000
3001
0100
,  // measure 26
0010
1000
0001
1000
0100
0000
1000
0000
0010
0000
0011
0000
0001
0000
0100
0000
,  // measure 27
1100
0000
1000
0000
0010
0000
0012
0000
0000
0003
1000
0000
0001
1000
0100
0010
,  // measure 28
0001
1000
0100
0101
0001
0010
1010
1000
,  // measure 29
0100
0000
0102
0000
0000
0000
1003
0000
0010
0100
0001
1000
0100
0000
1000
0000
,  // measure 30
0010
0011
0001
0010
1010
1000
0100
0102
,  // measure 31
0000
0000
1003
0000
0010
0100
0001
1000
0010
0000
0000
0000
0000
0000
0000
0000
,  // measure 32
0000
0000
0000
0000
0000
0000
0000
0000
0100
0001
1000
0100
0010
0000
0100
1000
,  // measure 33
0001
0100
0010
0000
1000
0010
0100
0001
2000
0000
0000
0000
0010
0000
0000
0000
,  // measure 34
0001
0000
3100
0000
0001
0100
1000
0001
,  // measure 35
0100
1000
0001
0020
0000
1030
0001
0010
,  // measure 36
1000
0010
0001
1000
0010
0100
0001
0201
,  // measure 37
0000
0000
0310
1000
0001
0000
2001
0000
0000
0000
3100
0010
0100
1000
0001
0100
,  // measure 38
1000
0000
0100
0000
0001
0000
1000
0000
0000
0000
0000
0000
1100
0000
0000
1000
0000
0000
0010
0000
0000
0011
0000
0000
,  // measure 39
0001
0010
1010
1000
0100
0101
0001
0100
,  // measure 40
1100
0000
0000
0000
0000
0000
0000
0000
1001
0000
0000
0000
0000
0000
0000
0000
0101
0000
0000
0000
0000
0000
0000
0000
0000
0000
0000
0000
0000
0000
0100
0000
0000
0010
0000
0000
2000
0000
0000
0000
0000
0000
0000
0000
0000
0000
0000
0000
,  // measure 41
3200
0000
0000
0000
0301
0000
0100
0010
0001
0000
1000
0001
0010
0100
1000
0000
,  // measure 42
0000
0000
1010
0000
0000
0000
0012
0000
0000
0000
1003
0010
0100
0000
0010
0000
,  // measure 43
1000
1002
0000
1003
0010
0001
0010
0200
,  // measure 44
0000
0301
1000
1200
0000
0310
0001
0100
,  // measure 45
1000
0100
0010
2010
0000
0001
0000
0100
,  // measure 46
0000
0000
0000
3001
0000
0000
0000
0000
0000
0000
0000
0000
2001
0000
0000
0000
0000
0000
3010
0000
0001
0000
0010
0000
,  // measure 47
0200
0000
0000
0301
0010
0100
0002
0000
0000
0103
1000
0001
,  // measure 48
0100
0000
0101
0000
0110
0000
1002
0000
0000
0013
1000
0010
,  // measure 49
0200
0000
0000
1300
0010
0100
2000
0000
0000
3100
0001
1000
,  // measure 50
0100
0001
0100
0010
0001
1000
0010
0100
0010
0100
0001
0010
,  // measure 51
1000
0001
1000
0001
0100
1000
0010
0100
0010
0100
0001
1000
,  // measure 52
0100
0010
0001
1000
0010
0100
2000
0000
0000
0000
3100
0000
0001
0000
1000
0000
,  // measure 53
0001
0100
0010
1000
0001
0000
1000
0000
0100
0000
0010
0000
0001
0000
1000
0010
,  // measure 54
0100
0001
1000
0100
0010
0000
0012
0000
0000
0000
1003
0000
0010
0000
1000
0000
,  // measure 55
0001
0000
0000
0010
0000
0000
0100
0000
0000
1000
0000
0000
0001
0000
0000
0000
0000
0000
1000
0000
0000
0010
0000
0000
0100
0000
0000
0000
0010
0000
0000
0000
0001
0000
0000
0000
1000
0000
0000
0000
0100
0000
0000
0000
0010
0000
0000
0000
,  // measure 56
1000
0001
0010
0100
1000
0001
0100
0000
0120
0000
0000
0000
1030
0000
0001
0000
,  // measure 57
0010
0100
1000
0001
0100
0000
0010
0000
2010
0000
0000
0000
3001
0000
1000
0100
,  // measure 58
0010
0100
0001
0000
0201
0000
0000
0000
0310
0000
0001
0000
1000
0010
0100
0001
,  // measure 59
0010
0100
1000
0100
0020
0000
0000
0000
0000
0000
0000
0000
0031
1000
0001
0100
,  // measure 60
0010
0100
1000
0100
0001
0000
0000
0000
0000
0000
0000
0000
0000
0000
0000
0000
,  // measure 61
1000
0100
0010
0001
1000
0010
0000
0000
0000
0000
0000
0000
,  // measure 62
0100
0001
1000
0100
0010
0001
1000
0010
0100
0000
0000
0000
,  // measure 63
0000
0000
0000
0001
1000
0100
0001
1000
0010
0100
1000
0001
,  // measure 64
0100
0010
1000
0100
0000
0000
0000
0000
0000
0010
0001
1000
,  // measure 65
0010
0100
0001
0010
0000
0000
0000
0000
0000
0100
1000
0001
,  // measure 66
0100
0010
1000
0100
0000
0000
0010
0001
0010
0100
1000
0010
,  // measure 67
0100
0000
0000
0001
0100
0010
1000
0100
0010
0001
0000
0000
,  // measure 68
0010
1000
0010
0100
0001
0100
1000
0000
0000
0002
0000
0000
,  // measure 69
0203
0000
0320
0000
2030
0000
0000
0001
,  // measure 70
0000
3200
0000
0001
,  // measure 71
0010
1000
0010
2300
,  // measure 72
3002
0000
0203
0000
0320
0000
1030
0002
,  // measure 73
0010
1000
0100
0000
,  // measure 74
0000
0000
0000
0000
,  // measure 75
0000
0000
0000
0000
0000
0000
0000
0000
1003
0010
0100
0001
1000
0100
0010
0000
,  // measure 76
0001
0100
0010
1000
0100
0010
0001
0000
1000
0010
0100
0001
1000
0100
0010
0100
,  // measure 77
0001
0100
1000
0001
0100
0010
1000
0001
0020
0000
0000
0000
0000
0000
0000
0000
,  // measure 78
0100
0000
1000
0000
,  // measure 79
0031
1000
0001
1000
0010
0100
0010
0100
0000
0000
0000
0000
0001
0000
2001
0000
,  // measure 80
0000
3001
0100
0120
0000
1030
0001
0010
,  // measure 81
0110
0000
0000
0000
0000
0000
0000
0000
1100
0000
0000
0000
0000
0000
0000
0000
1001
0000
0000
0000
0000
0000
0000
0000
0001
0000
0000
0100
0000
0000
0010
0000
0000
1000
0000
0000
0001
0000
0000
0000
0000
0000
0021
0000
0000
0000
0000
0000
,  // measure 82
0000
0000
0130
0000
1000
0000
1002
0000
0000
0000
0103
0000
0001
0100
0010
0100
,  // measure 83
1000
0000
0000
0000
0100
0000
0000
0000
0001
0000
0000
0000
1000
0000
0000
0100
0000
0000
0010
0000
0000
0001
0000
0000
1000
0000
0000
0000
0000
0000
0001
0000
0000
0000
0000
0000
0100
0000
0000
0000
0000
0000
1100
0000
0000
0000
0000
0000
,  // measure 84
1000
0010
0011
0001
0010
1010
1000
0100
,  // measure 85
0101
0000
0000
0000
0000
0000
0000
0000
1001
0000
0000
0000
0000
0000
0000
0000
1010
0000
0000
0000
0000
0000
0000
0000
0000
0000
0000
0000
0000
0000
0010
0000
0000
0100
0000
0000
0001
0000
0000
0000
0000
0000
1000
0000
0000
0001
0000
0000
,  // measure 86
0010
0001
1000
0001
0010
0000
0100
1000
0001
0100
0010
1000
0001
0000
0101
0000
,  // measure 87
0000
0000
1100
0000
0000
0000
1002
0000
0000
0000
0103
0010
1000
0001
0010
0100
,  // measure 88
1000
0100
0010
0001
1000
0010
0100
0000
1000
0000
0100
0000
0001
0000
1000
0000
,  // measure 89
0100
0001
1000
0020
0000
0031
1000
0010
,  // measure 90
0001
0000
0010
0000
0100
0001
1000
0100
0010
0000
0001
0000
1000
0000
1020
0000
,  // measure 91
0000
0000
0130
0000
0001
0000
0021
0000
0000
0000
0130
0000
1000
0100
0010
0001
,  // measure 92
1000
0000
0020
0000
0000
0000
1030
0001
0100
0000
0001
0000
0100
0000
1100
0000
,  // measure 93
0001
0010
1010
0001
0100
1100
0001
0100
,  // measure 94
1100
0000
0000
1001
0000
0000
0000
0000
0000
0201
0000
0000
0000
0000
0000
0310
0000
0000
0001
0000
1000
0000
0100
0000
,  // measure 95
0001
0000
0000
0000
1000
0000
0000
0000
0100
0000
0000
0000
0010
0000
0000
0000
0000
0000
0012
0000
0000
0000
0000
0000
0000
0000
0000
0000
0000
0000
1003
0000
0000
0000
0000
0000
0001
0000
0000
0100
0000
0000
0010
0000
0000
1000
0000
0000
,  // measure 96
0001
0000
1000
0000
0100
0010
0001
0100
0010
0000
1000
0000
0010
0000
0001
0000
,  // measure 97
0010
0100
0001
0020
0000
1030
0001
0100
,  // measure 98
1000
1000
0000
1002
0000
0000
0100
0000
,  // measure 99
0000
0100
0000
0103
,  // measure 100
0001
0000
0000
1000
0000
0000
0010
0000
0000
0100
0000
0000
0001
0000
0000
1000
0000
0000
0100
0000
0000
0010
0000
0000
0001
0000
0000
0000
1000
0000
0000
0000
0010
0000
0000
0000
0001
0000
0000
0000
0010
0000
0000
0000
0100
0000
0000
0000
,  // measure 101
0002
0000
0000
0000
0000
0000
0000
0000
0000
0000
0000
0000
1003
0000
0000
0000
0100
0000
0000
0000
0001
0000
0000
0000
1000
0000
0000
0000
0010
0000
0000
0000
0100
0000
0000
0000
1000
0000
0000
0001
0000
0000
0100
0000
0000
0010
0000
0000
,  // measure 102
1000
0001
0010
0100
0001
1000
0020
0001
0031
2000
0010
3010
,  // measure 103
0100
0001
1000
2002
0000
0000
3003
0000
0000
0000
0000
0000
;

//---------------dance-single - ----------------
#NOTEDATA:;
#CHARTNAME:;
#STEPSTYPE:dance-single;
#DESCRIPTION:;
#CHARTSTYLE:;
#DIFFICULTY:Easy;
#METER:13;
#RADARVALUES:0.521067,0.834040,0.296887,0.576809,0.156926,430.000000,395.000000,35.000000,68.000000,0.000000,0.000000,0.000000,0.000000,0.000000,0.521067,0.834040,0.296887,0.576809,0.156926,430.000000,395.000000,35.000000,68.000000,0.000000,0.000000,0.000000,0.000000,0.000000;
#CREDIT:Kekkle;
#NOTES:
0000
0000
0000
0000
,
0000
0000
0000
0000
,
0000
0000
0000
0000
,
1001
0000
1000
0100
0010
0001
1000
0000
,
0020
0000
0130
0001
1000
0100
0010
0002
,
0000
0000
1003
0010
0100
0010
1000
0001
,
2000
3200
0302
0203
,
1300
0000
0010
0100
0010
1000
0001
0000
,
2000
0000
3001
0100
0010
1000
0002
0000
,
0013
0100
1000
0100
0010
0001
2000
0000
,
0000
0000
0000
3001
,
0100
0010
0100
1000
,
0100
0000
0010
1000
0001
0000
0020
0000
,
0000
0100
0000
0100
0000
0130
0000
0000
,
1000
0000
0001
0010
0100
0000
2000
0000
,
0000
3002
0000
0000
0103
0010
0000
1000
,
0000
0000
0000
0001
0000
0000
0010
0000
0000
0000
0100
0000
0000
0000
0010
0000
0000
0000
0002
0000
0000
0000
0000
0000
,
0000
0103
0000
0001
2000
0000
0000
3100
,
0000
1000
0000
0001
0000
0000
0100
0000
,
1000
0000
0000
0100
0000
0000
0001
0000
0000
0010
0000
0010
,
0100
0000
0000
1000
0000
0001
0000
0000
0100
0000
0000
0020
,
0000
0000
0000
1030
0000
0001
1000
0000
0001
0000
0010
0000
,
0100
0000
0010
0000
0100
0000
0010
0000
0000
0001
0000
0000
,
1000
0010
0001
0010
,
1000
0000
0001
0010
0000
0100
1000
0001
,
0000
1000
0010
0200
0000
0000
0310
0000
,
1000
0001
1000
0000
0000
1010
0000
0000
,
0101
0000
0000
1001
0000
0000
0001
1000
,
0100
0000
0000
1100
0000
0000
0011
0000
,
0000
1001
0000
0000
1000
0010
0100
0000
,
0000
0101
0000
0000
1010
0000
0000
1001
,
0000
0000
0001
1000
0100
0000
0000
0000
,
0000
0000
0000
0000
0020
0000
0000
0032
,
0000
1003
2002
0000
,
0000
0000
3003
0000
0001
0000
0100
0010
,
0000
1000
0010
0200
0000
0000
0301
0000
,
1000
0000
0100
0000
0001
0000
0100
2000
,
0000
3010
0100
0002
0000
1003
0100
0010
,
0001
1000
0010
0000
1010
0000
0000
1001
,
0000
0000
0011
0000
0000
1001
0000
0000
,
1000
0000
0001
0000
0100
0000
0000
0000
0000
0020
0000
0000
,
2030
0000
3002
0000
0013
0000
0000
0110
,
0000
0110
0000
1001
0000
0000
0002
0000
,
0000
1003
0000
0000
0200
0000
0000
0310
,
0000
0001
1000
0020
0000
0000
1030
0000
,
0001
0010
0000
1000
0000
0010
0000
0001
,
0000
0200
0000
0000
0310
0000
1000
0000
,
1001
0001
1001
1000
,
0010
0000
0100
0000
0010
0000
0100
0000
0000
0001
0000
0000
,
1001
1000
1001
0001
,
0010
0000
0100
0000
0010
0000
0100
0000
1000
0000
0001
0000
,
0100
0000
0001
0000
1000
0000
0001
0000
0010
0000
0100
0000
,
0010
0100
1000
0002
0000
0000
1003
0100
,
0010
0001
1000
0000
0001
0100
0010
1000
,
0001
1000
0100
0020
0000
0000
0031
1000
,
0010
0100
0001
0000
2000
0000
3200
0000
,
0302
0000
0203
0000
1300
0000
0001
0100
,
0010
1000
0001
0000
1000
0100
0010
0001
,
1000
0001
0200
0000
0310
1000
0001
0010
,
0001
1000
0020
0000
0000
0000
0000
0000
,
0030
1002
0000
0000
,
0000
0000
0000
0000
,
0000
2003
0000
0000
,
0000
0000
0000
0000
,
0000
3020
0000
0000
,
0000
0000
0000
0000
,
0000
0230
0000
0000
,
0001
0000
0000
0001
,
0000
0000
0302
0000
,
0000
0000
0000
0000
1003
0000
0000
0001
,
0000
0020
0000
0130
,
1000
0001
0100
0010
,
1000
0001
0010
0100
,
1000
0001
0200
0000
,
0000
0000
0000
0000
,
0000
0000
0300
0000
,
0000
0000
0000
0000
,
0000
0000
2001
0000
,
0100
0000
0001
0000
,
0010
0000
0000
0000
3000
0000
0000
0110
,
0000
0000
0000
1002
0000
0000
0000
0000
,
0013
0000
0000
0000
0100
0000
0000
0000
1000
0000
0000
0000
0010
0000
0000
0000
0000
0000
0000
0000
0000
0110
0000
0000
,
0000
0000
0000
2001
0000
0000
0000
0000
,
3100
0010
0001
1000
0010
0000
0000
0101
,
0000
0000
1100
0000
0000
0011
0000
0000
,
0001
0000
1000
0000
0010
0000
0000
0000
0000
0200
0000
0000
,
0301
1000
0100
0010
0001
1000
0010
0100
,
0000
0010
0000
0010
0000
0000
2000
0000
,
3002
0000
0023
0000
0130
0000
1000
0001
,
0000
0100
0001
2000
0000
0000
3010
0000
,
0100
0000
0001
1000
0100
0000
0000
0220
,
0000
0330
0000
2002
0000
0000
3003
0000
,
0001
0200
0000
0310
1000
0100
0010
0001
,
0100
0010
1000
0010
0100
0001
0010
0100
,
1000
1000
0000
1002
0000
0000
0103
0000
,
0001
0010
0000
2000
0000
3020
0000
0032
,
0000
2003
0000
0000
3001
0100
0010
1000
,
0100
0010
0000
0002
0000
1003
0010
0100
,
0001
0001
0000
2001
0000
0000
0100
0000
,
0000
0100
0000
3100
,
0020
0000
0000
0000
0000
0000
0031
0000
0001
1000
0000
1000
,
0020
0000
0000
0000
0000
0000
0130
0000
0000
0000
0100
0000
0001
0000
0000
1000
0000
0000
0100
0000
0000
0010
0000
0000
,
0001
0000
0001
0010
0000
0010
0100
0000
0100
1000
0001
1000
,
0001
1000
0001
2000
0000
0000
3000
0000
0000
0000
0000
0000
;
