#VERSION:0.83;
#TITLE:制服のマネキン;
#SUBTITLE:;
#ARTIST:乃木坂46;
#TITLETRANSLIT:Seifuku no Mannequin;
#SUBTITLETRANSLIT:;
#ARTISTTRANSLIT:Nogizaka46;
#GENRE:J-POP;
#ORIGIN:;
#CREDIT:;
#BANNER:Seifuku no Mannequin.png;
#BACKGROUND:Seifuku no Mannequin-bg.png;
#PREVIEWVID:;
#JACKET:SEIFUKU NO MANNEQUIN-jacket.png;
#CDIMAGE:;
#DISCIMAGE:;
#LYRICSPATH:;
#CDTITLE:cdtitle.png;
#MUSIC:Seifuku no Mannequin.ogg;
#OFFSET:-2.085000;
#SAMPLESTART:61.141998;
#SAMPLELENGTH:15.000000;
#SELECTABLE:YES;
#BPMS:0.000=130.000;
#STOPS:;
#DELAYS:;
#WARPS:;
#TIMESIGNATURES:0.000=4=4;
#TICKCOUNTS:0.000=4;
#COMBOS:0.000=1;
#SPEEDS:0.000=1.000=0.000=0;
#SCROLLS:0.000=1.000;
#FAKES:;
#LABELS:0.000=Song Start;
#BGCHANGES:-4.500=Seifuku no Mannequin.avi=1.000=0=0=0=StretchNoLoop==CrossFade_Fastest==,
99999=-nosongbg-=1.000=0=0=0 // don't automatically add -songbackground-
;
#KEYSOUNDS:;
#ATTACKS:
;

//---------------dance-single - ----------------
#NOTEDATA:;
#CHARTNAME:;
#STEPSTYPE:dance-single;
#DESCRIPTION:;
#CHARTSTYLE:;
#DIFFICULTY:Beginner;
#METER:2;
#RADARVALUES:0.124977,0.146367,0.000000,0.042060,0.000000,104.000000,104.000000,0.000000,5.000000,0.000000,0.000000,0.000000,0.000000,0.000000,0.124977,0.146367,0.000000,0.042060,0.000000,104.000000,104.000000,0.000000,5.000000,0.000000,0.000000,0.000000,0.000000,0.000000;
#CREDIT:;
#NOTES:
0000
0000
0000
0000
,
0000
0000
0000
0000
,
0000
0000
0000
0000
,
0000
0000
0000
0000
,
1000
0000
1000
0000
,
0001
0000
0001
0000
,
0010
0000
0010
0000
,
0100
0000
0100
0000
,
1000
0000
0010
0000
,
1000
0000
1000
0000
,
0001
0000
0100
0000
,
0001
0000
0001
0000
,
1000
0000
0100
0000
,
0010
0000
0001
0000
,
1000
0000
0010
0000
,
0100
0000
0100
0000
,
0001
0000
0010
0000
,
0001
0000
0001
0000
,
1000
0000
0100
0000
,
1000
0000
1000
0000
,
0001
0000
0100
0000
,
0010
0000
1000
0000
,
0001
0000
0010
0000
,
0100
0000
0100
0000
,
1000
0000
0001
0000
,
0100
0000
0010
0000
,
0010
0000
1000
0000
,
0001
0000
0100
0000
,
0010
0000
0010
0000
,
1000
0000
0100
0000
,
0010
0000
0010
0000
,
0100
0000
1000
1000
,
0000
0001
0000
1000
,
0000
1000
0000
0001
,
0000
0010
0000
0100
,
0000
1000
1000
0000
,
2000
0000
3000
0000
,
0002
0000
0003
0000
,
0010
0000
0100
0000
,
0010
0010
0010
0010
,
0000
0001
0000
1000
,
0000
1000
0000
0001
,
0000
0010
0000
0100
,
0000
0010
0010
0000
,
0002
0000
0003
0000
,
2000
0000
3000
0000
,
0010
0000
0100
0000
,
0010
0010
0010
0000
,
1000
0000
0001
0000
,
0020
0000
0030
0000
,
0001
0000
0001
0000
,
1000
0000
1000
0000
,
0001
0000
0001
0000
,
0100
0000
0010
0000
,
1000
0000
0000
0000
,
0001
0000
0000
0000
,
0100
0000
0000
0000
,
0010
0000
0000
0000
,
0010
0000
0000
0000
;

//---------------dance-single - ----------------
#NOTEDATA:;
#CHARTNAME:;
#STEPSTYPE:dance-single;
#DESCRIPTION:;
#CHARTSTYLE:;
#DIFFICULTY:Easy;
#METER:4;
#RADARVALUES:0.176650,0.198521,0.000000,0.109355,0.000000,147.000000,147.000000,0.000000,13.000000,0.000000,0.000000,0.000000,0.000000,0.000000,0.176650,0.198521,0.000000,0.109355,0.000000,147.000000,147.000000,0.000000,13.000000,0.000000,0.000000,0.000000,0.000000,0.000000;
#CREDIT:;
#NOTES:
0000
0000
0000
0000
,
0000
0000
0000
0000
,
0000
0000
0000
0000
,
0000
0000
0000
0000
,
1000
0010
0100
0000
,
0001
0100
0010
0000
,
1000
0100
0010
0000
,
0001
0010
0100
0000
,
1000
0000
0010
0000
,
0100
0001
1000
0000
,
0001
0000
0100
0000
,
0010
1000
0001
0000
,
1000
0100
0010
0000
,
0001
0010
0100
0000
,
1000
1000
0001
0001
,
0100
0000
0010
1000
,
0001
0000
0010
0000
,
0100
1000
0001
0000
,
1000
0000
0100
0000
,
0010
0001
1000
0000
,
0001
0100
0010
0000
,
1000
0010
0100
0000
,
0001
0001
1000
1000
,
0100
0000
0010
0001
,
1000
0001
0100
0000
,
0001
1000
0100
0000
,
0010
0000
0001
0000
,
1000
0010
0100
0001
,
2000
3000
0001
0000
,
0001
0010
0100
1000
,
0002
0003
1000
0000
,
1000
0010
0100
0001
,
1000
0001
0000
1000
,
0001
1000
0000
0001
,
0010
0100
0000
0010
,
0001
1000
0010
0000
,
2000
3000
0001
0000
,
0002
0003
1000
0000
,
0010
0010
0100
0100
,
0002
0003
1000
0000
,
1000
0001
0000
1000
,
0001
1000
0000
0001
,
0010
0100
0000
0010
,
0100
1000
0001
0000
,
0002
0003
1000
0000
,
2000
3000
0001
0000
,
0010
0010
0100
0100
,
2000
3000
0001
0000
,
1000
0000
0010
0000
,
0200
0000
0000
0300
,
0001
0010
0100
0000
,
1000
0100
0010
0000
,
0001
0100
0010
0000
,
1000
0010
0100
0000
,
0002
0000
0003
0000
,
2000
0000
3000
0000
,
0200
0000
0300
0000
,
0010
0000
0010
0000
,
0200
0000
0000
0000
,
0300
0000
0000
0000
;

//---------------dance-single - ----------------
#NOTEDATA:;
#CHARTNAME:;
#STEPSTYPE:dance-single;
#DESCRIPTION:;
#CHARTSTYLE:;
#DIFFICULTY:Medium;
#METER:7;
#RADARVALUES:0.314846,0.378536,0.336477,0.403772,0.000000,262.000000,222.000000,40.000000,48.000000,0.000000,0.000000,0.000000,0.000000,0.000000,0.314846,0.378536,0.336477,0.403772,0.000000,262.000000,222.000000,40.000000,48.000000,0.000000,0.000000,0.000000,0.000000,0.000000;
#CREDIT:;
#NOTES:
0000
0000
0000
0000
,
0000
0000
0000
0000
,
0000
0000
0000
0000
,
0000
0000
0000
0000
,
1000
0000
1010
0000
0100
0001
1000
0000
,
0100
0000
0110
0000
0001
1000
0100
1000
,
0001
0000
0011
0000
0100
1000
0001
0000
,
0100
0110
1000
1001
,
0001
0000
1000
0000
0010
0100
0010
0000
,
1000
0000
0100
0010
0002
0000
1003
0000
,
0001
0000
1000
0000
0100
0010
0100
0000
,
1000
0010
0100
0000
0002
0000
0013
0000
,
0100
1000
0100
0000
2000
0000
3010
0000
,
0100
0001
0100
0000
0002
0000
1003
0000
,
0001
0010
1000
0100
,
0002
0000
1003
0000
0100
0010
0100
0000
,
1000
0000
0001
0000
0010
0100
0010
0000
,
0001
0000
0100
0010
2000
0000
3001
0000
,
1000
0000
0001
0000
0100
0010
0100
0000
,
0001
0010
0100
0000
2000
0000
3010
0000
,
0100
0001
0100
0000
0002
0000
0013
0000
,
0100
1000
0100
0000
2000
0000
3001
0000
,
1000
0010
0001
0100
,
2000
0000
3001
0000
0100
0010
0100
0000
,
0001
0000
1000
0010
0200
0000
0301
0000
,
1000
0000
0001
0010
0200
0000
1300
0000
,
0020
0100
0130
0001
,
1000
0100
1000
0000
0001
0010
0001
0000
,
2000
0001
3001
1000
,
0001
0100
0001
0000
1000
0010
1000
0000
,
0002
1000
1003
0001
,
0200
0320
2030
3001
,
1100
0011
0001
1000
,
0101
1010
1000
0001
,
0110
0000
1001
0000
0100
0010
0100
0000
,
1001
0110
2002
3003
,
1100
0011
2002
3003
,
0101
1010
2002
3003
,
0002
0103
2000
3100
,
0002
0000
2000
3003
,
0011
1100
1000
0001
,
1010
0101
0001
1000
,
0110
0000
1001
0000
0010
0100
0010
0000
,
1001
0110
2002
3003
,
2200
3000
0020
0330
,
0202
0003
0020
0330
,
1000
1000
0001
0001
,
0100
0010
0220
0330
,
2002
3003
0220
0330
,
2002
0000
0000
3003
,
0001
0000
0011
0000
0100
1000
0001
0000
,
0100
0000
0110
0000
1000
0001
0100
0001
,
1000
0000
1010
0000
0100
0001
1000
0000
,
0100
0110
0001
1001
,
2000
0000
3000
0000
,
0020
0000
0030
0000
,
0200
0000
0300
0000
,
0001
0001
1000
1000
,
0200
0000
0000
0000
,
0000
0000
0000
0000
,
0300
0000
0000
0000
;

//---------------dance-single - ----------------
#NOTEDATA:;
#CHARTNAME:;
#STEPSTYPE:dance-single;
#DESCRIPTION:;
#CHARTSTYLE:;
#DIFFICULTY:Hard;
#METER:10;
#RADARVALUES:0.394158,0.403772,0.386948,0.294417,0.071501,328.000000,282.000000,46.000000,35.000000,0.000000,0.000000,0.000000,0.000000,0.000000,0.394158,0.403772,0.386948,0.294417,0.071501,328.000000,282.000000,46.000000,35.000000,0.000000,0.000000,0.000000,0.000000,0.000000;
#CREDIT:;
#NOTES:
0000
0000
0000
0000
,
0000
0000
0000
0000
,
0000
0000
0000
0000
,
0000
0000
0000
0000
,
1010
0000
0101
0000
0010
1000
0100
0000
,
0011
0000
1100
0000
0010
0001
0100
0000
,
0110
0000
1001
0000
0001
0100
1000
0000
,
0100
0000
0000
0010
0000
0000
0100
0000
0000
0001
0000
0000
0010
0000
0100
0000
,
1000
0001
0100
0000
0001
1000
0010
0000
,
1000
0100
0001
0100
0020
0000
0031
0000
,
1000
0001
0010
0000
0001
1000
0100
0000
,
1000
0010
0001
0010
0200
0000
0301
0010
,
1000
0010
0001
0100
2000
0000
3001
0010
,
1000
0100
0001
0100
2000
0000
3001
0000
,
1000
0000
0000
0010
0000
0000
0001
0000
0000
0010
0000
0000
1000
0000
0200
0000
,
0001
0000
0310
0000
0001
0100
0010
1000
,
0001
1000
0100
0000
1000
0001
0010
0000
,
0001
0100
1000
0100
0020
0000
1030
0000
,
0001
1000
0010
0000
1000
0001
0100
0000
,
0001
0010
1000
0010
0200
0000
1300
0010
,
0001
0010
1000
0100
0002
0000
1003
0010
,
0001
0100
1000
0100
0002
0000
1003
0000
,
0001
0000
0000
0010
0000
0000
1000
0000
0000
0010
0000
0000
0001
0000
0200
0000
,
1000
0000
0310
0000
1000
0100
0010
0001
,
1000
0010
0100
0010
0002
0000
0013
1000
,
0001
0010
0100
0010
2000
0000
3010
0001
,
0200
0000
1000
0000
0010
0000
0301
1000
,
0100
0000
0000
1000
0000
0000
0001
0000
0000
0100
0000
0000
0001
0000
0020
0000
,
1000
0000
0100
0000
0031
0000
1000
0001
,
0100
0000
0000
0001
0000
0000
1000
0000
0000
0100
0000
0000
1000
0000
0020
0000
,
0001
0000
0100
0000
1030
0000
0100
0010
,
0002
0100
1003
1001
,
1100
0000
0011
0000
0100
1000
0010
0000
,
0101
0000
1010
0000
0100
0001
0010
0000
,
0110
0000
1001
0000
0010
0100
1001
0000
,
1000
0100
0001
0010
2000
0000
3001
0000
,
1100
0011
2001
3010
,
0101
1010
1002
0013
,
1100
1010
0101
0011
,
0100
1000
0010
0100
0002
0000
1003
0000
,
0011
0000
1100
0000
0010
0001
0100
0000
,
1010
0000
0101
0000
0010
1000
0100
0000
,
0110
0000
1001
0000
0100
0010
1001
0000
,
0001
1000
0010
0100
0002
0000
1003
0000
,
1200
0000
0001
0000
0010
0000
1300
0001
,
0200
0000
1000
0000
0010
0000
0301
1000
,
1100
0011
0101
1010
,
1000
0100
0010
0001
0200
0000
0310
0000
,
2002
3003
0220
0330
,
2002
0000
0000
3003
,
0011
0000
1100
0000
0010
0001
0100
0000
,
1010
0000
0101
0000
0010
1000
0100
0000
,
0110
0000
1001
0000
1000
0100
0001
0000
,
0100
0000
0000
0010
0000
0000
0100
0000
0000
1000
0000
0000
0010
0000
0100
0000
,
0002
0000
0000
0000
0000
0000
0000
0013
0000
0000
0000
0000
0000
0000
0000
0000
,
2000
0000
0000
0000
0000
0000
0000
3010
0000
0000
0000
0000
0000
0000
0000
0000
,
0002
0000
0000
0000
0000
0000
0000
1003
0000
0000
0000
0000
0000
0000
0000
0000
,
0001
0000
0000
0100
0000
0000
0010
0000
0000
1000
0000
0000
0001
0000
0000
0000
,
2002
0000
0000
0000
,
0000
0000
0000
0000
,
3003
0000
0000
0000
;

//---------------dance-single - ----------------
#NOTEDATA:;
#CHARTNAME:;
#STEPSTYPE:dance-single;
#DESCRIPTION:;
#CHARTSTYLE:;
#DIFFICULTY:Challenge;
#METER:13;
#RADARVALUES:0.510723,0.555186,0.117767,0.529951,0.630894,425.000000,411.000000,14.000000,63.000000,0.000000,0.000000,0.000000,0.000000,0.000000,0.510723,0.555186,0.117767,0.529951,0.630894,425.000000,411.000000,14.000000,63.000000,0.000000,0.000000,0.000000,0.000000,0.000000;
#CREDIT:;
#NOTES:
// measure 0
0000
0000
0000
0000
,  // measure 1
0000
0000
0000
0000
,  // measure 2
0000
0000
0000
0000
,  // measure 3
0000
0000
0000
0000
,  // measure 4
1000
0000
0010
0100
0000
0010
0000
0002
0000
0000
0013
0000
2000
0000
0000
0000
,  // measure 5
3100
0000
0010
0001
0000
1000
0000
0001
0100
0000
0010
0000
2000
0000
0000
0000
,  // measure 6
3001
0000
0010
0100
0000
0010
0000
2000
0000
0000
3010
0000
0002
0000
0000
0000
,  // measure 7
2003
0000
0000
3100
0000
0000
0002
0000
0000
0103
0000
0000
0010
0000
0100
0000
,  // measure 8
1000
0000
0010
0000
0001
0010
0000
0200
0000
0000
0301
0000
0010
0000
1000
0000
,  // measure 9
0010
0000
0100
0010
0000
0001
0000
0200
0000
0000
1000
0000
0000
0310
0000
0000
,  // measure 10
1000
0000
0100
0000
0001
0100
0000
0020
0000
0000
0031
0000
0100
0000
1000
0000
,  // measure 11
0100
0000
0010
0100
0000
0001
0000
0020
0000
0000
1030
0000
0010
0000
0001
0000
,  // measure 12
1000
0000
0001
0100
0000
0020
0000
0001
0000
0000
1030
0000
0100
0000
0010
0000
,  // measure 13
0001
0000
1000
0010
0000
0200
0000
1000
0000
0000
0301
0000
1000
0001
0000
1000
,  // measure 14
0100
0000
0000
0110
0000
0000
0001
0000
0000
0101
0000
0000
0010
0000
1000
0002
,  // measure 15
1000
0000
0000
0000
0013
0000
0000
0100
1000
0000
0010
0000
0100
0001
0100
0000
,  // measure 16
0001
0000
0010
0000
1000
0010
0000
0200
0000
0000
1300
0000
0010
0000
0001
0000
,  // measure 17
0010
0000
0100
0010
0000
1000
0000
0200
0000
0000
0001
0000
0000
0310
0000
0000
,  // measure 18
0001
0000
0100
0000
1000
0100
0000
0020
0000
0000
1030
0000
0100
0000
0001
0000
,  // measure 19
0100
0000
0010
0100
0000
1000
0000
0020
0000
0000
0031
0000
0010
0000
1000
0000
,  // measure 20
0001
0000
1000
0100
0000
0020
0000
1000
0000
0000
0031
0000
0100
0000
0010
0000
,  // measure 21
1000
0000
0001
0010
0000
0200
0000
0001
0000
0000
1300
0000
0001
1000
0000
0001
,  // measure 22
0100
0000
0000
0110
0000
0000
1000
0000
0000
1100
0000
0000
0010
0000
0001
2000
,  // measure 23
0001
0000
0000
0000
3010
0000
0000
0100
0001
0000
0010
0000
0100
1000
0100
0000
,  // measure 24
1000
0000
0010
0001
0000
0010
0000
0100
0001
0000
1000
0001
2000
0000
0000
0000
,  // measure 25
3001
0000
0010
1000
0000
0010
0000
0100
1000
0000
0010
0000
0100
0000
0001
0000
,  // measure 26
0020
0000
1000
0000
0031
0100
0010
1000
,  // measure 27
1100
0000
0000
0010
0000
0000
0101
0000
0000
0010
0000
0000
1000
0000
0200
0000
,  // measure 28
0001
0000
0000
0000
0010
0000
0000
0000
1300
0000
0000
1000
0010
0000
0100
0000
,  // measure 29
0101
0000
0000
0010
0000
0000
1100
0000
0000
0010
0000
0000
0001
0000
0200
0000
,  // measure 30
1000
0000
0010
0000
0301
1000
0100
0010
,  // measure 31
0001
0000
0100
0010
0000
0100
0010
0000
1000
0000
1100
0000
0000
0011
0000
0000
,  // measure 32
0001
0000
0100
1000
0000
0100
0000
0020
0000
0000
1030
0000
0002
0000
0000
0000
,  // measure 33
1003
0000
0010
0001
0000
0010
0000
0200
0000
0000
0301
0000
2000
0000
0000
0000
,  // measure 34
3001
0000
0010
1000
0000
0010
0000
0100
0010
0000
0001
0000
0100
0000
1000
0000
,  // measure 35
0100
0000
0001
1000
0000
0001
0000
0010
0100
0000
0010
0000
0001
1000
0001
1000
,  // measure 36
0001
0000
0100
0010
0000
0100
0000
2000
0000
0000
3001
0000
0010
0000
1000
0000
,  // measure 37
0001
0000
0010
0100
0000
0010
0000
2000
0000
0000
3001
0000
0100
0000
1000
0000
,  // measure 38
0010
0000
0100
0001
0000
0100
0001
0000
1000
0100
0000
1000
0100
0000
0010
0000
,  // measure 39
0001
0000
0100
0010
0000
1000
0000
0001
1000
0000
0100
0000
0010
0001
1000
0001
,  // measure 40
1000
0000
0100
0001
0000
0100
0000
0020
0000
0000
0031
0000
2000
0000
0000
0000
,  // measure 41
3001
0000
0010
1000
0000
0010
0000
0200
0000
0000
1300
0000
0002
0000
0000
0000
,  // measure 42
1003
0000
0010
0001
0000
0010
0000
0100
0010
0000
1000
0000
0100
0000
0001
0000
,  // measure 43
0100
0000
1000
0001
0000
1000
0000
0010
0100
0000
0010
0000
1000
0001
1000
0001
,  // measure 44
1000
0000
0100
0010
0000
0100
0000
0002
0000
0000
1003
0000
0010
0000
0001
0000
,  // measure 45
1000
0000
0010
0100
0000
0010
0000
0002
0000
0000
1003
0000
0100
0000
0001
0000
,  // measure 46
0010
0000
0100
1000
0000
0100
1000
0000
0001
0100
0000
0001
0100
0000
0010
0000
,  // measure 47
1000
0000
0100
0010
0000
0001
0000
1000
0001
0000
0100
0000
0010
1000
0001
0000
,  // measure 48
0022
0033
2200
3300
,  // measure 49
1000
0000
0010
0100
0000
0010
0000
0100
0001
0000
1000
0000
1001
0000
0000
0000
,  // measure 50
0001
0000
0010
0100
0000
0010
0000
2000
0000
0000
3010
0000
0002
0000
0000
0000
,  // measure 51
0103
0000
0010
1000
0000
0001
0000
1000
0100
0000
0010
0000
0002
0000
0000
0000
,  // measure 52
1003
0000
0010
0100
0000
0010
0000
0002
0000
0000
0013
0000
2000
0000
0000
0000
,  // measure 53
3002
0000
0000
0103
0000
0000
2000
0000
0000
3100
0000
0000
0010
0000
0100
0000
,  // measure 54
0002
0000
0000
0000
0010
0000
0000
0203
0000
0000
0010
0000
0320
0000
0000
0000
,  // measure 55
2030
0000
0000
0000
0010
0000
0000
3200
0000
0000
0010
0000
0320
0000
0000
0000
,  // measure 56
0032
0000
0000
0000
0100
0000
0000
2003
0000
0000
0010
0000
3020
0000
0000
0000
,  // measure 57
0230
0000
0000
0302
0000
0000
0023
0000
0000
0230
0000
0000
1300
0000
0001
0000
,  // measure 58
2002
0000
0000
0000
,  // measure 59
0000
0000
0000
0000
,  // measure 60
3003
0000
0000
0000
;
