#VERSION:0.83;
#TITLE:Second Hand News;
#SUBTITLE:;
#ARTIST:Fleetwood Mac;
#TITLETRANSLIT:;
#SUBTITLETRANSLIT:;
#ARTISTTRANSLIT:;
#GENRE:;
#ORIGIN:;
#CREDIT:;
#BANNER:Second Hand News-bn.png;
#BACKGROUND:Second Hand News-bg.png;
#PREVIEWVID:;
#JACKET:Second Hand News-jacket.png;
#CDIMAGE:;
#DISCIMAGE:;
#LYRICSPATH:;
#CDTITLE:;
#MUSIC:Second Hand News.ogg;
#OFFSET:0.000000;
#SAMPLESTART:85.828003;
#SAMPLELENGTH:20.000000;
#SELECTABLE:YES;
#DISPLAYBPM:115.000000:119.000000;
#BPMS:0.000=117.500,
8.000=116.000,
12.000=115.000,
20.000=117.000,
32.000=116.000,
36.000=118.000,
52.000=117.000,
72.000=119.000,
84.000=117.000,
116.000=119.000,
136.000=117.500;
#STOPS:;
#DELAYS:;
#WARPS:;
#TIMESIGNATURES:0.000=4=4;
#TICKCOUNTS:0.000=4;
#COMBOS:0.000=1;
#SPEEDS:0.000=1.000=0.000=0;
#SCROLLS:0.000=1.000;
#FAKES:;
#LABELS:0.000=Song Start;
#BGCHANGES:;
#KEYSOUNDS:;
#ATTACKS:
;

//---------------dance-single - ----------------
#NOTEDATA:;
#CHARTNAME:;
#STEPSTYPE:dance-single;
#DESCRIPTION:;
#CHARTSTYLE:;
#DIFFICULTY:Hard;
#METER:15;
#RADARVALUES:0.681974,0.633418,0.189375,0.268281,0.860076,605.000000,581.000000,24.000000,34.000000,0.000000,0.000000,0.000000,0.000000,0.000000,0.681974,0.633418,0.189375,0.268281,0.860076,605.000000,581.000000,24.000000,34.000000,0.000000,0.000000,0.000000,0.000000,0.000000;
#CREDIT:;
#DISPLAYBPM:115.000000:119.000000;
#NOTES:
0000
0000
0000
0000
,
0000
0000
0000
0000
,
1000
0000
0001
0000
0201
0000
0010
0000
0010
0000
0000
1000
0000
0000
0301
0000
,
1000
0000
0100
0000
0010
0000
0001
0000
0100
0000
0010
1000
0010
0100
0010
1000
,
0001
0000
1000
0000
2100
0000
0001
0000
0001
0000
0000
0100
0000
0000
3010
0000
,
1000
0000
0001
0000
0010
0000
0100
0000
1000
0000
0010
0100
0010
0000
2000
0000
,
3100
0000
2000
0000
3001
0000
0200
0000
0301
0000
0010
0100
1000
0000
0002
0000
,
0103
0000
0020
0000
0130
0000
0002
0000
0013
0000
0100
1000
0001
1000
0010
0000
,
0100
0000
0001
1000
0000
0010
0000
1000
0200
0000
0000
0001
0000
0000
0310
0000
,
0100
0000
0010
0001
0000
0001
1000
0000
0010
0000
0100
0001
0010
0001
1000
0010
,
0100
0000
0001
0000
0021
0000
1000
0000
1000
0000
0000
0001
0000
0000
0130
0000
,
0010
0000
0001
0000
1000
0000
0010
0000
0100
0000
0001
0010
0001
0100
0010
1000
,
0100
0000
1000
0000
1020
0000
0100
0000
0100
0000
0000
0001
0000
0000
1030
0000
,
1001
0000
0100
0000
0010
0000
1000
0100
0000
0100
0010
0000
0001
0000
0200
0000
,
0310
0000
2000
0000
3100
0000
2000
0000
3001
0000
0010
0001
0100
0000
0020
0000
,
0130
0000
0002
0000
0013
0000
0002
0000
1003
0000
0010
0100
0001
0000
0010
0000
,
0100
0000
0010
0001
0000
0001
1000
0010
0200
0000
0000
1000
0000
0000
0301
0000
,
1000
0000
0010
0100
0000
0100
0001
0000
0010
0000
0001
0100
0010
1000
0100
0010
,
0001
0000
0100
0010
0000
0010
1000
0000
1000
0100
0000
0100
0010
0001
1000
0001
,
0000
0001
0100
0000
0100
0010
0000
0010
1000
0000
1000
0001
0000
0001
0100
0010
,
1000
0000
0100
0010
0000
0010
0001
0000
0001
1000
0000
1000
0010
0100
0001
0000
,
1001
0000
0000
0001
0100
0000
0110
0000
0000
0000
0001
0100
0001
1000
0100
1000
,
0000
0010
1000
0000
1000
0001
0000
0001
0010
0000
0010
0100
0000
0100
1000
0010
,
0000
0100
0001
0000
0001
1000
0000
1000
0001
0000
0001
0100
0000
0100
0010
1000
,
0000
0001
1000
0000
1000
0010
0000
0010
0100
0000
0100
0010
0000
0010
1000
0000
,
1100
0000
0000
0010
0100
0000
0101
0000
0000
0000
0001
0010
0001
0010
0001
0010
,
0100
0000
1000
0000
1020
0000
0001
0000
0001
0000
0000
0100
0000
0000
1030
0000
,
0110
0000
0010
0000
0100
0000
0001
0000
0010
0000
0001
1000
0100
1000
0010
0100
,
0010
0000
1000
0000
2100
0000
0010
0000
0010
0000
0000
3100
1000
0000
0001
0100
,
0010
0000
1000
0000
0100
0000
0010
0001
0000
0001
1000
0000
0010
0000
0200
0000
,
0310
0000
0200
0000
0301
0000
2000
0000
3100
0000
1000
0000
0010
0100
0001
0000
,
0010
0000
0100
0010
0000
0001
1000
0000
0010
0000
1000
0001
0020
0000
0000
0000
,
0031
0000
0100
0010
1000
0000
0100
0000
0010
0000
0001
1000
0000
0001
0100
0000
,
0010
0000
1000
0100
0000
0100
0010
0000
0001
0000
1000
0001
0010
0001
0100
0001
,
0010
0000
0001
0000
0102
0000
1000
0000
1000
0000
0000
0013
0000
0001
0100
0010
,
1000
0000
0100
0000
0010
0000
0001
0000
0010
0000
0001
1000
0100
1000
0010
0100
,
0001
0000
1000
0000
1002
0000
0010
0000
0013
0000
0000
0001
0100
0001
1000
0000
,
0001
0000
1000
0100
0000
1000
0010
0000
0100
0000
0001
0010
0001
0000
0200
0000
,
0301
0000
0020
0000
0130
0000
2000
0000
3001
0000
0010
0001
0100
0000
0020
0000
,
0130
0000
2000
0000
3001
0000
0200
0000
0310
0000
0100
0001
0010
0100
1000
0000
,
0010
0000
1000
0001
0000
0010
0000
0100
1000
0000
0000
1100
0000
0000
0011
0000
,
0001
0000
0100
0010
0000
0010
1000
0000
0001
0010
0100
1000
0001
0100
0010
1000
,
0100
0000
0010
0100
0000
0100
0010
0000
0010
0001
0000
0001
1000
0010
1000
0100
,
0000
0100
1000
0000
1000
0001
0000
0001
0100
0000
0100
0010
0000
0010
1000
0100
,
1000
0000
0001
1000
0000
1000
0100
0000
0100
0010
0000
0010
0001
0100
0001
0000
,
0011
0000
0000
1000
0010
0000
1010
0000
0000
0000
0001
0010
0001
1000
0010
1000
,
0000
1000
0100
0000
0100
1000
0000
1000
0001
0000
0001
0100
0000
0100
0010
1000
,
0000
1000
0001
0010
0000
0010
0001
0000
0001
0100
0000
0100
0010
1000
0010
0100
,
0000
0100
0001
0000
0001
0010
0000
0010
0100
0000
0100
1000
0000
1000
0001
0000
,
0101
0000
0000
0100
0010
0000
1010
0000
0000
0000
1000
0100
0001
1000
0010
0001
,
0000
0000
0100
0010
0000
0010
1000
0000
1000
0001
0000
0001
1000
0010
0100
0001
,
0000
0001
0010
0000
0010
0100
0000
0100
1000
0000
1000
0001
0000
0001
1000
0100
,
0000
0100
0010
0000
0010
0001
0000
0001
0100
0000
0100
0010
0000
0010
1000
0000
,
1100
0000
0000
0001
0010
0000
0011
0000
0000
0000
0001
0100
0001
1000
0010
1000
,
0000
1000
0001
0000
0001
0010
0000
0010
0001
0000
0001
0100
0000
0100
0010
1000
,
0000
1000
0100
0010
0000
0010
0100
0000
0100
0010
0000
0010
0001
1000
0001
0100
,
0000
0100
0010
0000
0010
1000
0000
1000
0001
0100
0001
0010
0000
0010
0100
0000
,
1100
0000
0000
1000
0001
0000
1001
0000
0001
0100
0010
1000
0100
0010
0001
1000
,
0001
0000
0010
0001
0000
0001
1000
0000
0010
0000
0100
0010
0000
0010
1000
0000
,
0000
0000
1000
0001
0000
0001
0010
0000
0001
0000
0100
0010
0000
2000
0002
0000
,
0000
0000
0000
0000
,
0000
0000
0000
3003
;

//---------------dance-single - ----------------
#NOTEDATA:;
#CHARTNAME:;
#STEPSTYPE:dance-single;
#DESCRIPTION:;
#CHARTSTYLE:;
#DIFFICULTY:Medium;
#METER:12;
#RADARVALUES:0.419329,0.414158,0.094687,0.394530,0.335351,372.000000,360.000000,12.000000,50.000000,0.000000,0.000000,0.000000,0.000000,0.000000,0.419329,0.414158,0.094687,0.394530,0.335351,372.000000,360.000000,12.000000,50.000000,0.000000,0.000000,0.000000,0.000000,0.000000;
#CREDIT:;
#DISPLAYBPM:115.000000:119.000000;
#NOTES:
0000
0000
0000
0000
,
0000
0000
0000
0000
,
1000
0000
0001
0000
0200
0000
0000
0000
0010
0000
0000
0010
0000
0000
0310
0000
,
1000
0001
0010
0200
0000
1000
1300
0000
,
1000
0000
0001
0000
0020
0000
0000
0000
0100
0000
0000
0100
0000
0000
0130
0000
,
0010
0001
1000
0010
0100
0000
0001
2000
,
0000
3020
0000
0230
0000
0301
1000
0200
,
0000
0320
0000
0032
0000
1003
0001
0010
,
0100
0000
1000
0000
0100
0000
0010
0000
0001
0000
0000
0001
0000
0000
0001
0000
,
1000
0000
0010
0000
1000
0000
0001
0000
0200
0000
0000
0010
0000
0000
0310
0000
,
0100
0000
0001
0000
2000
0000
0000
0000
0100
0000
0000
0100
0000
0000
3100
0000
,
1000
0001
0010
0002
0000
0100
0103
0000
,
0001
0000
0010
0000
0200
0000
0000
0000
1000
0000
0000
1000
0000
0000
1300
0000
,
0100
0100
1000
0001
0100
0000
0010
2000
,
0000
3002
0000
0023
0000
0031
1000
0200
,
0000
2300
0000
3002
0000
0103
0010
1000
,
0001
0000
0010
0000
0001
0000
1000
0000
0100
0000
0000
0100
0000
0000
0100
0000
,
1000
0000
0001
0000
0100
0000
0001
0000
2000
0000
0000
0010
0000
0000
3010
0000
,
1000
0000
0001
0000
0000
0100
0000
0000
0010
0000
0000
1000
0000
0000
0100
0010
,
0000
0000
0001
0000
0000
0100
0000
0000
0001
0000
0000
0010
0000
0000
0100
1000
,
0000
0000
0010
0000
0000
1000
0000
0000
0100
0000
0000
0010
0000
0000
0001
0000
,
1001
0000
0000
1000
0100
0000
0020
0000
0000
0000
0001
0000
0031
1000
0001
1000
,
0000
0000
0100
0000
0000
0010
0000
0000
0001
0000
0000
1000
0000
0000
0001
0100
,
0000
0000
0010
0000
0000
0100
0000
0000
0001
0000
0000
1000
0000
0000
0010
1000
,
0000
0000
0001
0000
0000
1000
0000
0000
0100
0000
0000
1000
0000
0000
0010
0000
,
0110
0000
0000
0100
0001
0000
2000
0000
0000
0000
0010
0000
3010
0000
0000
0000
,
0100
0000
0001
0000
2000
0000
0000
0000
0001
0000
0000
0100
0000
0000
3010
0000
,
1000
0001
0010
0001
0100
0010
1000
0000
,
0001
0000
0100
0000
0020
0000
0000
0000
1000
0000
0000
0100
0000
0000
1030
0000
,
0001
0010
0100
0010
0001
0000
1000
0002
,
0000
0203
0000
0320
0000
1030
0001
0010
,
0002
0000
0000
2003
0000
0000
3200
0000
0000
0000
1300
0000
1010
0000
0000
0000
,
0001
1000
1100
0000
1000
0001
0010
0100
,
0010
0000
0001
0000
1000
0000
0010
0000
0100
0000
0000
0010
0000
0000
1000
0000
,
0001
0000
1000
0000
0200
0000
0000
0000
0001
0000
0000
0010
0000
0000
1300
0000
,
0010
0100
0010
1000
0100
0010
0001
0000
,
1000
0000
0001
0000
0200
0000
0000
0000
1000
0000
0000
0001
0000
0000
0310
0000
,
1000
0000
0000
0001
0000
0000
0010
0000
0000
0000
0001
0000
0100
0000
0020
0000
,
0000
2030
0000
3002
0000
0013
0100
2000
,
0000
3020
0000
0230
0000
0301
1000
0001
,
0010
0000
0100
0000
1000
0000
0010
0000
0100
0000
0000
0001
0000
0000
1000
0000
,
0001
0000
1000
0000
0010
0000
1000
0000
0100
0000
0000
0010
0000
0000
0001
0000
,
1000
0000
0010
0000
0000
1000
0000
0000
0100
0000
0000
0010
0000
0000
0001
0010
,
0000
0000
0001
0000
0000
1000
0000
0000
0100
0000
0000
0010
0000
0000
0100
1000
,
0000
0000
0010
0000
0000
0100
0000
0000
0010
0000
0000
1000
0000
0000
0001
0000
,
0011
0000
0000
0001
1000
0000
0020
0000
0000
0000
0100
0000
0130
0010
0100
0010
,
0000
0000
1000
0000
0000
0001
0000
0000
1000
0000
0000
0100
0000
0000
0010
0001
,
0000
0000
0100
0000
0000
0001
0000
0000
0010
0000
0000
0001
0000
0000
1000
0010
,
0000
0000
1000
0000
0000
0001
0000
0000
0010
0000
0000
0100
0000
0000
1000
0000
,
1010
0000
0000
0100
0010
0000
2000
0000
0000
0000
3001
1000
0001
1000
0001
1000
,
0000
0000
0010
0000
0000
1000
0000
0000
0001
0000
0000
0010
0000
0000
0001
0100
,
0000
0000
0010
0000
0000
1000
0000
0000
0100
0000
0000
0010
0000
0000
0001
1000
,
0000
0000
0010
0000
0000
1000
0000
0000
0001
0000
0000
1000
0000
0000
0100
0000
,
0110
0000
0000
0010
0001
0000
0200
0000
0000
0000
0010
0000
0310
1000
0010
1000
,
0000
0000
1000
0000
0000
0001
0000
0000
0010
0000
0000
0100
0000
0000
1000
0010
,
0000
0000
0100
0000
0000
0001
0000
0000
0010
0000
0000
0001
0000
0000
1000
0100
,
0000
0000
0010
0000
0000
0001
0000
0000
1000
0000
0000
0010
0000
0000
0100
0000
,
0101
0000
0000
0001
1000
0000
0010
0000
0000
0000
0101
0000
0000
1100
0000
0000
,
0000
0000
2001
0000
0000
3020
0000
0000
0230
0000
0000
0302
0000
0000
1003
0000
,
0000
0000
0012
0000
0000
0203
0000
0000
0320
0000
0000
2030
0000
0000
0002
0000
,
0000
0000
0000
0000
,
0000
0000
0000
3003
;

//---------------dance-single - ----------------
#NOTEDATA:;
#CHARTNAME:;
#STEPSTYPE:dance-single;
#DESCRIPTION:;
#CHARTSTYLE:;
#DIFFICULTY:Easy;
#METER:7;
#RADARVALUES:0.288571,0.292347,0.189375,0.078906,0.000000,256.000000,232.000000,24.000000,10.000000,0.000000,0.000000,0.000000,0.000000,0.000000,0.288571,0.292347,0.189375,0.078906,0.000000,256.000000,232.000000,24.000000,10.000000,0.000000,0.000000,0.000000,0.000000,0.000000;
#CREDIT:;
#DISPLAYBPM:115.000000:119.000000;
#NOTES:
0000
0000
0000
0000
,
0000
0000
0000
0000
,
1000
0102
0010
0103
,
0001
1000
0001
0010
,
0001
2100
0010
3100
,
0001
0000
1000
0000
0100
0000
0000
1000
,
0000
0001
0000
1000
0000
0000
0000
0010
,
0000
0100
0000
0010
0000
0000
1000
0000
,
0001
0100
0010
1000
,
0100
0010
0110
1001
,
0010
1020
0001
1030
,
0010
1000
0001
0100
,
0001
0021
1000
0130
,
0010
0000
0001
0000
1000
0000
0000
0010
,
0000
0100
0000
0010
0000
0000
0000
1000
,
0000
0001
0000
1000
0000
0000
0001
0000
,
0010
0001
0100
0010
,
1000
0001
0011
1100
,
0001
1000
0010
1000
,
0100
0010
0100
1000
,
0010
0100
0001
1000
,
1001
0000
0100
0010
0000
1000
0001
0000
,
0100
0001
0010
0100
,
0010
0001
1000
0001
,
0100
1000
0010
0100
,
0110
0000
0001
1000
0000
0010
0100
0000
,
0001
2010
0100
3010
,
1000
0001
0010
0100
,
0010
0012
0100
1003
,
0001
0000
0100
0000
0010
0000
0000
1000
,
0000
0100
0000
1000
0000
0000
1001
0000
,
0001
0000
0100
0001
0000
0000
0110
0000
,
0010
1000
0100
0010
,
0001
0100
0101
1010
,
1000
1200
0001
1300
,
0010
1000
0100
0010
,
0001
0201
1000
0310
,
0100
0000
0001
0000
1000
0000
0000
0001
,
0000
0010
0000
0001
0000
0000
0000
1000
,
0000
0010
0000
1000
0000
0000
0100
0000
,
0010
0100
1000
0001
,
0100
0001
0011
1100
,
0001
1000
0100
0010
,
0100
0010
0001
0100
,
0010
1000
0100
0001
,
0011
0000
1000
0100
0000
0010
0001
0000
,
0100
0010
0100
0001
,
1000
0010
0001
0100
,
0010
0100
0010
1000
,
1100
0000
1000
0010
0000
0100
0001
0000
,
0010
0001
0100
0010
,
0100
0001
1000
0001
,
0010
0001
1000
0100
,
1010
0000
0001
0010
0000
0100
1000
0000
,
0100
0010
0100
1000
,
0001
1000
0100
1000
,
0010
0001
0100
0010
,
0101
0000
0100
0001
0000
1000
0010
0000
,
1000
0001
0100
0010
,
0001
1000
0010
2000
,
0002
0000
0000
0000
,
0000
0000
0000
3003
;

//---------------dance-single - ----------------
#NOTEDATA:;
#CHARTNAME:;
#STEPSTYPE:dance-single;
#DESCRIPTION:;
#CHARTSTYLE:;
#DIFFICULTY:Beginner;
#METER:4;
#RADARVALUES:0.156685,0.170536,0.000000,0.007891,0.000000,139.000000,139.000000,0.000000,1.000000,0.000000,0.000000,0.000000,0.000000,0.000000,0.156685,0.170536,0.000000,0.007891,0.000000,139.000000,139.000000,0.000000,1.000000,0.000000,0.000000,0.000000,0.000000,0.000000;
#CREDIT:;
#DISPLAYBPM:115.000000:119.000000;
#NOTES:
// measure 0
0000
0000
0000
0000
,  // measure 1
0000
0000
0000
0000
,  // measure 2
1000
1000
0000
0000
,  // measure 3
0001
0001
0001
0000
,  // measure 4
0100
0100
0000
0000
,  // measure 5
0010
0010
0010
0000
,  // measure 6
1000
0000
0001
0000
,  // measure 7
1000
0000
0001
0000
,  // measure 8
0010
0000
0100
0000
,  // measure 9
1000
1000
1000
0000
,  // measure 10
0001
0001
0000
0000
,  // measure 11
0100
0100
0100
0000
,  // measure 12
0010
0010
0000
0000
,  // measure 13
1000
1000
1000
0000
,  // measure 14
0010
0000
0100
0000
,  // measure 15
0010
0000
0100
0000
,  // measure 16
0001
0000
1000
0000
,  // measure 17
0010
0010
0010
0000
,  // measure 18
1000
0000
1000
0000
,  // measure 19
0010
0000
0010
0000
,  // measure 20
0100
0000
0100
0000
,  // measure 21
0001
0001
0000
0000
,  // measure 22
0010
0000
0010
0000
,  // measure 23
0001
0000
0001
0000
,  // measure 24
1000
0000
1000
0000
,  // measure 25
0100
0100
0000
0000
,  // measure 26
0100
0100
0000
0000
,  // measure 27
1000
1000
1000
0000
,  // measure 28
0001
0001
0000
0000
,  // measure 29
0010
0010
0010
0000
,  // measure 30
0001
0000
0100
0000
,  // measure 31
0001
0000
0100
0000
,  // measure 32
0010
0000
1000
0000
,  // measure 33
0100
0100
0100
0000
,  // measure 34
1000
1000
0000
0000
,  // measure 35
0010
0010
0010
0000
,  // measure 36
0100
0100
0000
0000
,  // measure 37
0001
0001
0001
0000
,  // measure 38
1000
0000
0100
0000
,  // measure 39
1000
0000
0100
0000
,  // measure 40
0010
0000
0001
0000
,  // measure 41
1000
1000
1000
0000
,  // measure 42
0001
0000
0001
0000
,  // measure 43
1000
0000
1000
0000
,  // measure 44
0010
0000
0010
0000
,  // measure 45
0100
0100
0000
0000
,  // measure 46
0010
0000
0010
0000
,  // measure 47
0100
0000
0100
0000
,  // measure 48
0001
0000
0001
0000
,  // measure 49
1000
1000
0000
0000
,  // measure 50
0100
0100
0100
0000
,  // measure 51
1000
1000
1000
0000
,  // measure 52
0010
0010
0010
0000
,  // measure 53
1000
1000
1000
0000
,  // measure 54
0001
0001
0001
0000
,  // measure 55
0010
0010
0010
0000
,  // measure 56
0001
0001
0001
0000
,  // measure 57
0100
0100
0100
0000
,  // measure 58
0010
0010
0010
0000
,  // measure 59
1000
1000
1000
0000
,  // measure 60
0002
0000
0000
0000
,  // measure 61
0000
0000
0000
0003
;
