#VERSION:0.83;
#TITLE:Sea Saw Game;
#SUBTITLE:;
#ARTIST:lobsak;
#TITLETRANSLIT:;
#SUBTITLETRANSLIT:;
#ARTISTTRANSLIT:;
#GENRE:;
#CREDIT:;
#MUSIC:Sea Saw Game.ogg;
#BANNER:Sea Saw Game.png;
#BACKGROUND:Sea Saw Game-bg.png;
#CDTITLE:;
#SAMPLESTART:20.030;
#SAMPLELENGTH:15.000;
#SELECTABLE:YES;
#OFFSET:-0.830;
#BPMS:0.000=150.000
,48.000=75.000
,80.000=150.000
,143.000=75.000
,159.000=150.000
,191.000=75.000
,223.000=150.000
;
#STOPS:112.000=0.400;
#BGCHANGES:;
#FGCHANGES:;

//--------------- dance-single - Marten ----------------
#NOTEDATA:;
#STEPSTYPE:dance-single;
#DESCRIPTION:Marten;
#DIFFICULTY:Hard;
#METER:13;
#RADARVALUES:0,0,0,0,0;
#NOTES:
0000
0000
0000
0000
,
0000
0000
0000
0000
,
0000
0000
0000
0000
,
0000
0000
0000
0000
,
1000
0010
0100
1000
0001
0010
1000
0010
,
0100
1000
0001
0010
1000
0100
0010
0001
,
1000
0100
0010
1000
0001
0100
1000
0100
,
0010
1000
0001
0100
1000
0010
0100
0001
,
2000
0000
0010
0000
0001
0000
0100
0100
,
3002
0000
0010
0000
1000
0000
0100
0103
,
0001
0100
0010
1000
0001
0010
0100
1000
,
0001
0100
0001
0100
0010
1000
0010
1000
0200
0000
0000
0000
0300
0000
0000
0000
,
0022
0000
0000
0000
0000
0000
0033
0000
1002
0000
0000
0000
0103
0000
2001
0000
0000
0000
0000
0000
0000
0000
0000
0000
3010
0000
1000
0010
1000
0000
0100
0000
,
0220
0000
0000
0000
0000
0000
0330
0000
2100
0000
0000
0000
3001
0000
0201
0000
0000
0000
0310
0100
0010
0000
0010
0000
2000
0000
0000
0000
3002
0000
0000
0000
,
0023
0000
0000
0000
0000
0000
0030
0000
2001
0000
0000
0000
3100
0000
1002
0000
0000
0000
0000
0000
0000
0000
0000
0000
0013
0000
0001
0010
0001
0000
0100
0000
,
0202
0000
0000
0000
0000
0000
0303
0000
0120
0000
0000
0000
1030
0000
1020
0000
0000
0000
1030
0010
1000
0000
1000
0000
2020
0000
3030
0000
2002
0000
3003
0000
,
0202
0000
0000
0000
0303
0000
0000
0000
1020
0000
0000
0000
0130
0000
0021
0000
0000
0000
0000
0000
0000
0000
0000
0000
0031
0000
1000
0001
1000
0000
0100
0000
,
0220
0000
0000
0000
0330
0000
0000
0000
0012
0000
0000
0000
1003
0000
2100
0000
0000
0000
3001
0100
0001
0000
0001
0000
0020
0000
0000
0000
0032
0000
0000
0000
,
2003
0000
0000
3000
2010
0000
3001
0021
0000
0000
2030
3020
0032
2003
0000
3001
,
0022
0000
0000
0000
0000
0000
0033
0000
2001
0000
0000
0000
3100
0000
1200
0000
0000
1000
0000
0000
0010
0000
0000
0001
0000
0000
0000
0000
0310
0100
0010
0100
,
1000
0010
0001
1000
0100
0001
1000
0010
,
0001
1000
0100
0001
1000
0100
0010
0001
,
0001
0010
1000
0001
0100
1000
0001
0010
,
1000
0001
0100
1000
0001
0100
0010
1000
,
0002
0000
0000
0010
0000
0000
1000
0000
0000
0000
0100
0000
1000
0000
1000
0000
,
2003
0000
0000
0010
0000
0000
0001
0000
0000
0000
0100
0000
0001
0000
0001
0000
,
3001
0010
1000
0001
0100
1000
0001
1000
,
0001
0010
0001
0010
0100
1000
0100
1000
0020
0000
0000
0000
0030
0000
0000
0000
,
2002
3003
0000
0000
0000
0000
0000
0000
0102
0000
0000
0000
0000
0000
0023
0000
0000
0000
0000
0000
0130
0000
0000
0000
2200
0000
0000
0000
3300
0000
0000
0000
,
0202
0000
0303
0000
0001
0010
0000
1000
0010
0000
0001
0000
0022
0000
0033
0000
,
2020
0000
3030
0000
2000
0000
0000
3200
0000
0000
0310
0000
0001
1000
0001
1000
,
0001
0000
0100
0000
0100
0000
0001
1000
0020
0000
0030
0000
2020
0000
3030
0000
,
0220
0000
0330
0000
0001
0100
0000
0001
0010
0000
1000
0000
0010
0001
0000
0001
,
0100
0000
0010
0000
0100
0000
0001
1000
0001
0000
0010
0000
0220
0000
0330
0000
,
2002
0000
3003
0000
0001
0100
0000
1000
0100
0000
0010
0000
1010
0000
1000
0001
,
0010
0000
0000
0000
0022
0000
0000
0000
0033
0000
0000
0000
0220
0000
0000
0330
,
2200
0000
3300
1002
0000
0000
0000
0000
1003
0010
0100
0001
0202
0000
0000
0303
,
2002
0000
3003
1200
0000
0000
1300
0000
0202
0303
2200
3300
2002
0000
0000
3003
,
0022
0000
0033
2010
0000
0000
0000
0000
3001
0010
0100
1000
2020
0000
0000
3030
,
2002
0000
0000
0000
3003
0000
0102
0000
0000
0100
0000
0000
0103
0000
0001
1000
0002
0000
0000
0000
0013
0000
0000
0000
2100
0000
0000
0000
0000
0000
0000
0000
,
3010
0000
1020
0000
0130
2010
0010
0000
,
0010
0000
3001
0010
1000
0010
0021
0000
,
0031
0000
0120
0000
0130
2100
0100
0000
,
3001
0000
2000
3100
0002
0103
0020
0000
,
0031
0000
0021
0000
0130
0012
0010
0000
,
0010
0000
0000
0000
0000
0000
0000
0000
0000
0000
0000
0000
0000
0000
0000
0000
0000
0000
0000
0000
0000
0000
0000
0000
0000
0000
0000
0000
0000
0000
0000
0000
0000
0000
0000
0000
0000
0000
0000
0000
0000
0000
0000
0000
0000
0000
0000
0000
1003
0000
0000
0000
0000
0000
0000
0000
0000
0000
0000
0000
0000
0000
0000
0000
0000
0000
0000
0000
0000
0000
0000
0000
0010
0000
0000
0000
0000
0000
0000
0000
0000
0000
0000
0000
0000
0000
0000
0000
0000
0000
0000
0000
0000
0000
0000
0000
0001
0000
0000
0000
0000
0000
0000
0000
0000
0000
0000
0000
0000
0000
0000
0000
0000
0000
0000
0000
0000
0000
0000
0000
0010
0000
0000
0000
0000
0000
0000
0000
0000
0000
0000
0000
0000
0000
0000
0000
0000
0000
0000
0000
0000
0000
0000
0010
1020
0000
0000
0000
0000
0000
0000
0000
0000
0000
0000
0000
0000
0000
0000
0000
0000
0000
0000
0000
0000
0000
0000
0000
0000
0000
0000
0000
0000
0000
0000
0000
0000
0000
0000
0000
0000
0000
0000
0000
0000
0000
0000
0000
0000
0000
0000
0000
,
0130
0000
0102
0000
1003
2001
0001
0000
,
0001
0000
0000
0000
0010
0000
0000
0000
3010
0100
0010
0100
0002
0000
0000
0003
,
0021
0000
0000
0000
1030
0000
0210
0000
0000
0000
0000
0000
1300
0010
1000
0010
0100
0010
0100
0001
0020
0000
0030
0000
0220
0000
0000
0000
0000
0000
0330
0000
,
1002
0000
1003
2100
0000
3010
1000
0100
0220
0330
0022
0033
2002
0000
0000
3003
,
0021
0000
0000
0000
0130
0000
1020
0000
0000
0000
0000
0000
0000
0000
0031
0000
0010
0000
1000
0001
1000
0000
0010
0000
0202
0000
0000
0000
0000
0000
0303
0000
,
1200
0000
0000
0000
0310
0000
0210
0000
0000
0000
0310
0001
0010
0000
0010
0000
0022
0000
0033
0000
2002
0000
3003
0000
2200
0000
0000
0000
0000
0000
3300
0000
,
1020
0000
0000
0000
0031
0000
0210
0000
0000
0000
0000
0000
0000
0000
0000
0000
0301
0000
1000
0100
1000
0000
0001
0000
0102
0000
0000
0000
0023
0000
0000
0000
,
0230
0000
0000
0000
1300
0000
0020
0000
0000
0000
0130
0001
0100
0000
0100
0000
0220
0000
0330
0000
2020
0000
3030
0000
2002
0000
0000
0000
0000
0000
3003
0000
,
0022
0000
0000
0000
0033
0000
1200
0000
0000
0000
0000
0000
0310
0000
0010
0001
2000
0000
3020
0000
0032
0000
0013
0000
2020
0000
0000
0000
0000
0000
3030
0000
,
2002
0000
0000
0000
3003
0000
0102
0000
0000
0203
0000
1300
0200
0000
0301
0200
0000
0000
0000
0000
0301
0010
0100
1000
0200
0000
0000
0000
0000
0000
0000
0000
,
0000
0000
0000
0000
,
0300
0000
0000
0000
;
