#VERSION:0.83;
#TITLE:Schlagwerk;
#SUBTITLE:;
#ARTIST:TaQ;
#TITLETRANSLIT:;
#SUBTITLETRANSLIT:;
#ARTISTTRANSLIT:;
#GENRE:;
#CREDIT:;
#MUSIC:Schlagwerk.ogg;
#BANNER:Schlagwerk-bn.png;
#BACKGROUND:Schlagwerk-bg.png;
#CDTITLE:;
#SAMPLESTART:61.300;
#SAMPLELENGTH:15.000;
#SELECTABLE:YES;
#OFFSET:1.926;
#BPMS:0.000=125.027;
#STOPS:;
#BGCHANGES:;
#FGCHANGES:;

//--------------- dance-single - ----------------
#NOTEDATA:;
#STEPSTYPE:dance-single;
#DESCRIPTION:;
#DIFFICULTY:Medium;
#METER:8;
#RADARVALUES:0,0,0,0,0;
#CREDIT:Talkion;
#NOTES:
0000
0000
0000
0000
,
0000
0000
0000
0000
,
0000
0000
0000
0000
,
0000
0000
0000
0000
,
0000
0000
0000
0000
,
1000
0000
1010
0000
0001
0000
0010
0100
,
1000
0000
1100
0000
0001
0000
0100
0010
,
1000
0000
1010
0000
0001
0000
0010
0100
,
1000
0000
0000
0000
1100
0000
0000
0000
0001
0000
0000
0001
0000
0000
0100
0000
,
0010
0000
0000
0010
0000
0000
0000
0000
1000
0000
0000
0100
0000
0000
0000
0000
,
0010
0000
0000
0010
0000
0000
0000
0000
0001
0000
0000
0100
0000
0000
0000
0000
,
0010
0000
0000
0010
0000
0000
0000
0000
1000
0000
0000
0100
0000
0000
0000
0000
,
0010
0000
0000
0010
0000
0000
0000
0000
0001
0000
0000
0000
1000
0000
0000
0000
,
1001
0000
0000
0000
0000
0000
0000
0110
,
0110
0000
0000
0000
0000
0000
0000
0000
0000
0000
0000
0000
0000
0000
0000
0001
,
1000
0000
0000
0000
,
0110
0000
0000
0000
0000
0000
0000
0000
1000
0000
0000
1000
0000
0000
0001
0000
,
0010
0000
0011
0000
1000
0010
0100
0000
,
0010
0000
1010
0000
0001
0010
0100
0000
,
0010
0000
0011
0000
1000
0010
0100
0000
,
0010
0000
0000
0000
1010
0000
0000
0000
0001
0000
0000
0001
0000
0000
0000
0000
,
1000
0000
1100
0000
0001
0100
0010
0000
,
0100
0000
0101
0000
1000
0100
0010
0000
,
0100
0000
1100
0000
0001
0100
0010
0000
,
0100
0000
0101
0000
1000
0100
0010
0001
,
1000
0010
0100
0010
,
1000
0100
0010
0100
,
1000
0010
0100
0010
,
1000
0001
0010
0100
,
1000
0000
0001
0010
0100
0000
1000
0000
,
0001
0000
1000
0010
0100
0000
0001
0000
,
1000
0000
0001
0010
0100
0000
1000
0000
,
0000
1001
0000
1001
0000
0000
0001
0000
0100
0000
0000
0000
0010
0000
0000
0000
,
1000
0010
0100
0000
0001
0100
0010
0000
,
1000
0001
0010
0000
0100
1000
0001
0000
,
1000
0010
0100
0000
0001
0100
0010
0000
,
1001
0000
0000
0000
0000
0000
0000
0000
1000
0000
0000
1000
0000
0000
0001
0000
,
0100
0010
1000
0000
0001
0010
0100
0000
,
1000
0001
0100
0000
0010
1000
0001
0000
,
1000
0100
0010
0000
0001
0010
0100
0000
,
1000
0001
0100
0000
0010
0100
0000
0110
,
0000
0000
1000
0001
0010
0100
1000
0000
,
0001
0100
0010
0100
0001
1000
0100
0000
,
1000
0001
0010
0001
1000
0010
0100
0000
,
0001
0000
1000
0000
0010
0000
0100
0000
0010
0000
0100
0000
0000
1000
0000
0000
,
0100
0001
1000
0100
0010
0001
1000
0000
,
0100
1000
0001
0100
0010
1000
0001
0000
,
0100
0001
1000
0100
0010
0001
1000
0000
,
0010
0100
0010
0100
0010
0000
1001
0000
;

//--------------- dance-single - ----------------
#NOTEDATA:;
#STEPSTYPE:dance-single;
#DESCRIPTION:;
#DIFFICULTY:Hard;
#METER:12;
#RADARVALUES:0,0,0,0,0;
#CREDIT:Talkion;
#NOTES:
0000
0000
0000
0000
,
0000
0000
0000
0000
,
0000
0000
0000
0000
,
0000
0000
0000
0000
,
0000
0000
0000
0000
0000
0000
0000
0000
0101
0000
0000
0110
0000
0000
1010
0000
,
1000
0000
0000
1000
0001
0000
0010
0000
0100
0000
0000
0100
1000
0000
0000
0000
,
0001
0000
0000
0001
1000
0000
0010
0000
0100
0000
0000
0100
0001
0000
0000
0000
,
1000
0000
0000
1000
0001
0000
0010
0000
0100
0000
0000
0100
1000
0000
0000
0000
,
0100
0000
0000
0100
0010
0000
0001
0000
1000
0000
0000
1000
0010
0000
0001
0000
,
0010
0000
0000
0010
0000
0000
0010
0000
1000
0000
0000
0001
0000
0010
0000
0000
,
0100
0000
0000
0100
0000
0000
0100
0000
1000
0000
0000
0001
0000
0100
0000
0000
,
0010
0000
0000
0010
0000
0000
0010
0000
1000
0000
0000
0001
0000
0010
0000
0000
,
0100
0000
0000
0100
0000
0000
0100
0000
0000
1000
0000
0000
1001
0000
0000
0000
,
0101
0000
1000
0000
0100
0000
0010
0110
,
1001
0000
0000
0000
0001
0000
0000
0000
0100
0000
0000
0000
0010
0000
0000
0010
,
1000
0001
0010
0100
,
1001
0000
0000
0000
0000
0000
0000
0000
1010
0000
0000
0010
0100
0000
0001
0000
,
1000
0100
1100
1000
0001
0100
0010
0000
,
0001
0100
0101
0001
1000
0100
0010
0000
,
1000
0100
1100
1000
0001
0100
0010
0000
,
0001
0000
0100
0000
0110
0000
0000
0000
0010
0000
0000
0010
0000
1000
0001
1000
,
0001
0010
0011
0001
1000
0010
0001
0000
,
1000
0010
1010
1000
0001
0010
1000
0000
,
0001
0010
0011
0001
1000
0010
0001
0000
,
1000
0000
0010
0000
0110
0000
0000
0000
0100
0000
0000
0100
0001
0000
0000
0001
,
1000
0000
0000
0000
0001
0000
0010
0000
0001
0000
0000
0000
0100
0000
0000
0010
,
0000
0000
0000
0000
1000
0000
0010
0000
1000
0000
0000
0000
0100
0000
0000
0010
,
0000
0000
0000
0000
0001
0000
0010
0000
0001
0000
0000
0000
0100
0000
0000
0010
,
0000
0000
0000
0000
1000
0000
0001
0000
1000
0000
0000
0000
0100
0000
0000
0100
,
0010
0000
0001
0000
1000
0000
0001
0000
0100
0010
0000
1000
0001
0000
0000
0010
,
0100
0000
1000
0000
0001
0000
1000
0000
0010
0100
0000
0001
1000
0000
0000
0001
,
0010
0000
0001
0000
1000
0000
0001
0000
0100
0010
0000
1000
0001
0000
0000
0010
,
0000
0110
0000
1001
0000
0000
1000
0000
0010
0000
0100
0000
1000
0000
0000
0000
,
0001
0100
0101
0001
1000
0100
0001
0000
,
1000
0100
1100
1000
0001
0100
1000
0000
,
0001
0100
0101
0001
1000
0100
0001
0000
,
1001
0000
0000
0000
0000
0000
0000
0000
1010
0000
0000
0010
0100
0000
0001
0000
,
1000
0100
0110
1000
0001
1000
0010
0001
,
0100
0010
0110
0001
1000
0001
0010
1000
,
0100
0010
0110
1000
0001
1000
0010
0001
,
0100
0010
0110
0001
1000
0100
0010
0110
,
0000
1001
0001
0100
0001
1000
0100
0001
,
0010
0000
0100
0010
0100
0000
1000
0000
0001
0000
1000
0000
0010
0000
0001
0000
,
0100
0000
0010
0100
0010
0000
1000
0000
0001
0000
1000
0000
0100
0000
0001
0000
,
0010
0000
0100
0010
0100
0000
1000
0000
0001
0000
0100
0000
0000
1000
0000
0000
,
0001
0000
1000
0100
0010
0000
0001
0000
1000
0000
0001
0100
0010
0000
0001
0000
,
0100
0000
0001
0100
0010
0000
1000
0000
0001
0000
1000
0100
0010
0000
1000
0000
,
0100
0000
1000
0100
0010
0000
0001
0000
1000
0000
0001
0100
0010
0000
0001
0000
,
0100
0000
0100
0000
0001
1000
0001
1000
0100
0000
0000
0000
0001
0000
0000
0000
;

//--------------- dance-single - ----------------
#NOTEDATA:;
#STEPSTYPE:dance-single;
#DESCRIPTION:;
#DIFFICULTY:Challenge;
#METER:15;
#RADARVALUES:0,0,0,0,0;
#CREDIT:Talkion;
#NOTES:
0000
0000
0000
0000
,
0000
0000
0000
0000
,
0000
0000
0000
0000
,
0000
0000
0000
0000
,
0000
0000
0000
0000
0000
0000
0000
0000
1010
0000
0000
0110
0000
0000
0101
0000
,
0100
0000
0001
1000
0100
0000
0010
0000
0100
0000
0010
0001
1000
0010
0100
0000
,
0010
0000
1000
0001
0010
0000
0100
0000
0010
0000
0100
1000
0001
0100
0010
0000
,
0001
0000
0010
0100
0001
0000
1000
0000
0001
0000
0010
0100
0001
0100
1000
0000
,
0001
0000
0100
0010
0001
0000
0010
0000
0100
0001
1000
0001
0010
0000
1000
0000
,
0010
0000
0000
0010
0000
0000
0010
0000
0001
0000
0000
0001
0000
0100
0000
0000
,
0010
0000
0000
0010
0000
0000
0010
0000
1000
0000
0000
1000
0000
0100
0000
0000
,
0010
0000
0000
0010
0000
0000
0010
0000
0001
0000
0000
0001
0000
0100
0000
0000
,
0010
0000
0000
0010
0000
0000
0010
0000
0000
1000
0000
0000
1001
0000
0000
0000
,
0110
0000
0000
0000
0001
0000
0000
0001
0000
0010
0100
0000
1000
0000
1100
0000
,
0011
0000
0000
0000
1000
0000
0000
1000
0000
0010
0100
0000
0001
0100
0010
1000
,
0001
0000
0000
0000
1000
0000
0000
1000
0000
0100
0010
0000
0100
0010
0000
0000
,
1001
0000
0000
0000
0000
0000
0000
0000
1100
0000
0000
0100
0010
0000
0001
0000
,
1000
0001
1000
0010
0100
0000
0100
0000
1000
0001
1000
0000
0010
0100
1000
0000
,
0100
0001
1000
0001
0010
0000
0010
0000
1000
0001
1000
0000
0100
0010
1000
0000
,
0010
0001
1000
0001
0100
0000
0100
0000
1000
0001
1000
0000
0010
0100
1000
0000
,
0100
0001
1000
0001
0010
0000
0010
0000
1000
0010
0100
0001
0000
0100
0010
0100
,
0010
1000
0001
1000
0100
0000
0100
0000
0001
1000
0100
0000
1000
0100
0001
0000
,
0100
1000
0001
1000
0010
0000
0010
0000
0001
1000
0010
0000
1000
0010
0001
0000
,
0010
1000
0001
1000
0100
0000
0100
0000
0001
1000
0100
0000
1000
0100
0001
0000
,
0100
1000
0001
1000
0010
0000
0010
0000
0001
1000
0001
1000
0010
0100
0010
0100
,
0001
0000
0000
0000
0001
0000
1000
0000
0100
0010
0000
0000
0011
0000
0000
1100
,
0000
0000
0000
0000
1000
0000
0001
0000
0100
0010
0000
0000
1010
0000
0000
0101
,
0000
0000
0000
0000
0001
0000
1000
0000
0100
0010
0000
0000
0011
0000
0000
1100
,
0000
0000
0000
0000
1000
0000
0001
0000
0100
0010
0000
0010
1000
0000
0000
0001
,
0010
0000
0100
0000
0010
0000
0100
0000
1000
0001
0000
0100
0010
0000
0100
0010
,
1000
0000
0001
0000
1000
0000
0001
0000
0010
0100
0000
1000
0001
0000
1000
0001
,
0100
0000
0010
0000
0100
0000
0010
0000
1000
0001
0000
0010
0100
0000
0010
0100
,
1000
0001
0000
0101
0000
0000
1010
0000
1000
0000
0001
0010
0100
0000
0000
0000
,
1000
0100
0010
0100
0001
0000
0001
0000
1000
0100
0010
0001
1000
0010
0100
0000
,
0001
0100
0010
0100
1000
0000
1000
0000
0001
0100
0010
1000
0001
0010
0100
0000
,
1000
0100
0010
0100
0001
0000
0001
0000
1000
0100
0010
0001
1000
0010
0100
0000
,
0110
0000
0000
0000
0000
0000
0000
0000
0101
0000
0000
0100
0010
0000
1000
0000
,
0001
0010
0100
0010
1000
0000
1000
0000
0001
0010
0100
0001
0100
0010
0001
0000
,
1000
0010
0100
0010
0001
0000
0001
0000
1000
0010
0100
1000
0100
0010
1000
0000
,
0001
0010
0100
0010
1000
0000
1000
0000
0001
0010
0100
0001
0100
0010
0001
0000
,
1000
0010
0100
0010
0001
0000
0001
0000
0100
0010
1000
0001
0010
0000
0110
0000
,
0000
0000
1001
0000
1000
0000
0001
1000
0100
1000
0001
0100
0010
1000
0001
0000
,
1000
0100
0010
0100
0001
0000
0001
1000
0010
1000
0001
0010
0100
1000
0001
0000
,
1000
0010
0100
0010
0001
0000
0001
1000
0100
1000
0001
0100
0010
1000
0001
0000
,
1000
0100
0010
0100
0001
0000
0001
1000
0010
0100
0010
0100
0000
1000
0000
0000
,
0100
0001
1000
0100
0001
0000
0001
1000
0100
0010
0001
1000
0001
0100
1000
0000
,
1000
0010
0100
0010
0001
0000
0001
1000
0010
0100
0001
1000
0001
0010
1000
0000
,
1000
0100
0010
0100
0001
0000
0001
1000
0100
0010
0001
1000
0001
0100
1000
0000
,
1000
0000
0000
0010
0000
0000
0100
0000
0000
0001
0000
0000
1000
0000
0010
0000
1000
0000
0001
0000
0100
0000
0001
0000
1000
0000
0000
0000
0000
0000
0000
0000
0000
0000
0000
0000
1001
0000
0000
0000
0000
0000
0000
0000
0000
0000
0000
0000
;
