#TITLE:Scatman & Hatman;
#SUBTITLE:;
#ARTIST:Scatman John & Lou Bega;
#TITLETRANSLIT:;
#SUBTITLETRANSLIT:;
#ARTISTTRANSLIT:;
#GENRE:;
#CREDIT:;
#BANNER:Scatman & Hatman.png;
#BACKGROUND:Scatman & Hatman-bg.png;
#LYRICSPATH:;
#CDTITLE:;
#MUSIC:Scatman & Hatman.ogg;
#OFFSET:2.314678;
#SAMPLESTART:37.696617;
#SAMPLELENGTH:16.000000;
#LASTBEATHINT:2.566762;
#SELECTABLE:YES;
#BPMS:0.000000=120.000000
;
#STOPS:
;
#BGCHANGES:;
#KEYSOUNDS:;
#ATTACKS:;

//---------------dance-single - ----------------
#NOTES:
     dance-single:
     :
     Challenge:
     13:
     0.572570,0.684511,0.200399,0.165848,0.604653,580.000000,551.000000,29.000000,24.000000,17.000000,0.000000,0.572570,0.684511,0.200399,0.165848,0.604653,580.000000,551.000000,29.000000,24.000000,17.000000,0.000000:
0000
0000
0000
0000
,
0000
0000
0000
0000
,
0000
0000
0000
0000
,
0000
0000
0000
0000
,
0000
0000
0000
0000
,
0000
0000
0000
0000
,
0000
0000
0000
0000
,
0000
0000
0000
0000
,
0000
0000
1000
0001
0010
0000
0010
0000
0010
0000
0020
0000
0031
0000
0000
0000
,
0000
0000
0001
1000
0010
0000
0001
0000
0020
0000
0000
0000
0030
0000
0000
0000
,
0000
1000
0010
0100
0001
0000
1000
0000
0100
0000
0200
0000
0000
0000
0300
0000
,
0000
0000
1000
0100
0010
0000
0010
0001
1000
0000
0010
0100
0001
0000
0000
1000
,
0000
0000
0001
0010
0001
0000
1000
0000
0010
1000
0000
0000
0001
0000
0000
0000
,
0100
0000
0010
1000
0010
0000
1000
0000
0001
0000
0010
0000
0100
0000
0000
0000
,
1000
0100
0000
1000
0001
0000
0010
0000
1000
0000
0010
0000
0001
0000
0000
0000
,
1000
0000
0001
1000
0100
0000
0010
0100
0000
0000
0010
0000
0001
0000
0000
0000
,
1000
0000
0001
0010
0001
0000
0100
0000
0010
1000
0010
0000
0100
0000
0000
0000
,
0001
0000
1000
0010
1000
0000
0100
0000
0010
0001
0010
0000
0100
0000
0000
0000
,
1000
0000
0001
0100
0010
0000
1000
0000
0001
0010
0100
0000
1000
0000
0001
0000
,
1001
0000
1001
0000
1001
0000
1001
0000
1001
0000
0001
0100
0010
1000
0010
1000
,
0001
0000
0000
0001
0100
0000
0010
0000
0100
0001
0000
0001
1000
0000
0000
0000
,
0100
0000
0000
0100
1000
0000
0010
0000
1000
0001
0000
0001
0100
0000
0000
0000
,
0011
0000
0000
0010
0001
0000
0100
0000
0001
1000
0000
1000
0010
0000
0000
0000
,
1000
0000
0000
1000
0100
0000
0010
0000
0100
1000
0000
0001
0010
0001
0010
0001
,
1000
0000
0000
1000
0001
0000
0100
0000
0001
0010
0000
0010
0100
0000
0000
0000
,
0010
0000
0000
0010
0001
0000
1000
0000
0010
0100
0000
0100
0001
0000
0000
0000
,
1010
0000
0000
0010
1000
0000
0001
0000
0010
0100
0000
0100
1000
0000
0000
0000
,
0001
0000
0000
0001
1000
0000
0100
0000
1000
0010
0100
0000
2002
0000
3003
0000
,
1000
0000
0100
0000
0001
0100
0000
1000
0000
0000
0000
0010
1000
0001
0100
0000
,
0001
0000
0100
0000
1000
0100
0000
0001
0000
0000
0000
1000
0010
1000
0001
0000
,
0010
0100
0010
0100
0010
0000
0001
0000
1000
001M
0000
M010
0001
0000
1000
0000
,
0010
0000
0001
0000
0010
0000
1000
0000
0001
M100
0000
010M
1000
0000
0001
0000
,
1000
0000
0010
0000
0001
0010
0000
1000
0000
0000
0000
0001
1000
0010
0100
0000
,
0001
0000
0010
0000
1000
0010
0000
0001
0000
0000
0000
1000
0100
1000
0001
0000
,
0100
0010
0100
0010
0100
0000
0001
0000
1000
010M
0000
M100
0001
0000
0010
0000
,
1000
0000
0010
0000
0001
0000
1000
0000
0001
M010
0000
001M
1000
0000
0001
0000
,
1002
0100
0000
0100
,
2003
0000
0000
0000
0100
0000
0000
0000
0000
0000
0000
0000
3100
0000
0000
0010
,
0002
0000
0010
0000
0000
0000
0013
0200
,
0001
1000
0000
0310
,
0001
0000
1000
0100
1000
0100
0000
0100
0010
0000
0000
0000
0100
0000
0000
0000
,
1000
0000
0000
0000
0001
0000
0000
0000
0100
0000
0000
0000
0001
0000
0000
0000
1000
0000
0000
0000
0000
1000
0000
0000
0010
0000
0000
0000
0000
0000
0000
0000
0000
0000
0000
0000
0100
0000
0000
0000
0000
0000
0000
0000
0000
0000
0000
0000
,
0010
0000
0100
0000
1000
0000
0100
0000
0001
0010
0000
0010
0100
0000
0001
0000
,
0100
0000
1000
0000
0010
0000
0100
0000
0010
0000
0001
0010
0000
0000
1000
0000
,
0001
0000
0100
0010
1000
0000
0001
0000
0010
0100
1000
0000
0001
0000
0000
0000
,
1000
0000
0010
0100
0001
0000
1000
0000
0100
0010
0001
0000
1000
0000
0000
0000
,
0001
0000
0010
0100
1000
0000
0001
0000
1000
0100
0010
0000
0001
0000
1000
0000
,
1010
0000
1010
0000
0110
0000
0101
0000
1001
0000
0001
0010
0100
1000
0100
1000
,
0001
0000
MMMM
0000
1001
0000
0001
0000
0010
0100
0000
0100
0010
0000
0001
0000
,
1000
0000
0001
0010
0001
0000
1000
0000
0010
0100
0000
0100
0001
0000
1000
0000
,
0001
0000
1000
0010
1000
0000
0001
0000
0010
0100
0000
0100
0010
0000
0001
0000
,
1000
0000
0001
0010
0001
0000
1000
0000
0010
0100
0000
0100
0001
1000
0001
1000
,
0010
0000
0100
0001
0100
0000
0001
0000
0010
0100
0000
0100
0010
0000
0001
0000
,
1000
0000
0001
0100
0001
0000
1000
0000
0010
0100
0000
0100
0010
0000
1000
0000
,
0001
0000
0010
0100
0010
0000
0001
0000
1000
0010
0000
0010
1000
0000
0001
0000
,
1000
0000
0100
0010
0001
0000
1000
0000
0010
0000
0110
0000
2002
0000
3003
0000
,
1000
0000
0100
0000
0001
0100
0000
0100
0010
0000
0001
0010
0000
1000
0020
0000
,
0001
0000
0031
0000
002M
1000
0000
1030
0000
0000
0001
0100
0000
0010
1000
0000
,
2100
0000
0000
0000
3010
0000
0001
0000
0010
1000
0000
0001
1000
0001
0010
0000
,
0100
0000
1000
0000
0100
0001
0000
0100
1000
0000
0010
0001
0000
0010
1000
0000
,
0001
0000
0100
0000
1000
0100
0000
0100
0010
0000
1000
0010
0000
0001
0020
0000
,
1000
0000
1030
0000
M020
0001
0000
0031
0000
0000
1000
0010
0000
0100
0001
0000
,
0012
0000
0000
0000
0103
0000
1000
0000
0100
0010
0000
1000
0001
1000
0100
0000
,
0010
0000
0001
0000
0100
0000
0010
0000
1000
0010
0000
0010
0200
0000
0301
0000
,
0001
0100
0001
0010
0000
0000
001M
1000
0010
0100
0000
0000
0001
0010
0001
1000
,
0100
0000
0010
0000
0200
0001
0000
0001
0000
0010
0000
1300
0000
0000
0100
0010
,
0001
0000
0000
0001
1000
0000
0010
0000
1000
010M
0000
M100
0001
0000
0010
0000
,
1000
0000
0010
0000
0200
0001
0000
0001
0000
0010
0000
1300
0000
1000
0001
0000
,
0021
0000
0000
0000
0130
0000
0001
0000
0100
1000
0000
0010
0100
0010
1000
0000
,
0010
0000
0100
0000
0020
0001
0000
0001
0000
0100
0000
1030
0000
1000
0001
0000
,
0101
0100
0110
0010
1010
1000
1001
0001
,
0011
0011
0110
0110
2002
0000
0000
0000
,
0000
0000
0000
0000
,
0000
0000
0000
3003
0000
0000
0000
0000
;

//---------------dance-single - ----------------
#NOTES:
     dance-single:
     :
     Hard:
     12:
     0.496556,0.557750,0.158937,0.158937,0.462992,503.000000,480.000000,23.000000,23.000000,0.000000,0.000000,0.496556,0.557750,0.158937,0.158937,0.462992,503.000000,480.000000,23.000000,23.000000,0.000000,0.000000:
0000
0000
0000
0000
,
0000
0000
0000
0000
,
0000
0000
0000
0000
,
0000
0000
0000
0000
,
0000
0000
0000
0000
,
0000
0000
0000
0000
,
0000
0000
0000
0000
,
0000
0000
0000
0000
,
1000
0010
0100
0001
1000
1000
0000
0000
,
1000
0100
0010
0001
0001
0000
0000
0000
,
0001
0100
0010
1000
0001
0001
0000
0000
,
0000
0000
0001
0000
0010
0000
0100
0000
1000
0000
0001
0000
1000
0000
0000
1000
,
0000
0010
1000
0001
0100
0000
0000
0000
,
0100
0001
0010
0100
0010
0000
0000
0000
,
0001
0000
0000
0001
0000
0000
1000
0000
1000
0000
1000
0000
0000
0000
0000
0000
,
1000
0000
0001
1000
0001
0000
1000
0002
0000
0000
1003
0000
0000
0000
0000
0000
,
0010
0000
1000
0010
1000
0000
0010
0000
1000
0001
1000
0000
0001
0000
0000
0000
,
0010
0000
0001
0010
0001
0000
0010
0000
0001
1000
0001
0000
1000
0000
0000
0000
,
0001
0000
1000
0100
0010
0000
0001
0000
1000
0001
1000
0000
0001
0000
0100
0000
,
0010
0000
0010
0000
0010
0000
0010
0000
0010
0000
1000
0001
1000
0001
1000
0001
,
0200
0000
0000
0000
0310
0000
1000
0000
0010
0100
0000
0101
0000
0000
0000
0000
,
0001
0000
0000
0001
0010
0000
0100
0000
0010
0100
0000
1100
0000
0000
0000
0000
,
1020
0000
0000
0000
0130
0000
0001
0000
0100
0010
0000
1010
0000
0000
0000
0000
,
1000
0000
0000
1000
0010
0000
0100
0000
0010
0100
0000
0100
0001
1000
0001
1000
,
0200
0000
0000
0000
0310
0000
0001
0000
1000
0010
0000
0110
0000
0000
0000
0000
,
0100
0000
0000
0100
0010
0000
1000
0000
0001
0010
0000
0110
0000
0000
0000
0000
,
0021
0000
0000
0000
0130
0000
1000
0000
0001
0100
0000
0110
0000
0000
0000
0000
,
0010
0000
0000
0010
1000
0000
0001
0000
0010
0000
0100
0000
2002
0000
3003
0000
,
0001
0000
0100
0000
0010
0100
0000
0001
0000
0000
0000
1000
0000
0001
1000
0000
,
0010
0000
0100
0000
0001
0100
0000
0010
0000
0000
0000
0100
0000
0010
0100
0000
,
0001
1000
0001
1000
0001
0000
0010
0000
0010
0001
0000
0001
0000
0000
0010
0000
,
0100
0000
0010
0000
0001
0000
1000
0000
0010
1000
0000
1000
0000
0000
0010
0000
,
1000
0000
0100
0000
0010
0100
0000
1000
0000
0000
0000
0001
0000
1000
0001
0000
,
0010
0000
0100
0000
1000
0100
0000
0010
0000
0000
0000
0100
0000
0010
0100
0000
,
1000
0001
1000
0001
1000
0000
0010
0000
0010
1000
0000
1000
0000
0000
0100
0000
,
0010
0000
0100
0000
1000
0000
0010
0000
0100
0001
0000
0001
0000
0000
0000
0000
,
0021
0100
0000
0130
,
2000
0000
0010
0000
0000
0000
3010
0100
,
0001
0000
0102
0000
0000
0000
0103
0010
,
1000
2010
0000
3001
,
1000
0100
0001
0100
1000
0000
0010
0000
,
0001
0010
1000
0010
0100
0000
0001
0000
,
0010
0000
0001
0000
1000
0000
0001
0000
0100
0010
0000
0010
0000
0000
1000
0000
,
0100
0000
1000
0000
0001
0000
1000
0000
0010
0000
0010
0100
0000
0000
0000
0000
,
0001
0000
0100
0001
0100
0000
0001
0000
1000
0001
1000
0000
0001
0000
0000
0000
,
1000
0000
0100
1000
0100
0000
1000
0000
0001
1000
0001
0000
1000
0000
0000
0000
,
0010
0000
1000
0010
0100
0000
0001
0000
1000
0001
1000
0000
0001
0000
0010
0000
,
0100
0000
0100
0000
0100
0000
0100
0000
0100
0000
1000
0001
1000
0001
1000
0001
,
0200
0000
0000
0000
0310
0000
1000
0000
0001
0010
0000
0010
0001
0000
1000
0000
,
0010
0000
1000
0000
0100
0000
0010
0000
0100
1000
0000
1000
0100
0000
1000
0000
,
0020
0000
0000
0000
0130
0000
0001
0000
1000
0010
0000
0010
1000
0000
0001
0000
,
0010
0000
0001
0000
1000
0000
0010
0000
1000
0001
0000
0001
1000
0001
1000
0001
,
0020
0000
0000
0000
0130
0000
1000
0000
0010
1000
0000
0001
1000
0000
0001
0000
,
0100
0000
1000
0000
0100
0000
0001
0000
0010
0001
0000
1000
0001
0000
0000
0000
,
0200
0000
0000
0000
0310
0000
1000
0000
0001
0100
0000
0001
1000
0000
0001
0000
,
0010
0000
0100
0010
0100
0000
0010
0000
0001
0000
1000
0000
2002
0000
3003
0000
,
0001
0000
0010
0000
0100
0010
0000
0001
0000
0000
1000
0001
0000
1000
0001
0000
,
0100
0000
0100
0000
0010
0100
0000
0100
0000
0000
0100
0010
0000
0010
1000
0000
,
0201
0000
0000
0000
0310
0000
1000
0000
0100
0010
0000
0001
1000
0000
0010
0000
,
0001
0000
0010
0000
1000
0001
0000
0100
0010
0000
0100
0001
0000
0010
0001
0000
,
1000
0000
0010
0000
0100
0010
0000
1000
0000
0000
0001
1000
0000
0001
1000
0000
,
0100
0000
0100
0000
0010
0100
0000
0100
0000
0000
0100
0010
0000
0010
0001
0000
,
1200
0000
0000
0000
0310
0000
0001
0000
0010
0100
0000
1000
0001
0000
1000
0000
,
0100
0000
0001
0000
0100
0000
1000
0000
0010
0000
0000
0010
1000
0000
0001
0000
,
0010
0000
0010
0001
0000
0000
0001
0000
0001
0100
0000
0000
0100
0000
0100
0010
,
0000
0000
0000
0000
0000
0010
0000
0010
0000
1010
0000
1001
0000
0000
0000
0000
,
2010
0000
0000
0000
3001
0000
0100
0000
0010
1000
0000
0001
0000
0000
1000
0000
,
0001
0000
0010
0000
0100
0010
0000
0001
0000
0001
0000
0011
0000
0000
0000
0000
,
0201
0000
0000
0000
0310
0000
1000
0000
0010
0100
0000
0001
1000
0000
0100
0000
,
0010
0000
0100
0000
1000
0001
0000
0001
0000
0101
0000
1001
0000
0000
0000
0000
,
0010
0010
1000
1000
0001
0001
0010
0010
,
0100
1000
0100
0010
2002
0000
0000
0000
,
0000
0000
0000
0000
,
0000
0000
0000
3003
0000
0000
0000
0000
;

//---------------dance-single - ----------------
#NOTES:
     dance-single:
     :
     Beginner:
     2:
     0.149066,0.222340,0.041462,0.000000,0.000000,151.000000,145.000000,6.000000,0.000000,0.000000,0.000000,0.149066,0.222340,0.041462,0.000000,0.000000,151.000000,145.000000,6.000000,0.000000,0.000000,0.000000:
// measure 0
0000
0000
0000
0000
,  // measure 1
0000
0000
0000
0000
,  // measure 2
0000
0000
0000
0000
,  // measure 3
0000
0000
0000
0000
,  // measure 4
0000
0000
0000
0000
,  // measure 5
0000
0000
0000
0000
,  // measure 6
0000
0000
0000
0000
,  // measure 7
0000
0000
0000
0000
,  // measure 8
1000
0000
0000
0000
,  // measure 9
0001
0000
0000
0000
,  // measure 10
1000
0000
0000
0000
,  // measure 11
0010
0010
0010
0000
,  // measure 12
1000
0000
0000
0000
,  // measure 13
0100
0000
0000
0000
,  // measure 14
0010
0000
0000
0000
,  // measure 15
0001
0000
1000
0000
,  // measure 16
0010
0010
0010
0000
,  // measure 17
0100
0100
0100
0000
,  // measure 18
0010
0010
0010
0000
,  // measure 19
1000
0001
1000
0001
,  // measure 20
1001
0000
1000
0000
,  // measure 21
0000
0100
0100
0000
,  // measure 22
0010
0000
0010
0000
,  // measure 23
0010
0010
0010
0000
,  // measure 24
0001
0000
0001
0000
,  // measure 25
0000
0100
0100
0000
,  // measure 26
0010
0000
0010
0000
,  // measure 27
0010
0010
0010
0000
,  // measure 28
1000
0000
0001
0000
,  // measure 29
0100
0100
0100
0000
,  // measure 30
0001
0000
1000
0000
,  // measure 31
0010
0010
0010
0000
,  // measure 32
1000
0000
0001
0000
,  // measure 33
0010
0010
0010
0000
,  // measure 34
0001
0000
1000
0000
,  // measure 35
0100
0100
0100
0000
,  // measure 36
0110
0000
0000
0000
,  // measure 37
0001
0000
0000
0000
,  // measure 38
1000
0000
0000
0000
,  // measure 39
0010
0000
0000
0000
,  // measure 40
1000
0000
0100
0000
,  // measure 41
1000
0000
0010
0000
,  // measure 42
0100
0000
0001
0000
,  // measure 43
0010
0010
0010
0000
,  // measure 44
0001
0001
0001
0000
,  // measure 45
1000
1000
1000
0000
,  // measure 46
0100
0100
0100
0000
,  // measure 47
1000
0001
1000
0001
,  // measure 48
0000
1001
1000
0000
,  // measure 49
0010
0010
0010
0000
,  // measure 50
1000
0000
0100
0000
,  // measure 51
0010
0010
0010
0000
,  // measure 52
0001
0000
0100
0000
,  // measure 53
0010
0010
0010
0000
,  // measure 54
1000
0000
0001
0000
,  // measure 55
0100
0100
0000
0110
,  // measure 56
0010
0000
1000
0000
,  // measure 57
0001
0000
1000
0000
,  // measure 58
0100
0100
0100
0000
,  // measure 59
0010
0000
0001
0000
,  // measure 60
1001
0000
1000
0000
,  // measure 61
0010
0000
0100
0000
,  // measure 62
0010
0010
0010
0000
,  // measure 63
1000
0000
0001
0000
,  // measure 64
0010
0000
0100
0000
,  // measure 65
1000
0000
0001
0001
,  // measure 66
0001
0000
1000
0000
,  // measure 67
1000
0000
0010
0000
,  // measure 68
0010
0000
1000
0000
,  // measure 69
0100
0000
0010
0010
,  // measure 70
0010
0000
0001
0000
,  // measure 71
1000
0001
1001
0000
;

//---------------dance-single - ----------------
#NOTES:
     dance-single:
     :
     Easy:
     7:
     0.274439,0.329579,0.027641,0.027641,0.034552,278.000000,274.000000,4.000000,4.000000,0.000000,0.000000,0.274439,0.329579,0.027641,0.027641,0.034552,278.000000,274.000000,4.000000,4.000000,0.000000,0.000000:
0000
0000
0000
0000
,
0000
0000
0000
0000
,
0000
0000
0000
0000
,
0000
0000
0000
0000
,
0000
0000
0000
0000
,
0000
0000
0000
0000
,
0000
0000
0000
0000
,
0000
0000
0000
0000
,
0000
1000
0100
0000
0100
0000
0000
0000
,
0000
0100
0010
0000
0010
0000
0000
0000
,
0000
0001
1000
0000
1000
0000
0000
0000
,
0000
1000
0001
0001
1000
1000
0001
0000
,
1000
0100
0010
0000
,
0001
0100
0010
0000
,
1000
0000
0001
0000
0010
0010
0000
0000
,
0001
1000
1000
0001
0001
1000
0000
0000
,
0010
0000
0100
0000
0001
0001
0001
0000
,
0010
0000
0100
0000
1000
1000
1000
0000
,
0010
0000
1000
0000
0001
0001
0001
0000
,
1000
0001
1000
0001
1000
0000
0010
0000
,
1010
1000
0001
0010
,
0100
0000
0010
0001
0010
0000
0100
0000
,
1000
0001
1000
0100
,
0010
0000
0100
1000
0100
0000
0010
0000
,
0101
0001
1000
0010
,
0100
0000
0010
1000
0010
0000
0100
0000
,
0001
1000
0001
0100
,
0010
0000
0100
0001
0100
0000
0010
0000
,
1000
0001
0010
0010
,
0001
1000
0100
0100
,
1000
0000
0001
0000
1000
0000
0000
0000
0010
0000
0000
0010
0000
0000
0000
0000
,
0100
0000
0000
0000
0001
0000
0100
0000
0010
0000
0000
0010
0000
0000
0000
0000
,
1000
0001
0100
0100
,
0001
1000
0010
0010
,
1000
0000
0001
0000
1000
0000
0000
0000
0100
0000
0000
0100
0000
0000
0000
0000
,
0010
0000
0000
0000
0001
0000
0010
0000
0100
0000
0000
0100
0000
0000
0000
0000
,
2000
0000
0000
0000
,
0000
0000
0000
0000
,
0002
0000
3000
1000
,
1000
2000
0000
3003
,
0000
0001
0100
0000
0100
0000
0000
0000
,
0000
0100
0010
0000
0010
0000
0000
0000
,
1000
0010
1000
0001
,
0010
0000
0010
0000
0010
0000
0000
0000
0100
0000
0000
0100
0000
0000
0000
0000
,
0001
0000
0100
0000
0010
0010
0010
0000
,
1000
0000
0100
0000
0010
0010
0010
0000
,
0001
0000
0010
0000
0100
0100
0100
0000
,
1000
0001
1000
0001
1000
0000
0010
0100
,
0000
1001
1000
0010
,
1000
0000
0001
0010
0001
0000
1000
0000
,
0010
0100
0001
1000
,
0100
0000
1000
0001
1000
0000
0010
0100
,
0010
1000
0001
0010
,
0100
0000
1000
0100
1000
0000
0001
0000
,
0010
0001
0100
0010
,
1000
0001
1000
0001
0000
0000
1001
0000
,
1000
0100
0001
0100
,
1000
0001
0100
1000
,
0100
0000
0000
0000
0010
0000
0100
0000
0010
0000
0000
0010
0000
0000
0000
0000
,
1000
0100
0010
0001
,
1000
0010
0001
0010
,
1000
0001
0010
0100
,
1000
0000
0000
0000
0001
0000
1000
0000
0001
0000
0000
0001
0000
0000
0000
0000
,
0100
0000
0000
0000
0010
0000
0100
0000
0001
0000
0000
0001
0000
0000
0000
0000
,
1000
0000
1000
0010
0000
0010
1000
0001
,
1000
0100
0010
0001
,
1000
0000
0000
0000
0010
0000
1000
0000
0010
0000
0000
0010
0000
0000
0000
0000
,
1000
0001
0010
0100
,
1000
0000
0000
0000
0001
0000
0100
0000
0001
0000
0000
0001
0000
0000
0000
0000
,
1000
0010
0100
0001
,
0010
0100
1000
0010
,
1000
0001
1000
0001
0200
0000
0000
0000
,
0000
0000
0000
0000
,
0000
0000
0000
0300
0000
0000
0000
0000
;

//---------------dance-single - ----------------
#NOTES:
     dance-single:
     :
     Medium:
     9:
     0.355388,0.430988,0.082924,0.076014,0.114020,360.000000,348.000000,12.000000,11.000000,0.000000,0.000000,0.355388,0.430988,0.082924,0.076014,0.114020,360.000000,348.000000,12.000000,11.000000,0.000000,0.000000:
0000
0000
0000
0000
,
0000
0000
0000
0000
,
0000
0000
0000
0000
,
0000
0000
0000
0000
,
0000
0000
0000
0000
,
0000
0000
0000
0000
,
0000
0000
0000
0000
,
0000
0000
0000
0000
,
0000
1000
0010
1000
0001
0001
0000
0000
,
0000
0100
0100
0001
1000
0000
0000
0000
,
0000
0001
0010
0001
1000
1000
0000
0000
,
0000
0000
0100
0000
0010
0000
0100
0000
1000
0000
0100
0000
0010
0000
0000
0001
,
0000
0001
0100
0001
1000
0000
0000
0000
,
0000
0010
0010
1000
0001
0000
0000
0000
,
0010
0000
0000
0010
0000
0000
0100
0000
0010
0000
0100
0000
0000
0000
0000
0000
,
1000
0000
0010
0000
1000
0000
0000
1000
0000
0000
0001
0000
0000
0000
0000
0000
,
0001
0010
0100
1000
0001
0001
0001
0000
,
1000
0010
0100
0001
1000
1000
1000
0000
,
0010
1000
0001
0010
0100
0100
0100
0010
,
0001
1000
0001
1000
0001
0010
0010
0010
,
0200
0000
1300
0000
0010
1000
0001
0000
,
0010
0000
0100
0000
0010
0001
1000
0000
,
0200
0000
0310
0000
0100
1000
0001
0000
,
0010
0000
0001
0000
0100
0001
0001
0001
,
0020
0000
0031
0000
0100
0001
1000
0000
,
0010
0000
0100
0000
0010
1000
0001
0000
,
2000
0000
3010
0000
0100
0001
1000
0000
,
0100
0000
0010
0001
0010
0000
0110
0000
,
1000
0100
0001
0100
1000
0000
0101
0000
,
0001
0100
1000
0100
0001
0000
0011
0000
,
0010
0000
0100
0000
0010
0000
0100
0000
0100
0000
0000
0100
0000
0000
0000
0000
,
1000
0000
0001
0000
1000
0000
0100
0000
0010
0000
0000
0010
0000
0000
0000
0000
,
0001
0100
1000
0100
0001
0000
1100
0000
,
1000
0100
0001
0100
1000
0000
1010
0000
,
1000
0000
0010
0000
0100
0000
0010
0000
0010
0000
0000
0010
0000
0000
0000
0000
,
1000
0000
0001
0000
1000
0000
0010
0000
0010
0000
0000
0100
0000
0000
0000
0000
,
0002
0000
0000
0000
,
0000
0000
0000
0000
,
2000
0000
0003
0001
,
0001
0002
0000
3003
,
0000
0010
0100
1000
1000
0000
0000
0000
,
0000
0010
0100
0001
0001
0000
0000
0000
,
1000
0000
0001
0000
1000
0000
0001
0000
1000
0000
0000
1000
0001
0000
0000
0000
,
0010
0000
0100
0000
0010
0000
0100
0000
0010
0000
0000
0010
0000
0000
0000
0000
,
0001
0100
0010
1000
0001
0001
0001
0000
,
1000
0100
0010
0001
1000
1000
1000
0000
,
0010
1000
0001
0100
0010
0010
0010
1000
,
0001
1000
0001
1000
0001
0100
0100
0100
,
0010
0000
1001
0000
0001
0010
1000
0000
,
0010
0000
0001
0000
1000
0100
0001
0000
,
0100
0000
1000
0000
0010
1000
0001
0000
,
0100
0000
0001
0000
0010
0100
0100
0100
,
0010
0000
0001
0000
1000
0100
0001
0000
,
0100
0000
1000
0000
0001
0010
1000
0000
,
0010
0000
0001
0000
0100
0001
1000
0000
,
0010
0100
0010
0100
0000
0100
1001
0000
,
0001
0100
0010
0100
0001
0000
0011
0000
,
0010
0000
0010
0000
0000
0100
0000
0100
0000
0000
0000
1000
0000
0000
1000
0000
,
0010
0000
0100
0000
0010
0000
1000
0000
1000
0000
0000
0001
0000
0000
0000
0000
,
0010
0100
0010
0000
0001
0010
0100
0000
,
1000
0100
0010
0100
1000
0000
1010
0000
,
0010
0000
0010
0000
0000
0100
0000
0100
0000
0000
0000
0001
0000
0000
0001
0000
,
0010
0000
0100
0000
0010
0000
0001
0000
0001
0000
0000
1000
0000
0000
0000
0000
,
0100
0000
0010
0000
0100
0000
0000
0000
1000
0000
0000
1000
0100
0000
0010
0000
,
0001
0000
0000
0001
0000
0000
1000
0000
0000
1000
0000
0000
0001
0000
0000
0001
,
0000
0000
0000
0000
0000
1000
0000
0100
0000
0010
0000
0001
0000
0000
0000
0000
,
2100
0000
0001
0000
0010
0010
3010
0000
,
0100
0000
0000
0000
0000
0001
0000
0100
0000
0010
0000
1000
0000
0000
0000
0000
,
0102
0000
1000
0000
0010
0010
0013
0000
,
0100
0000
0000
0000
0000
1000
0000
0010
0000
0100
0000
0001
0000
0000
0000
0000
,
0010
0001
0010
0100
0010
0100
1000
0100
,
1000
0100
0010
0001
2002
0000
0000
0000
,
0000
0000
0000
0000
,
0000
0000
0000
3003
0000
0000
0000
0000
;
