#TITLE:San Diego;
#SUBTITLE:;
#ARTIST:South Park;
#TITLETRANSLIT:;
#SUBTITLETRANSLIT:;
#ARTISTTRANSLIT:;
#CREDIT:;
#BANNER:San Diego.png;
#BACKGROUND:San Diego-bg.png;
#LYRICSPATH:;
#CDTITLE:;
#MUSIC:San Diego.ogg;
#OFFSET:-0.911;
#SAMPLESTART:56.608;
#SAMPLELENGTH:11.000;
#SELECTABLE:YES;
#BPMS:0.000=113.000,16.000=112.000,44.000=111.300,56.000=110.700,68.000=112.360,84.000=110.000,88.000=113.000,104.000=110.400,112.000=111.300,116.000=112.380,132.000=111.100,136.000=113.000,152.000=111.600,192.000=112.000,200.000=113.000,208.000=112.000,212.000=110.500,231.000=108.160;
#STOPS:;
#BGCHANGES:;

//---------------dance-single - ----------------
#NOTES:
     dance-single:
     :
     Challenge:
     14:
     0.747,0.840,0.347,0.177,0.893:
0000
0000
0000
0000
,
0000
0000
0000
0000
,
0000
0000
0000
0000
,
0000
0000
0000
0000
,
1000
0100
0010
0100
0001
0001
0100
1000
,
0010
0000
0000
0100
0000
0000
1000
0000
0100
0000
0000
0000
0010
0000
0000
0000
1000
0000
0000
0000
0001
0000
0000
0001
,
0010
0000
0010
0001
0000
0000
1000
0000
0000
0010
0000
0000
0100
0000
0000
1000
0100
0000
0000
0000
0100
0001
0000
0000
,
0010
0000
0000
0100
0000
0001
0000
0000
0001
0100
0000
0000
1000
0000
0000
0010
0000
0000
0010
0000
0100
0010
0000
0000
,
2010
0100
0001
3001
0020
1000
0100
0031
,
2000
0000
0000
3010
0000
0100
0000
0000
0001
0100
0000
0000
0010
0000
0000
0100
0000
0000
1000
0000
0000
0001
0000
0000
,
0110
0000
0000
0000
0000
0000
0100
0000
0000
0001
0000
0000
1000
0000
0000
0000
0000
0000
0100
0000
0000
0000
0000
0000
0001
0000
0000
0000
0000
0000
0001
0000
0000
0000
0200
0000
0000
0000
0300
0000
0100
0000
1000
0000
0000
0000
1000
0000
,
0001
0000
0000
1001
0000
0000
0000
1000
0001
0000
0000
0000
0100
0000
0000
0100
0000
0000
1000
0000
0000
0100
0000
0000
,
0010
0000
1000
1000
0000
0000
0001
0000
0010
0010
0000
0000
0100
0000
1000
1000
0000
0001
0000
0000
0001
0010
0000
0000
,
0110
0000
1000
0100
0000
0000
0010
0000
0001
0001
0000
0000
1001
0000
0100
0010
0000
1001
0000
0000
0000
0001
0000
0000
,
1001
0000
1000
0010
0000
0000
0010
0000
0000
0100
0000
0000
1000
0000
0000
0100
0000
0000
0001
0000
0000
0010
0000
0100
,
1000
0000
0000
0010
0000
0000
0001
0000
0000
0010
0000
1000
0100
0000
0000
0000
0000
0010
0000
0000
0010
0100
0000
0100
,
0001
0000
0001
1000
0000
0000
0010
0000
0000
0010
0000
0000
0001
0000
0000
1000
0000
0000
0010
0000
0000
0001
0000
0000
,
0010
0000
1000
0000
0000
0100
0010
0000
0000
0001
0000
0000
0100
0000
0000
0000
0000
0010
0000
0000
1000
0100
0000
0100
,
0020
0001
1000
0031
0200
1000
0010
0301
,
0020
0000
0000
1000
0000
0000
0100
0000
0000
0031
0000
0000
0020
0000
0000
0100
0000
0000
0031
0000
1000
0010
0000
0100
,
0010
0000
0000
0000
0000
0000
0001
0000
0000
0010
0000
0000
0100
0000
0000
0000
0000
0000
0010
0000
0000
0000
0000
0000
1001
0000
0000
0000
0000
0000
0001
0000
0000
0000
1000
0000
0000
0000
0000
0000
0010
0000
0100
0000
0000
0000
0100
0000
,
0001
0000
0000
0011
0000
0000
0000
0000
0010
0100
0000
0000
1000
0000
0000
0010
0000
0000
0010
0000
0000
0100
0000
0000
,
0001
0000
0001
0000
0000
0000
1000
0000
1000
0000
0000
0000
0100
0000
0010
0100
0000
0010
0000
0000
0000
0000
0000
0000
,
0011
0000
0001
0100
0000
0000
1010
0000
1000
0100
0000
0000
0011
0000
0001
1000
0000
1010
0000
0000
0010
0100
0000
0000
,
1002
0000
1000
1003
0000
0000
2001
0000
0001
3001
0000
0000
1001
0000
0100
0010
0000
0110
0000
0000
0000
0000
0000
0000
,
0120
0000
0100
0130
0000
0000
0210
0000
0010
0310
0000
0000
0120
0000
0130
0010
0000
0110
0000
0000
1000
0001
0000
0000
,
1001
0000
0000
1000
0000
0000
1000
0000
0000
0010
0000
0000
0100
0000
0000
1000
0100
0000
0000
0000
0001
1000
0000
0001
,
1000
0000
0000
1000
0000
0000
1000
0000
0000
0100
0000
0000
0010
0000
0000
1000
0000
0010
0000
0000
0010
0001
0000
0100
,
0010
0000
0000
0001
0000
0000
0001
0000
0000
0010
0000
0000
0100
0000
0000
0001
0000
0010
0000
0000
0100
0010
0000
0100
,
0001
0000
0000
0001
0000
0000
0001
0000
0100
0010
0000
0100
1000
0000
0001
0000
0000
1000
0000
0010
0100
0000
0000
0000
,
0001
0000
0000
0010
0000
0000
0010
0000
0000
1000
0000
0000
0010
0000
0000
0001
1000
0000
0000
0000
0010
0001
0000
0010
,
0100
0000
0000
0100
0000
0000
0100
0000
0000
0001
0000
0000
1000
0000
1000
0000
0000
0100
0000
0000
0100
0010
0000
0010
,
0001
0000
0000
0001
0000
0000
1000
0000
0000
1000
0000
0000
0010
0000
0000
0100
1000
0100
0010
0000
0010
1000
0000
1000
,
0001
0000
0000
0000
0000
0000
0000
0000
0010
1000
0000
0000
0010
0000
0000
0001
0000
0000
0100
0000
0000
0010
0000
0000
,
1010
0000
1000
1000
0000
0000
1001
0000
0001
0001
0000
0000
0011
0000
0001
0001
0000
1001
0000
0000
0000
0000
0000
0000
,
1010
0000
1000
0100
0000
0000
0011
0000
0001
0100
0000
0000
0110
0000
1000
0100
0000
0110
0000
0000
0010
0100
0000
0010
,
0001
0000
1000
0010
0000
0000
0100
0000
0001
1000
0000
0000
0100
0000
1000
0001
0000
1001
0000
0000
0001
1000
0000
0000
,
1010
0000
1000
0100
0000
0000
0021
0000
1030
0010
0000
0000
0011
0000
1000
0100
0000
0011
0000
0000
0001
1000
0000
0010
,
0100
0000
0000
0000
0000
0000
0000
0000
0000
0000
0000
0000
0000
0000
0000
0000
0000
0000
0000
0000
0000
0000
0000
0000
0001
0000
0000
0000
0000
0000
0000
0000
0000
0000
0000
0000
0010
0000
0000
0000
0000
0000
0000
0000
0000
0000
0000
0000
0000
0000
0000
0000
0000
0000
0000
0000
0000
0000
0000
0000
0010
0000
0000
0000
0000
0000
0000
0000
0000
0000
0000
0000
1000
0000
0000
0000
0000
0000
0000
0000
0000
0000
0000
0000
0000
0000
0000
0000
0000
0000
0000
0000
0000
0000
0000
0000
1000
0000
0000
0000
0000
0000
0000
0000
0000
0000
0000
0000
0000
0000
0000
0000
0010
0000
0000
0000
0000
0000
0000
0000
0001
0000
0000
0000
0000
0000
0000
0000
0000
0000
0000
0000
0000
0000
0000
0000
0000
0000
1000
0000
0000
0000
0000
0000
0000
0000
0000
0000
0000
0000
0000
0000
0000
0000
0000
0000
0000
0000
0000
0000
0000
0000
0000
0000
0000
0000
0000
0000
0010
0000
0000
0000
0000
0000
0000
0000
0000
0000
0000
0000
0000
0000
0000
0000
0000
0000
0000
0000
0000
0000
0000
0000
,
0200
0000
0000
1300
0000
0000
0100
0000
0010
0000
0000
0100
0000
0000
0000
0010
0000
0100
0010
0000
0100
0010
0000
0100
,
0001
0000
0000
0000
0000
0000
0001
0000
0000
0000
0000
0000
1000
0000
0000
0000
0000
0000
0100
0000
0000
0000
0000
0000
0020
0000
0000
0000
0000
0000
0000
0000
0000
1000
0000
0000
0000
0000
0000
0000
0000
0000
1030
0000
0000
0000
1000
0000
,
0010
0000
0000
0100
0000
0000
1000
0000
0001
0000
0000
0001
1000
0000
0001
1000
0000
0001
1000
0000
0001
1000
0000
0001
,
2000
0010
0001
0100
3002
0010
1000
0100
,
0023
0000
0000
1000
0000
0000
0100
0000
0000
0031
0000
0000
1000
0000
0010
1000
0000
0010
1000
0000
0010
1000
0000
0010
,
0100
0000
0000
0100
0000
1000
0100
0000
0010
0100
0000
0001
0100
0000
0010
0100
0000
1000
0100
0000
0010
0100
0000
0001
,
1000
0000
0000
1001
0000
0000
0000
0000
0010
0100
0000
0000
1000
0000
0000
0010
0000
0000
0010
0000
0000
0100
0000
0000
,
0001
0000
0001
0001
0000
0000
1000
0000
1000
1000
0000
0000
0010
0000
0100
0010
0000
0110
0000
0000
0010
0100
0000
0010
,
0100
0000
0001
1000
0000
0000
0110
0000
1000
0001
0000
0000
0110
0000
0001
1000
0000
0110
0000
0000
0001
1000
0000
0001
,
1000
0000
1000
0100
0000
0100
0001
0000
0001
0100
0000
0100
1000
0000
1000
0010
0000
0010
0001
0000
0001
0010
0000
0000
,
0010
0000
0100
0010
0000
1000
0001
0000
1000
0001
0000
0010
0100
0000
0010
0100
0000
1000
0001
0000
0001
1000
0000
0000
,
1010
0000
0010
0100
0000
0001
1000
0000
0100
0010
0000
0001
1000
0000
0010
0100
0000
0001
1000
0000
0100
0010
0000
0000
,
0011
0000
1000
0100
0000
0100
0010
0000
0010
0001
0000
0001
1000
0000
0010
0100
0000
1001
0000
0000
1000
0100
0000
0100
,
0010
0000
0010
0001
0000
0001
1000
0000
0000
1001
0000
0000
1000
0000
0010
1000
0000
0001
0100
0000
0100
1000
0000
1000
,
0100
0000
0100
0010
0000
0010
1000
0000
1000
0100
0000
0100
0001
0000
0001
0100
0000
0100
0010
0000
0010
0001
0000
0000
,
0001
0000
1000
0010
0000
0100
1000
0000
0100
0010
0000
1000
0100
0000
0010
1000
0000
0010
0100
0000
1000
0001
0000
0001
,
0100
0000
0010
0001
0000
0010
0100
0000
0001
0010
0000
0100
0010
0000
0001
1000
0000
0010
0100
0000
0001
0010
0000
0100
,
1000
0000
0010
1000
0000
0000
0001
0000
0010
0001
0000
0000
1000
0000
0001
1000
0000
0000
1000
0000
0001
1000
0000
0000
,
1000
0100
1000
0100
0010
0001
0010
0001
0100
0001
0100
0001
1000
0010
1000
0010
0000
2002
0000
0000
0000
0000
0000
0000
,
0000
0000
0003
3000
0001
1000
0001
1000
0001
1000
0001
2000
0002
0000
0000
0000
0000
0000
0003
0000
0000
0000
0000
0000
,
3000
0000
0000
0000
;

//---------------dance-single - ----------------
#NOTES:
     dance-single:
     :
     Hard:
     13:
     0.637,0.727,0.339,0.077,0.601:
0000
0000
0000
0000
,
0000
0000
0000
0000
,
0000
0000
0000
0000
,
0000
0000
0000
0000
,
1000
0100
0010
1000
0010
0010
0001
1000
,
0010
0000
0000
0100
0000
0000
1000
0000
0000
0100
0000
0000
0001
0000
0000
0000
0010
0000
0000
0000
0010
0000
0000
0010
,
0100
0000
0000
0000
0010
0000
0100
0000
0000
0000
0000
0000
1000
0000
0000
0000
0010
0000
1000
0000
0000
0000
0000
0000
0010
0000
0000
0000
0000
0000
0100
0000
0000
1000
0000
0000
0000
0000
0000
1000
0000
0000
0100
0000
0000
0000
0000
0000
,
0001
0000
0000
0000
0000
0000
0001
0000
0000
0010
0000
0000
0000
0000
0000
0010
0000
0000
0001
0000
0000
0000
0000
0000
1000
0000
0000
0000
0000
0000
0000
0000
0000
0000
0000
0000
1001
0000
0000
0000
1000
0000
0001
0000
0000
0000
0000
0000
,
0100
0000
0000
1000
0000
0000
0100
0000
0010
0100
0000
0000
0001
0000
0000
1000
0000
0100
0000
0000
0100
0010
0000
0000
,
0001
0000
0000
0001
0000
1000
0000
0000
0000
0010
0000
0000
0002
0000
0000
0000
0000
0000
0013
0000
0000
0000
0000
0000
,
1000
0000
0001
1000
0001
0000
0010
0000
0100
0000
1000
0002
0000
0000
0103
0000
,
0010
0000
0000
1001
0000
0000
0000
0000
1000
0001
0000
0000
1000
0000
0000
0100
0000
0000
0100
0000
0000
0010
0000
0000
,
0001
0000
0001
0100
0000
0000
0010
0000
0010
1000
0000
0000
0001
0000
1000
0001
0000
1000
0000
0000
0000
0000
0000
0000
,
1010
0000
1000
0001
0000
0000
0010
0000
0001
1000
0000
0000
1010
0000
0010
0100
0000
0001
1000
0000
0000
0100
0000
0000
,
0010
0000
0100
0010
0000
0000
1000
0000
0000
0010
0000
0000
0001
0000
0000
1000
0000
0000
0010
0000
0000
0100
0000
1000
,
0100
0000
0000
0100
0000
0000
0001
0000
0000
0010
0000
0000
0100
0000
0000
0000
0000
0010
0000
0000
0001
1000
0000
0001
,
0100
0000
0000
0000
0001
0000
0100
0000
0000
0000
0000
0000
0010
0000
0000
0000
0000
0000
0010
0000
0000
0000
0000
0000
1000
0000
0000
0000
0000
0000
0000
0000
0000
1000
0000
0000
0000
0000
0000
0000
0000
0000
1000
0000
0000
0000
0000
0000
,
0100
0000
0000
0010
0000
1000
0010
0000
0000
0001
0000
0000
0100
0000
0000
0000
0000
0010
0000
0000
0100
0010
0000
0100
,
0010
0000
0000
0000
0000
0000
0001
0000
0000
0010
0000
0000
0001
0000
0000
0000
0000
0000
0010
0000
0000
0000
0000
0000
0100
0000
0000
0000
0000
0000
1000
0000
0000
0000
0100
0000
0000
0000
0000
0000
0000
0000
0001
0000
0000
0000
0000
0000
,
0010
0000
0000
0100
0000
0000
1000
0000
0000
0100
0000
0000
0020
0000
0000
0000
0000
0000
0031
0000
0000
0000
0000
0001
,
1000
0000
0000
1000
0000
0010
0100
0000
0000
0001
0000
0000
0001
0000
0000
0010
0000
0200
0000
0000
0000
1300
0000
0000
,
0001
0000
0000
1001
0000
0000
0000
0000
0010
0100
0000
0000
0001
0000
0000
0001
0000
0000
1000
0000
0000
0100
0000
0000
,
1000
0000
0100
0000
0000
0000
0001
0000
0100
0000
0000
0000
1000
0000
0001
1000
0000
0001
0000
0000
0000
0000
0000
0000
,
1001
0000
0001
0100
0000
0000
1001
0000
1000
0100
0000
0000
1001
0000
0001
0010
0000
0110
0000
0000
0000
0000
0000
0000
,
0100
0000
0010
0100
0000
0000
0100
0000
0010
0100
0000
0000
0100
0000
0010
0100
0000
1000
0000
0000
0000
0000
0000
0000
,
0010
0010
0010
0010
0020
0000
0001
0100
,
1030
0100
0100
0001
0100
1000
0010
0100
,
0001
0000
0000
0001
0000
0000
0001
0000
0000
0010
0000
0000
0100
0000
0000
0000
0000
1000
0000
0000
1000
0000
0000
0001
,
1000
0010
0010
0001
0010
0100
0001
1000
,
0100
0000
0000
0100
0000
0000
0100
0000
0000
0010
0000
0000
0001
0000
0010
0000
0000
0100
0000
0000
0100
0010
0000
0100
,
0010
0001
0001
0100
1000
0100
0010
1000
,
0001
0000
0000
0001
0000
0000
0001
0000
0000
0010
0000
0000
1000
0000
0010
0000
0000
0100
0000
0000
1000
0001
0000
1000
,
0001
0000
0000
0001
0000
0000
1000
0000
0000
1000
0000
0000
0010
0000
0000
0100
0000
1000
0000
0000
0100
0010
0000
0100
,
0001
0000
0000
1000
0000
0000
0000
0000
0100
0010
0000
0000
0100
0000
0000
1000
0000
0000
0010
0000
0000
0100
0000
0000
,
0001
0000
0001
1000
0000
0000
1000
0000
1000
0001
0000
0000
0010
0000
0100
0010
0000
0100
0000
0000
0000
0000
0000
0000
,
0110
0000
0001
1000
0000
0000
0110
0000
1000
0001
0000
0000
0010
0000
0100
1000
0000
0001
0000
0000
0000
0000
0000
0001
,
1000
0000
1000
0100
0000
0000
0001
0000
0001
0100
0000
0000
1000
0000
1000
0010
0000
0100
0000
0000
0000
0000
0000
0000
,
1001
0000
0001
1000
0000
0000
0100
0000
0100
0010
0000
0000
0110
0000
0001
1000
0000
0001
0000
0000
0000
0000
0000
0000
,
1000
0000
0000
0000
0000
0000
0010
0000
0000
0100
0000
0000
0000
0000
0000
0100
0000
0000
1000
0000
0000
0000
0000
0000
1000
0000
0000
0000
0100
0000
0010
0000
0000
0000
1000
0000
0000
0000
0000
0000
0000
0000
1000
0000
0000
0000
0000
0000
,
0200
0000
0000
0301
0000
0000
0100
0000
0000
1000
0000
0001
0000
0000
0000
0100
0000
0000
0001
0000
1000
0001
0000
1000
,
0001
0000
0000
0000
0000
0000
0010
0000
0000
0000
0000
0000
0100
0000
0000
0000
0000
0000
1000
0000
0000
0000
0000
0000
0020
0000
0000
0000
0000
0000
0000
0000
0000
0031
0000
0000
0000
0000
0000
0000
0000
0000
0010
0000
0000
0000
0010
0000
,
0100
0000
0000
0100
0000
0001
1000
0000
0000
1000
0000
0100
0000
0000
0000
0010
0000
0001
1000
0000
0001
1000
0000
0001
,
1000
0000
0010
0100
0000
0000
0100
0000
0000
0001
0000
0000
0010
0000
0000
0100
0000
0000
1000
0000
0000
0100
0000
0000
,
0001
0000
0000
0001
0000
0000
0100
0000
0000
1000
0000
0000
0010
0000
0100
0010
0000
0100
0010
0000
0100
0010
0000
0100
,
0010
0010
1000
1000
0001
0001
0100
0100
,
0110
0000
0000
0010
0000
0000
0000
0000
1000
0001
0000
0000
1000
0000
0000
0100
0000
0000
0010
0000
0000
0001
0000
0000
,
1000
0000
0010
1000
0000
0000
0001
0000
0010
0001
0000
0000
1000
0000
0001
1000
0000
0001
0000
0000
0000
0000
0000
0000
,
1001
0000
0100
0010
0000
0000
1001
0000
0010
0100
0000
0000
1001
0000
0100
0010
0000
1001
0000
0000
0000
1000
0000
0000
,
0001
0000
0000
0011
0000
0000
1000
0000
0000
1010
0000
0000
1001
0000
0001
1000
0000
0000
1001
0000
1000
0100
0000
0000
,
0110
0000
0000
0110
0000
0000
1001
0000
0000
1001
0000
0000
1000
0000
0010
0100
0000
0000
0001
0000
0010
0100
0000
0000
,
1100
0000
0000
1001
0000
0000
0101
0000
0000
1001
0000
0000
1010
0000
0010
0100
0000
0000
0001
0000
0000
0000
0000
0000
,
0011
0000
0000
0001
0000
0000
1001
0000
0000
0001
0000
0000
0101
0000
0100
0010
0000
1000
0000
0000
0000
0000
0000
0000
,
0010
0000
1000
0001
0000
1000
0001
0000
0000
1001
0000
0000
1001
0000
0001
1000
0000
0001
1000
0000
0000
1000
0000
0000
,
0100
0000
0010
0100
0000
0010
0100
0000
0000
0110
0000
0000
1000
0000
0001
1000
0000
0001
1000
0000
0000
1000
0000
0000
,
0010
0000
0100
0010
0000
0100
0010
0000
0000
0110
0000
0000
1000
0000
0001
1000
0000
0001
1000
0000
0001
1000
0000
0010
,
0100
0000
0010
0100
0000
0001
1000
0000
0001
1000
0000
0010
0100
0000
0001
1000
0000
0001
0000
0000
0000
0000
0000
0000
,
1100
0000
0001
0100
0000
0000
0101
0000
1000
0100
0000
0000
0011
0000
0000
1001
0000
0000
1010
0000
0010
0100
0000
0000
,
0001
0000
0100
0010
0000
1000
0100
0000
0010
0001
0000
0100
0010
0000
1000
0001
0000
1002
0000
0000
0000
1000
0000
0000
,
0103
0000
0000
0000
0001
1000
0001
1000
0001
1000
0001
2000
0002
0000
0000
0000
0000
0000
0003
0000
0000
0000
0000
0000
,
3000
0000
0000
0000
;

//---------------dance-single - ----------------
#NOTES:
     dance-single:
     :
     Medium:
     11:
     0.498,0.591,0.578,0.015,0.023: // measure 1
0000
0000
0000
0000
,  // measure 2
0000
0000
0000
0000
,  // measure 3
0000
0000
0000
0000
,  // measure 4
0000
0000
0000
0000
,  // measure 5
1000
0010
0100
0001
0010
0010
0001
1000
,  // measure 6
0001
0000
0000
0001
0000
0000
0000
0000
0100
0000
0000
0000
0010
0000
0000
0000
0000
0000
1000
0000
0000
0001
0000
0000
,  // measure 7
0010
0000
0000
0010
0000
0000
0100
0000
0000
1000
0000
0000
0001
0000
0000
0000
0000
0001
0000
0000
0000
0000
0000
0000
,  // measure 8
0010
0001
1000
0010
0100
0000
0100
0100
,  // measure 9
0100
0001
1000
0001
0010
0010
0100
0000
,  // measure 10
0100
1000
0100
0010
0001
0000
0000
0000
,  // measure 11
0001
0001
0001
0010
0100
1000
0010
1000
,  // measure 12
1001
0001
0000
0100
0010
0000
0010
0100
,  // measure 13
0001
0001
0010
0010
1000
1000
1010
0000
,  // measure 14
0010
0010
0100
0100
1000
1000
1010
0000
,  // measure 15
0010
0100
0010
0010
1000
0001
0100
0010
,  // measure 16
1000
0100
0001
0100
1000
0000
1000
0001
,  // measure 17
0101
0100
0010
1000
0001
0000
1000
0001
,  // measure 18
0100
1000
0001
1000
0100
0000
0010
0010
,  // measure 19
1000
0001
0010
0010
0100
1000
0100
0010
,  // measure 20
0001
0001
1000
0010
0100
0010
0000
0010
,  // measure 21
0100
0001
0001
0010
0100
1000
0100
0010
,  // measure 22
1001
0001
0000
0100
0010
0000
0010
1000
,  // measure 23
0100
0000
0100
0000
0110
0001
1001
0000
,  // measure 24
0001
0001
1000
1000
0010
0010
0110
0000
,  // measure 25
1000
1000
0100
0100
0001
0001
0101
0000
,  // measure 26
0100
0100
0100
0100
0020
0000
0000
0000
,  // measure 27
0031
1000
1000
0010
0100
0001
1000
0000
,  // measure 28
1000
1000
1000
0100
0010
0000
0010
0001
,  // measure 29
1000
0010
0010
0100
1000
0100
0001
0000
,  // measure 30
0010
0010
0100
1000
0001
0000
0001
0001
,  // measure 31
0100
1000
1000
0100
0010
1000
0100
0000
,  // measure 32
0010
0010
0001
1000
0010
0000
0000
0000
,  // measure 33
0010
0010
0100
0100
0001
1000
0100
1000
,  // measure 34
1001
0001
0000
0100
0010
1000
0100
0010
,  // measure 35
0001
0001
0100
0100
1000
1000
1100
0000
,  // measure 36
0100
0100
0010
0010
1000
1000
1010
0000
,  // measure 37
1010
1000
1001
1000
1010
1000
1010
0000
,  // measure 38
0011
0001
1001
0001
0011
0001
0011
0000
,  // measure 39
0001
0010
1000
0010
0100
1000
0010
0100
,  // measure 40
1000
0000
0000
1000
0000
0000
0100
0000
0000
0010
0000
0100
0000
0000
0000
0000
0000
0000
0100
0000
0000
0100
0000
0000
,  // measure 41
0100
0000
0001
0000
0010
0000
0100
0000
1000
0000
0000
1000
0000
0000
1000
0000
,  // measure 42
0100
0000
0000
0100
0000
0000
0010
0000
0000
0001
0000
0010
0000
0000
0000
0000
0000
0000
0001
0000
0000
0001
0000
0000
,  // measure 43
1001
1000
0010
0100
1001
0001
0010
0100
,  // measure 44
1001
1000
0010
0100
1001
0001
1000
1000
,  // measure 45
0010
0100
0001
0010
1000
0010
0001
0100
,  // measure 46
0110
0010
0000
1000
0001
0010
0100
1000
,  // measure 47
0010
0010
0100
0100
0001
0001
1001
0000
,  // measure 48
1000
1000
0001
0001
1000
1000
1001
0000
,  // measure 49
1000
1010
0001
0011
0010
0100
0110
0000
,  // measure 50
0110
1000
0110
0001
0110
0100
1001
0000
,  // measure 51
1010
1001
1100
1000
1001
0001
0101
0000
,  // measure 52
0101
0011
1000
1000
1100
1010
1001
0000
,  // measure 53
1001
1000
1010
1001
0001
0100
0110
0000
,  // measure 54
1010
1001
0001
0100
0110
0101
1001
0000
,  // measure 55
1100
0100
0110
0100
0101
0110
1100
0000
,  // measure 56
0101
1000
1001
1010
1001
0001
1001
0000
,  // measure 57
0011
1001
1010
1001
0101
0110
1001
0000
,  // measure 58
1100
0000
0000
1001
0000
0000
1010
0000
0000
1001
0000
0000
0101
0000
0000
0100
0000
0020
0000
0000
0000
0000
0000
0000
,  // measure 59
0000
0000
0000
0000
,  // measure 60
0030
0000
0000
0000
;

//---------------dance-single - ----------------
#NOTES:
     dance-single:
     :
     Easy:
     7:
     0.278,0.386,0.308,0.108,0.081: // measure 1
0000
0000
0000
0000
,  // measure 2
0000
0000
0000
0000
,  // measure 3
0000
0000
0000
0000
,  // measure 4
0000
0000
0000
0000
,  // measure 5
1000
0010
0100
0100
,  // measure 6
0010
1000
0001
0000
,  // measure 7
0001
0010
1000
0010
,  // measure 8
0100
1000
0001
0000
,  // measure 9
0200
0000
1000
0300
0200
0000
0010
0300
,  // measure 10
0200
0001
1300
0000
,  // measure 11
0001
0010
1000
0100
,  // measure 12
0110
0000
0000
0000
,  // measure 13
1000
0000
0000
0000
0000
0000
1000
0000
0000
0000
0000
0000
1000
0000
0000
0000
0000
1000
0000
0000
0000
0000
0000
0000
,  // measure 14
0001
0000
0000
0000
0000
0000
0001
0000
0000
0000
0000
0000
0001
0000
0000
0000
0000
0001
0000
0000
0000
0000
0000
0000
,  // measure 15
0001
0100
1000
1000
,  // measure 16
0100
0010
1000
0000
,  // measure 17
1000
0100
0001
0100
,  // measure 18
0010
0001
0100
0000
,  // measure 19
0020
0000
0001
0030
0020
0000
0100
0030
,  // measure 20
0020
1000
0031
0000
,  // measure 21
0010
1000
0100
0010
,  // measure 22
1001
0000
0000
0000
,  // measure 23
0001
0000
0000
0000
0000
0000
0001
0000
0000
0000
0000
0000
0001
0000
0000
0000
0000
0001
0000
0000
0000
0000
0000
0000
,  // measure 24
1000
0000
0000
0000
0000
0000
1000
0000
0000
0000
0000
0000
1000
0000
0000
0000
0000
1000
0000
0000
0000
0000
0000
0000
,  // measure 25
1001
0000
0000
0000
0000
0000
1001
0000
0000
0000
0000
0000
1001
0000
0000
0000
0000
1001
0000
0000
0000
0000
0000
0000
,  // measure 26
1001
0010
2002
3000
,  // measure 27
1003
0100
0010
0100
,  // measure 28
1000
1000
0001
0000
,  // measure 29
0001
0100
1000
0100
,  // measure 30
0010
0010
1000
0000
,  // measure 31
1000
0100
0010
0100
,  // measure 32
0001
1000
0010
0000
,  // measure 33
0001
1000
0010
0100
,  // measure 34
1001
0000
0000
0000
,  // measure 35
1000
0000
0000
0000
0000
0000
1000
0000
0000
0000
0000
0000
1000
0000
0000
0000
0000
1001
0000
0000
0000
0000
0000
0000
,  // measure 36
1001
0000
0000
0000
0000
0000
0001
0000
0000
0000
0000
0000
1001
0000
0000
0000
0000
1001
0000
0000
0000
0000
0000
0000
,  // measure 37
1010
0000
0000
0000
0000
0000
1010
0000
0000
0000
0000
0000
1010
0000
0000
0000
0000
1010
0000
0000
0000
0000
0000
0000
,  // measure 38
0011
0000
0000
0000
0000
0000
1100
0000
0000
0000
0000
0000
0011
0000
0000
0000
0000
0011
0000
0000
0000
0000
0000
0000
,  // measure 39
0001
0100
0010
0001
,  // measure 40
0010
1000
0100
0000
,  // measure 41
0010
1000
0020
0031
,  // measure 42
1000
0010
0100
0100
,  // measure 43
2001
3010
1002
0013
,  // measure 44
1002
0100
0013
0010
,  // measure 45
0001
0100
1000
0010
,  // measure 46
1001
0000
0000
0000
,  // measure 47
1000
0000
0000
0000
0000
0000
1000
0000
0000
0000
0000
0000
1000
0000
0000
0000
0000
1000
0000
0000
0000
0000
0000
0000
,  // measure 48
0001
0000
0000
0000
0000
0000
0001
0000
0000
0000
0000
0000
0001
0000
0000
0000
0000
0001
0000
0000
0000
0000
0000
0000
,  // measure 49
1000
0000
0000
0000
0000
0000
1000
0000
0000
0000
0000
0000
1000
0000
0000
0000
0000
1001
0000
0000
0000
0000
0000
0000
,  // measure 50
0001
0000
0000
0000
0000
0000
0001
0000
0000
0000
0000
0000
0001
0000
0000
0000
0000
1001
0000
0000
0000
0000
0000
0000
,  // measure 51
1010
0000
0000
0000
0000
0000
1100
0000
0000
0000
0000
0000
1010
0000
0000
0000
0000
1001
0000
0000
0000
0000
0000
0000
,  // measure 52
0011
0000
0000
0000
0000
0000
0101
0000
0000
0000
0000
0000
0011
0000
0000
0000
0000
1001
0000
0000
0000
0000
0000
0000
,  // measure 53
1000
0000
0000
1000
0000
0000
0001
0000
0000
0001
0000
0000
1000
0000
0000
0000
0000
1001
0000
0000
0000
0000
0000
0000
,  // measure 54
0010
0000
0000
0010
0000
0000
0100
0000
0000
0100
0000
0000
0010
0000
0000
0000
0000
0110
0000
0000
0000
0000
0000
0000
,  // measure 55
1000
0000
0000
1000
0000
0000
1000
0000
0000
0000
0000
0000
1000
0000
0000
0000
0000
1001
0000
0000
0000
0000
0000
0000
,  // measure 56
0001
0000
0000
0001
0000
0000
0001
0000
0000
0000
0000
0000
0001
0000
0000
0000
0000
1001
0000
0000
0000
0000
0000
0000
,  // measure 57
1000
0000
0000
0000
0000
0000
0010
0000
0000
0000
0000
0000
0001
0000
0000
0000
0000
0001
0000
0000
0000
0000
0000
0000
,  // measure 58
0001
0000
0000
0000
0000
0000
0100
0000
0000
0000
0000
0000
1000
0000
0000
0000
0000
2002
0000
0000
0000
0000
0000
0000
,  // measure 59
0000
0000
0000
0000
,  // measure 60
3003
0000
0000
0000
;

//---------------dance-single - ----------------
#NOTES:
     dance-single:
     :
     Beginner:
     4:
     0.153,0.204,0.062,0.031,0.004:
0000
0000
0000
0000
,
0000
0000
0000
0000
,
0000
0000
0000
0000
,
0000
0000
0000
0000
,
1000
0000
0000
0000
,
1000
0000
1000
0000
,
0001
0000
0000
0000
,
0001
0000
0001
0000
,
0010
0000
0010
0000
,
0010
0000
0010
0000
,
0010
0000
0000
0000
,
1001
0000
0000
0000
,
1000
1000
1000
0000
,
0001
0001
0001
0000
,
0100
0000
0000
0000
,
0100
0000
0100
0000
,
0010
0000
0000
0000
,
0010
0000
0010
0000
,
1000
0000
1000
0000
,
1000
0000
1000
0000
,
1000
0000
0000
0000
,
0110
0000
0000
0000
,
0001
0001
0001
0000
,
1000
1000
1000
0000
,
0100
0100
0100
0000
,
0010
0010
0020
0000
,
0031
0000
0001
0000
,
1000
0000
1000
0000
,
0010
0000
0010
0000
,
0100
0000
0100
0000
,
0001
0000
0001
0000
,
0010
0000
0010
0000
,
1000
0000
1000
0000
,
0010
0000
0000
0000
,
0001
0001
0001
0000
,
0100
0100
0100
0000
,
0010
0010
0010
0000
,
1000
1000
1000
0000
,
1001
0000
0001
0000
,
0110
0000
1000
0000
,
1010
0000
1000
0000
,
1001
0000
0001
0000
,
0011
0000
0010
0000
,
0100
0000
1000
0000
,
0001
0000
0000
0000
,
1001
0000
0000
0000
,
1000
1000
1000
0000
,
0001
0001
0001
0000
,
0100
0100
0100
0100
,
0010
0010
0010
0010
,
1000
1000
1000
1000
,
0001
0000
0000
0000
0000
0000
0001
0000
0000
0000
0000
0000
0002
0000
0000
0000
0000
0003
0000
0000
0000
0000
0000
0000
,
1000
1000
1000
1000
,
0001
0001
0001
0001
,
0010
0010
0010
0010
,
0100
0000
0000
0000
0000
0000
0100
0000
0000
0000
0000
0000
0200
0000
0000
0000
0000
0300
0000
0000
0000
0000
0000
0000
,
1000
1000
1000
1000
,
0010
0000
0000
0000
0000
0000
0010
0000
0000
0000
0000
0000
0010
0000
0000
0000
0000
0020
0000
0000
0000
0000
0000
0000
,
0000
0000
0000
0000
,
0030
0000
0000
0000
;
