#TITLE:坂本 ヒートアップ;
#SUBTITLE:;
#ARTIST:福田裕彦;
#TITLETRANSLIT:Sakamoto Heat Up;
#SUBTITLETRANSLIT:;
#ARTISTTRANSLIT:Yasuhiko Fukuda;
#GENRE:;
#CREDIT:;
#BANNER:Sakamoto Heat Up.png;
#BACKGROUND:Sakamoto Heat Up-bg.png;
#LYRICSPATH:;
#CDTITLE:;
#MUSIC:Sakamoto Heat Up.ogg;
#OFFSET:-0.330000;
#SAMPLESTART:74.889488;
#SAMPLELENGTH:11.368423;
#SELECTABLE:YES;
#BPMS:0.000000=190.000000
;
#STOPS:
;
#BGCHANGES:;
#KEYSOUNDS:;
#ATTACKS:;

//---------------dance-single - ----------------
#NOTES:
     dance-single:
     :
     Challenge:
     16:
     0.787491,0.986043,0.433895,0.078890,1.474257,559.000000,515.000000,44.000000,8.000000,4.000000,0.000000,0.787491,0.986043,0.433895,0.078890,1.474257,559.000000,515.000000,44.000000,8.000000,4.000000,0.000000:
// measure 0
0000
0000
0000
0000
,  // measure 1
0000
0000
0000
0000
,  // measure 2
0000
0000
0000
0000
,  // measure 3
0000
0000
0000
0000
0000
0000
0000
0000
0000
0000
0000
0110
,  // measure 4
0000
0000
0000
0000
,  // measure 5
1010
0000
0000
0000
0000
1001
0000
0000
0000
0011
0000
0000
,  // measure 6
0000
0000
1001
0000
0000
0000
0011
0000
0001
1000
0000
0110
,  // measure 7
0000
0000
0000
0000
,  // measure 8
0000
0000
0000
0000
0000
0000
0000
0000
0000
0000
0000
2000
,  // measure 9
0000
0000
0000
0100
0000
0000
0001
0000
0000
0010
0000
3000
,  // measure 10
0001
0000
0010
0100
1000
0010
0100
0000
0010
1000
0000
1010
,  // measure 11
0000
0000
0000
1010
0000
0000
1001
0000
0001
0010
0000
0100
,  // measure 12
0000
0000
0000
0100
0010
0001
1000
0000
0001
1000
0000
0002
,  // measure 13
0000
0000
0000
0100
0000
0000
1000
0000
0000
0010
0000
0003
,  // measure 14
1000
0000
0010
0100
0001
0010
0100
0000
0010
0001
0000
0011
,  // measure 15
0000
0000
0000
0011
0000
0000
1001
0000
1000
0010
0100
0001
,  // measure 16
1000
0000
1000
0100
0000
0010
0000
0000
0001
0100
0000
0210
,  // measure 17
0000
0000
0000
1000
0000
0000
0001
0000
0000
1000
0000
0300
,  // measure 18
0001
0000
0000
0010
0000
0000
0100
0000
1000
0001
0000
0110
,  // measure 19
0000
0000
0000
0110
0000
0000
1001
0000
1000
0100
0000
0010
,  // measure 20
0100
0000
0000
1000
0000
0000
0010
0000
1000
0100
0000
0210
,  // measure 21
0000
0000
0000
0001
0000
0000
1000
0000
0000
0001
0000
0300
,  // measure 22
1000
0000
0000
0010
0000
0000
0100
0000
0001
1000
0000
0110
,  // measure 23
0000
0000
0000
0110
0000
0000
1001
0000
0001
0010
0100
1000
,  // measure 24
0000
0000
0000
0000
0010
0000
0100
0000
0001
0000
1000
0000
0001
0000
0000
0000
0001
0000
0000
0000
0001
1000
0001
0000
,  // measure 25
1000
0000
1000
0000
1000
0100
0010
0001
0100
0001
0010
0100
,  // measure 26
0000
0000
0000
0100
0000
0000
0100
0000
0000
0100
0000
1001
,  // measure 27
0000
0000
1000
0010
0100
0001
0010
0100
0010
0100
1000
0001
,  // measure 28
0000
0000
0001
0100
0000
0000
0010
0000
1000
0100
0000
0010
,  // measure 29
0000
0000
0000
0000
0100
0010
0100
0000
0000
0000
0010
0000
0100
0000
0000
0000
0010
0000
0100
0000
1000
0000
0001
0000
,  // measure 30
0000
0000
0001
0100
0000
0000
0010
0000
0000
1000
0000
0100
,  // measure 31
0000
0000
0000
0000
0010
0000
0100
0000
1000
0001
1000
0000
0010
0000
0000
0000
0010
0000
0000
0000
0000
0000
0100
0000
,  // measure 32
0000
0000
0000
0100
0000
0000
1000
0000
0000
1000
0000
0100
,  // measure 33
0000
0000
0001
0010
0000
0100
0000
0000
1000
0010
0000
0100
,  // measure 34
0000
0000
0100
0001
0000
0010
0100
0000
1000
0010
0000
0100
,  // measure 35
0000
0000
1000
0000
0000
0100
0010
0000
1000
0100
0000
0110
,  // measure 36
0000
0000
0000
0110
0000
0000
1100
0000
1000
0001
0000
0100
,  // measure 37
0010
0000
0100
0001
0000
0010
0100
0000
1000
0010
0000
0100
,  // measure 38
0000
0000
0100
0001
0000
0010
0100
0000
1000
0010
0000
0100
,  // measure 39
0000
0000
1000
0000
0100
0010
1000
0000
0100
0010
0000
0110
,  // measure 40
0000
0000
0000
0110
0000
0000
0011
0000
0001
1000
0000
0110
,  // measure 41
0000
0000
0010
0000
0000
0000
M001
0010
0100
0000
0010
0100
,  // measure 42
1000
0000
0000
0000
1000
0000
0000
0000
0100
0000
M100
0000
0001
0000
0010
0100
0010
0000
0100
0000
1000
0000
0001
0000
,  // measure 43
0000
0001
0010
0001
0010
0001
1000
0001
1000
0010
0100
0001
,  // measure 44
0000
0010
0100
0010
0100
1000
0100
1000
0100
0010
0001
0100
,  // measure 45
0000
0010
1000
0010
1000
0001
1000
0001
0010
0001
0010
0000
,  // measure 46
0000
0100
1000
0100
1000
0100
0010
0100
1000
0001
0010
0100
,  // measure 47
0000
1000
0001
1000
0001
0100
0001
0100
0010
1000
0001
0100
,  // measure 48
0000
0010
1000
0010
1000
0001
1000
0001
0010
0100
1000
0001
,  // measure 49
0000
0010
0100
0010
0100
0010
0001
0010
0001
1000
0001
1000
,  // measure 50
0010
1000
0010
0100
0010
1000
0100
0010
0001
0100
010M
1000
,  // measure 51
0000
1000
0001
0010
0100
0010
1000
0001
0100
0010
0001
1000
,  // measure 52
0000
0001
1000
0010
0100
0010
0001
1000
0100
0010
1000
0001
,  // measure 53
0000
0010
0100
1000
0010
0100
1000
0100
0010
0001
0010
0100
,  // measure 54
0000
0010
0100
0001
0010
0100
0001
0100
0010
1000
0010
0100
,  // measure 55
0000
1000
0100
0010
0001
0100
0010
0001
1000
0100
0010
1000
,  // measure 56
0000
0001
0100
0010
1000
0100
0010
1000
0001
0100
0010
0001
,  // measure 57
0000
0010
0100
1000
0010
0100
1000
0100
0010
1000
0100
0010
,  // measure 58
1000
0010
0100
1000
0001
0100
0010
0001
1000
0100
0010
1000
,  // measure 59
0001
0000
0100
0000
0001
0000
1000
0000
0100
0000
1000
0000
0001
1000
0001
0000
0010
0000
0100
0000
0000
0000
2000
0000
,  // measure 60
0000
0000
0000
0100
0000
0000
0001
0000
0000
0010
0000
3000
,  // measure 61
0001
0000
0010
0100
1000
0010
0100
0000
0010
1000
0000
1010
,  // measure 62
0000
0000
0000
1010
0000
0000
1001
0000
0001
0010
0000
0100
,  // measure 63
0000
0000
0000
0100
0010
0001
1000
0000
0001
1000
0000
0002
,  // measure 64
0000
0000
0000
0100
0000
0000
1000
0000
0000
0010
0000
0003
,  // measure 65
1000
0000
0010
0100
0001
0010
0100
0000
0010
0001
0000
0011
,  // measure 66
0000
0000
0000
0011
0000
0000
1001
0000
1000
0010
0100
0001
,  // measure 67
1000
0000
1000
0100
0000
0010
0000
0000
0001
0100
0000
0210
,  // measure 68
0000
0000
0000
1000
0000
0000
0001
0000
0000
1000
0000
0300
,  // measure 69
0001
0000
0000
0010
0000
0000
0100
0000
1000
0001
0000
0110
,  // measure 70
0000
0000
0000
0110
0000
0000
1001
0000
1000
0100
0000
0010
,  // measure 71
0100
0000
0000
1000
0000
0000
0010
0000
1000
0100
0000
0210
,  // measure 72
0000
0000
0000
0001
0000
0000
1000
0000
0000
0001
0000
0300
,  // measure 73
1000
0000
0000
0010
0000
0000
0100
0000
0001
1000
0000
0110
,  // measure 74
0000
0000
0000
0110
0000
0000
1001
0000
0001
0010
0100
1000
,  // measure 75
0000
0000
0001
0000
0000
0001
0100
0000
0100
0000
0010
0100
,  // measure 76
0001
0000
0001
0000
010M
0100
1000
0100
0000
0010
0001
1001
;

//---------------dance-single - ----------------
#NOTES:
     dance-single:
     :
     Hard:
     12:
     0.559274,0.644720,0.285976,0.098613,0.892443,397.000000,368.000000,29.000000,10.000000,0.000000,0.000000,0.559274,0.644720,0.285976,0.098613,0.892443,397.000000,368.000000,29.000000,10.000000,0.000000,0.000000:
// measure 0
0000
0000
0000
0000
,  // measure 1
0000
0000
0000
0000
,  // measure 2
0000
0000
0000
0000
,  // measure 3
0000
0000
0000
0000
0000
0000
0000
0000
0000
0000
0000
0110
,  // measure 4
0000
0000
0000
0000
,  // measure 5
1010
0000
0000
0000
0000
1001
0000
0000
0000
0011
0000
0000
,  // measure 6
0000
0000
1001
0000
0000
0000
1001
0000
0001
0100
0000
0010
,  // measure 7
0000
0000
0000
0000
,  // measure 8
0000
0000
0000
0000
0000
0000
0000
0000
0000
0000
0000
2000
,  // measure 9
0000
0000
0000
0000
0000
0000
0000
0000
0000
0000
0000
3001
,  // measure 10
0000
0000
0001
1000
0000
1000
0001
0000
0001
0010
0000
0100
,  // measure 11
0000
0000
0000
0100
0000
0000
0100
0000
0100
1000
0000
0001
,  // measure 12
0000
0000
0000
1000
0000
0010
0100
0000
0010
0100
0000
0002
,  // measure 13
0000
0000
0000
0000
0000
0000
0000
0000
0000
0000
0000
1003
,  // measure 14
0000
0000
1000
0001
0000
0001
1000
0000
1000
0010
0000
0100
,  // measure 15
0000
0000
0000
0100
0000
0000
0100
0000
0100
0001
0000
1000
,  // measure 16
0000
0000
1000
0100
0000
0010
0000
0000
0001
0100
0000
0020
,  // measure 17
0000
0000
0000
0100
0000
0000
0100
0000
0000
0100
0000
0030
,  // measure 18
0100
0000
0000
0001
0000
0000
0010
0000
0100
1000
0000
1001
,  // measure 19
0000
0000
0000
1001
0000
0000
1010
0000
1000
0001
0000
0010
,  // measure 20
0000
0000
0010
0100
0000
0000
0100
0000
0010
0100
0000
0020
,  // measure 21
0000
0000
0000
0100
0000
0000
0100
0000
0000
0100
0000
0030
,  // measure 22
0100
0000
0000
1000
0000
0000
0001
0000
0100
0010
0000
1001
,  // measure 23
0000
0000
0000
1001
0000
0000
0011
0000
0010
0100
0000
1100
,  // measure 24
0000
0000
1000
0000
0000
0100
0010
0000
0010
0000
0000
0010
,  // measure 25
0001
0000
0001
0000
0001
0000
0100
0000
0010
0000
1000
0001
,  // measure 26
0000
0000
0000
0001
0000
0000
0001
0000
0000
0001
0000
0110
,  // measure 27
0000
0000
0000
0000
0000
0000
0000
0000
0000
0000
0000
1000
,  // measure 28
0000
0000
0000
1000
0000
0000
1000
0000
0000
1000
0000
0001
,  // measure 29
0000
0000
1000
0010
0000
1000
0010
0000
0100
0010
0000
0100
,  // measure 30
0000
0000
0100
0001
0000
0000
0001
0000
0000
0001
0000
0010
,  // measure 31
0000
0000
0001
0000
0010
0000
0100
0000
0100
0000
0000
0110
,  // measure 32
0000
0000
0000
0100
0000
0000
1000
0000
0000
0001
0000
0100
,  // measure 33
0000
0000
0001
1000
0000
0100
0000
0000
0010
0001
0000
2000
,  // measure 34
0000
0000
0000
0100
0000
0000
0001
0000
0000
0010
0000
3000
,  // measure 35
0001
0000
0000
0010
0000
0100
1000
0000
1000
0001
0000
1001
,  // measure 36
0000
0000
0000
1001
0000
0000
1010
0000
0010
0100
0000
0001
,  // measure 37
0000
0000
0010
0100
0000
0010
0001
0000
1000
0000
0000
0002
,  // measure 38
0000
0000
0000
0100
0000
0000
1000
0000
0000
0010
0000
0003
,  // measure 39
1000
0000
0000
0010
0000
0100
0001
0000
0010
0100
0000
1001
,  // measure 40
0000
0000
0000
1001
0000
0000
0011
0000
0010
0100
0000
1001
,  // measure 41
0000
0000
1000
0000
0000
0000
0010
1000
0010
0000
0100
0001
,  // measure 42
0100
0000
0100
0000
0001
0000
0010
0000
0100
0000
1000
0001
,  // measure 43
0000
0000
0100
0010
0000
0000
0100
0000
0000
0001
0000
0010
,  // measure 44
0000
0000
0100
0010
0000
0000
0100
0000
0000
1000
0000
0010
,  // measure 45
0000
0000
0100
0010
0000
0000
0100
0000
0001
0000
1000
0000
,  // measure 46
0000
0000
1000
0001
0000
1000
0001
0000
1000
0001
0000
1000
,  // measure 47
0000
0000
0100
0010
0000
0000
0100
0000
0000
1000
0000
0010
,  // measure 48
0000
0000
0100
0010
0000
0000
0100
0000
0000
0001
0000
0010
,  // measure 49
0000
0000
0100
0010
0000
0000
0100
0000
0100
1000
0000
0000
,  // measure 50
1000
0000
1000
0010
0000
0010
0100
0000
0100
0001
0000
0001
,  // measure 51
0000
0000
0001
1000
0000
0000
0100
0000
0000
0010
0100
1000
,  // measure 52
0000
0000
1000
0001
0000
0000
0100
0000
0000
0010
0100
0001
,  // measure 53
0000
0000
0010
0100
0000
0000
1000
0000
0000
0001
0100
0010
,  // measure 54
0000
0000
0010
0100
0000
0000
0001
0000
0000
1000
0100
0010
,  // measure 55
0000
0000
0010
0001
0000
0000
0100
0000
0000
1000
0100
0010
,  // measure 56
0000
0000
0100
0001
0000
0000
0010
0000
0000
1000
0010
0100
,  // measure 57
0000
0000
0100
1000
0000
0000
1000
0001
1000
0001
0000
0000
,  // measure 58
1000
0010
1000
0010
0000
0000
0100
0010
0100
0010
0000
0000
,  // measure 59
0100
0000
0001
0010
0000
0100
1000
0000
0010
0100
0000
0002
,  // measure 60
0000
0000
0000
0000
0000
0000
0000
0000
0000
0000
0000
1003
,  // measure 61
0000
0000
1000
0001
0000
0001
1000
0000
1000
0010
0000
0100
,  // measure 62
0000
0000
0000
0100
0000
0000
0100
0000
0100
0001
0000
1000
,  // measure 63
0000
0000
0000
0001
0000
0010
0100
0000
0010
0100
0000
2000
,  // measure 64
0000
0000
0000
0000
0000
0000
0000
0000
0000
0000
0000
3001
,  // measure 65
0000
0000
0001
1000
0000
1000
0001
0000
0001
0010
0000
0100
,  // measure 66
0000
0000
0000
0100
0000
0000
0100
0000
0100
1000
0000
0001
,  // measure 67
0000
0000
0001
0100
0000
0010
0000
0000
1000
0100
0000
0020
,  // measure 68
0000
0000
0000
0100
0000
0000
0100
0000
0000
0100
0000
0030
,  // measure 69
0100
0000
0000
1000
0000
0000
0001
0000
0100
0010
0000
1001
,  // measure 70
0000
0000
0000
1001
0000
0000
0011
0000
0001
1000
0000
0010
,  // measure 71
0000
0000
0010
0100
0000
0000
0100
0000
0010
0100
0000
0020
,  // measure 72
0000
0000
0000
0100
0000
0000
0100
0000
0000
0100
0000
0030
,  // measure 73
0100
0000
0000
0001
0000
0000
0010
0000
0100
1000
0000
1001
,  // measure 74
0000
0000
0000
1001
0000
0000
1010
0000
0010
0100
0000
0101
,  // measure 75
0000
0000
0010
0000
0000
0010
1000
0000
0001
0000
0010
0000
,  // measure 76
1000
0000
0001
0000
0100
0010
0100
0010
0000
0010
0001
1000
;
