#TITLE:SUMMER;
#SUBTITLE:(awfuless remix);
#ARTIST:Zekk;
#TITLETRANSLIT:;
#SUBTITLETRANSLIT:;
#ARTISTTRANSLIT:;
#GENRE:;
#CREDIT:;
#MUSIC:summer.mp3;
#BANNER:;
#BACKGROUND:;
#CDTITLE:;
#SAMPLESTART:115.612;
#SAMPLELENGTH:12.800;
#SELECTABLE:YES;
#OFFSET:1.188;
#BPMS:0.000=150.000;
#STOPS:;
#BGCHANGES:;
#FGCHANGES:;

//--------------- dance-single - about-blank ----------------
#NOTES:
     dance-single:
     about-blank:
     Beginner:
     6:
     0,0,0,0,0:
0000
0000
0000
0000
,
0000
0000
0000
0000
,
0000
0000
0000
0000
,
0000
0000
0000
0000
,
0000
0000
0000
0000
,
1000
0000
0000
0000
,
0100
0000
0000
0000
,
0001
0000
0000
0000
,
0010
0000
0000
0000
,
1000
1000
1000
0000
,
0001
0001
0001
0000
,
0100
0100
0100
0000
,
0010
0000
0010
0000
,
1000
1000
1000
0000
,
0001
0001
0001
0000
,
0010
0000
0010
0000
,
0100
0000
0100
0000
,
1000
0001
1000
0000
,
0001
1000
0001
0000
,
0100
0010
0100
0000
,
0010
0100
0010
0000
,
1000
0100
1000
0000
,
0001
0010
0001
0000
,
1001
0000
0000
0000
,
0000
0000
0000
0000
,
1000
0000
0000
0000
,
0100
0000
0000
0000
,
0010
0000
0000
0000
,
0001
0000
1000
0000
,
0001
0000
0000
0000
,
0010
0000
0000
0000
,
0100
0000
0000
0000
,
1000
0001
1000
0000
,
0010
0010
0010
0000
,
0100
0100
0100
0000
,
0001
0001
0001
0000
,
1000
0100
0010
0000
,
0001
1000
0001
0000
,
1000
0001
1000
0000
,
0010
0100
0010
0000
,
0110
0000
0000
0000
,
0001
0010
1000
0000
,
1000
0100
0001
0000
,
0001
0010
1000
0000
,
1001
0000
0000
0000
,
1000
0100
0001
0000
,
0001
0010
1000
0000
,
1000
0100
0001
0000
,
1001
0000
0000
0000
,
0001
0100
0010
0000
,
1000
0100
0010
0000
,
0001
0100
0010
0000
,
1001
0000
0000
0000
,
1000
0001
1000
0000
,
0010
0100
0010
0000
,
1000
0001
1000
0001
,
1000
0000
0000
0000
,
0001
0000
0001
0000
,
1000
0000
0000
0000
,
0010
0000
0010
0000
,
0100
0000
0000
0000
,
0001
0000
0010
0000
,
0100
0000
0000
0000
,
1000
0000
0001
0000
,
0100
0000
0010
0000
,
1000
1000
1000
0000
,
0010
0010
0010
0000
,
1000
1000
1000
0000
,
0001
0001
0001
0000
,
0100
0010
0100
0000
,
0010
0100
0010
0000
,
1001
0000
0000
0000
,
0000
0000
0000
0000
,
0000
1000
1000
0001
,
0000
0001
0001
1000
,
0000
0010
0010
0100
,
0000
0100
0100
0010
,
0000
1000
0100
1000
,
0000
0001
0010
0001
,
0000
1000
0001
1000
,
1001
0000
0000
0000
,
0000
0001
0010
0001
,
0000
1000
0100
1000
,
0000
0010
0100
0010
,
0000
1000
0001
1000
,
0000
0010
0010
0100
,
0000
0001
0001
1000
,
0100
0000
0110
0000
,
1001
0000
0000
0000
;

//--------------- dance-single - about-blank ----------------
#NOTES:
     dance-single:
     about-blank:
     Easy:
     9:
     0,0,0,0,0:
0000
0000
0000
0000
,
0000
0000
0000
0000
,
0000
0000
0000
0000
,
0000
0000
0000
0000
,
0000
0000
0000
0000
,
2000
0010
0000
3010
,
0002
0100
0000
0103
,
2000
0001
0000
3001
,
0220
0000
0000
0330
,
1000
0000
0001
0000
0100
0010
0100
0000
,
0002
0000
0013
0000
0100
1000
1000
0000
,
0020
0000
0130
0000
0001
1000
0001
0000
,
0200
0310
0020
1030
,
0002
0000
0013
0000
0100
0010
0001
0000
,
0200
0000
0301
0000
1000
0010
1000
0000
,
0002
1003
0200
1300
,
0020
1030
0002
1003
,
1001
0000
1000
0000
0001
0010
0001
0000
,
0200
0000
0310
0000
1000
0100
1000
0000
,
0002
0000
1003
0000
0100
1000
0100
0000
,
0020
0000
0031
0000
0010
0001
0010
0000
,
0110
0000
1000
0000
0010
1000
0010
0000
,
0101
0000
0001
0000
0100
0010
0100
0000
,
0002
0000
0000
0003
,
0010
0100
0010
0100
0010
0100
0010
0000
,
0200
0000
0000
0000
,
2300
0000
0000
0000
,
3020
0000
0000
0000
,
0230
0000
0302
0000
,
0013
0000
0010
0000
0000
1001
0000
0000
,
0100
0000
0100
0000
0000
1001
0000
0000
,
0001
0000
0001
0000
0000
0110
0000
0000
,
1000
0000
0100
0000
0010
0000
0001
1000
,
0001
0000
0001
0000
0100
0010
0100
0000
,
0001
0000
0001
0000
0010
0100
0010
0000
,
0001
0000
0001
0000
0100
1000
0100
0000
,
0002
0023
0230
2300
,
3010
1000
0010
1000
0001
0100
0001
0000
,
0001
0010
0001
0010
0100
1000
0100
0000
,
1000
0100
0010
0001
2000
0000
3000
0000
,
0110
0000
0000
0000
,
0001
0000
0010
0000
0100
0100
1000
0000
,
0010
0000
0100
0000
0001
0001
1000
0000
,
0010
0000
0100
0000
0001
0001
0010
0000
,
0100
1000
0001
0000
0110
0000
0000
0000
,
0001
0000
0100
0000
0010
0010
1000
0000
,
0001
0000
0010
0000
0100
0100
0010
0000
,
0001
0000
1000
0000
0010
0010
1000
0001
,
0200
0310
1002
0103
,
0011
0000
0100
0000
1000
0100
0001
0000
,
0100
0000
0010
0000
0001
0010
0100
0000
,
0010
0000
0001
0000
1000
0010
0001
0000
,
0010
1000
0100
0000
0110
0000
1001
0000
,
0001
1000
0001
0100
0001
1000
0001
0000
,
1000
0010
1000
0001
1000
0100
1000
0000
,
0010
0100
0010
0100
0001
1000
0001
1000
,
0002
0000
0000
0003
,
0100
0100
0001
0010
,
0001
0100
0010
1000
,
0001
0010
0100
1000
,
0010
0100
0001
1000
,
1000
0010
1000
0100
,
0010
0001
0100
0010
,
1000
0010
0100
0001
,
0010
0100
0220
0330
,
1000
1000
0001
0001
,
0100
0100
0010
0010
,
1000
1000
0010
0010
,
0100
0100
0001
0001
,
0010
0001
0010
0000
0100
1000
0100
0000
,
1000
0010
1000
0000
0001
0100
0001
0000
,
2002
0000
0000
0000
,
3003
0000
0000
0000
,
1000
0000
1100
0000
1000
0001
0100
0000
,
0001
1000
0100
0000
1000
0001
0100
0000
,
0010
1000
0100
0000
0010
0001
0100
0000
,
0010
1000
0100
0000
0010
0000
1001
0000
,
0001
0000
0100
0001
0010
0001
0100
0000
,
1100
0000
0100
1000
0010
1000
0100
0000
,
0010
0100
1000
0000
0010
0100
0001
0000
,
2002
0000
0000
3003
,
0001
0000
0100
0010
1000
0000
0100
0010
,
0001
0000
0100
0010
1000
0000
0001
1000
,
0001
0000
0010
0100
1000
0000
0010
0100
,
0001
0000
1000
0100
0010
0001
0010
0100
,
1000
0000
1000
0100
0001
0000
0001
0100
,
1000
0000
1000
0010
0001
0000
0001
0010
,
2000
0001
0001
3001
,
2002
0000
0000
0000
,
3003
0000
0000
0000
;

//--------------- dance-single - about-blank ----------------
#NOTES:
     dance-single:
     about-blank:
     Medium:
     12:
     0,0,0,0,0:
0000
0000
0000
0000
,
0000
0000
0000
0000
,
0000
0000
0000
0000
,
0000
0000
0000
0000
,
0000
0000
0000
0000
,
1000
0000
0000
0000
0000
0000
1000
0010
,
0100
0000
0001
0000
0000
1000
0001
0000
,
0100
0000
0001
0000
0000
1000
0001
0000
,
0100
0100
0010
0010
1000
0001
1000
0000
,
0201
0000
1300
0001
0010
1000
0000
0200
,
0000
0310
0000
0010
0001
1000
0000
0200
,
0000
0310
0000
0001
0010
0100
0000
2000
,
0000
3010
0000
0200
0000
0001
0301
0000
,
0101
0000
1000
0001
0100
0010
0000
2000
,
0000
3010
0000
0100
0001
0010
0000
2000
,
0000
3010
0000
0001
0100
0010
0000
2000
,
0000
3100
0000
0002
0000
0013
0000
0000
,
1001
0000
1000
0100
0010
0001
0000
0110
,
0000
1000
0001
0100
0010
0100
0000
1010
,
0000
0001
1000
0100
1000
0010
0000
0101
,
0000
0010
0000
1100
0000
0001
1000
0000
,
0110
0000
0001
0000
1000
0100
0001
0000
,
0100
0100
0010
0000
0001
0100
1000
0000
,
0110
0000
0000
0000
0000
0000
1000
0000
0000
0000
0000
0001
0000
0000
0000
1000
0000
0000
0000
0000
0001
0000
0000
0000
,
0020
0000
0030
0000
,
1001
0000
0000
0000
1000
0000
0000
0010
0100
0000
0000
0000
0001
0000
0000
1000
,
0010
0000
0000
0000
0100
0100
0100
0001
,
0010
0000
0100
0000
1000
0000
0000
0000
0010
0000
1000
0000
0100
0000
0000
0100
,
0010
0000
0000
0000
0001
0000
0000
0001
1000
0000
0000
0000
0000
0000
0000
0000
,
0010
0000
0000
1000
0000
0000
0100
0000
0000
0001
0000
0000
0010
0000
0000
0000
,
0200
1300
0020
0031
,
0100
0000
0000
1000
0000
0000
0010
0000
0000
0001
0000
0000
0100
0000
0000
0000
,
0001
0100
0001
0100
0010
1000
0002
0000
,
0103
0000
0101
1000
0100
0100
0010
0001
,
0200
0300
0010
1000
0001
0001
0010
0100
,
2000
0000
3100
0100
0010
0010
0001
1000
,
0002
0000
0000
0000
0103
0000
0000
0100
0010
0000
0000
0010
1000
0000
0000
1000
,
0001
1000
0010
0100
0001
1000
0100
0010
,
0001
0100
1000
0100
0001
0010
1000
0010
,
0001
0001
1000
1000
0010
0010
0100
0100
,
0002
1000
1000
1003
,
0001
0101
0000
0010
1010
0000
0001
0010
,
0100
0110
0000
0100
1100
0000
0001
1000
,
0001
0101
0000
0010
1010
0000
0001
0010
,
0110
0100
1000
0010
0001
0010
1000
0000
,
0100
0110
0000
0010
0011
0000
0001
0100
,
0001
0011
0000
1000
1100
0000
1000
0001
,
0100
0101
0000
1000
1100
0100
0010
0001
,
0100
1000
0001
0010
1000
0100
0010
0000
,
0001
0101
0100
0010
1010
0000
0001
1000
,
0100
0110
0010
0001
1001
0000
0001
0101
,
0100
0010
1000
0100
0110
0000
0010
0001
,
1001
0000
0000
0001
0000
0000
0100
0000
0000
0000
0000
0110
0000
0000
0000
0110
0000
0000
0000
0000
0000
0000
0000
0000
,
0001
0010
1000
0010
0001
1000
0010
0100
,
0001
1000
0100
0001
0100
1000
0100
0010
,
0001
1000
0001
1000
0100
0010
0100
0010
,
0002
0000
0000
1003
,
0010
0000
0010
0000
1000
0100
1000
0000
,
0001
0000
0001
0000
0100
0010
0100
0000
,
0001
0000
0010
0000
0100
1000
0001
0000
,
0100
0000
0010
0000
1000
0010
0100
1000
,
0100
0000
0100
0000
0001
0010
0100
0000
,
0010
0000
0010
0000
0001
1000
0001
0000
,
0100
0100
0010
0010
,
1000
0001
1000
0000
0110
0000
1001
0000
,
0001
0100
0010
0000
0010
1000
0100
0010
,
0002
1003
0101
1010
,
0001
0000
0000
0000
0000
0100
0000
0000
0000
0010
0000
0000
1000
0000
0000
0000
0000
0100
0000
0000
0000
0010
0000
0000
,
0002
0000
1003
0000
0020
0100
0130
0000
,
0001
1000
0010
0100
0001
1000
0010
0100
,
0001
1000
0100
0010
0001
1000
0100
0010
,
0001
1000
0001
0001
1000
0001
1000
1000
,
0220
0000
0000
0330
,
1100
0000
1000
0100
0001
0000
0100
0010
,
0001
0000
1000
0100
0001
0000
0100
0010
,
1001
0000
0001
0100
1000
0000
0100
0010
,
1000
0000
0001
0010
0100
1000
0010
0100
,
0001
0000
0010
0100
0001
0100
0010
0100
,
1000
0000
0010
0100
1000
0100
0010
0100
,
0001
0000
1100
0000
1000
0001
0100
0010
,
2000
0000
0001
0000
0001
0001
3001
0000
,
1000
0100
0001
0100
1000
0100
0001
0100
,
1000
0010
0001
0010
1000
0010
0001
0010
,
0100
0001
0010
0001
1000
0010
0100
0001
,
0010
0000
0110
0000
1000
0100
0010
0001
,
0100
0000
0100
1000
0010
0000
0010
0001
,
0100
0000
0100
0001
0010
0000
0010
1000
,
0100
1001
0010
1001
,
0220
0000
0000
0000
,
0330
0000
0000
0000
;

//--------------- dance-single - about-blank ----------------
#NOTES:
     dance-single:
     about-blank:
     Hard:
     15:
     0,0,0,0,0:
0000
0000
0000
0000
,
0000
0000
0000
0000
,
0000
0000
0000
0000
,
0000
0000
0000
0000
,
0000
0000
0000
0000
,
2000
0000
3010
0000
0001
1000
0010
0000
,
0002
0000
0103
0000
1000
0001
0100
0000
,
0020
0000
1030
0000
0001
1000
0010
0100
,
0002
0000
0000
1000
0000
0000
1000
0000
0000
1003
0000
0000
0001
0000
1000
0001
0000
1000
0020
0000
0000
0000
0000
0000
,
0130
0000
0000
0000
0000
0000
0101
0000
0000
0000
0000
1000
0100
0000
0000
0110
0000
0000
0010
0000
0000
0002
0000
0000
,
0000
0000
0000
1000
0000
0000
1003
0000
0000
0000
0000
0001
0100
0000
0000
0010
0000
0000
1000
0000
0000
0200
0000
0000
,
0000
0000
0000
0010
0000
0000
0310
0000
0000
0000
0000
0001
0010
0000
0000
0011
0000
0000
0000
0000
0000
0102
0000
0000
,
0000
1003
0000
2010
0000
3001
0100
0010
,
2000
0000
0000
0000
0000
0000
3010
0000
0000
0000
0000
0100
0010
0000
0000
0001
0000
0000
0010
0000
0000
2000
0000
0000
,
0000
0000
0000
0100
0000
0000
3100
0000
0000
0000
0000
1000
0001
0000
0000
1000
0000
0000
0000
0000
0000
0201
0000
0000
,
0000
0000
0000
0310
0000
0000
1000
0000
0000
0000
0000
1100
0000
0000
0000
0010
0000
0000
0001
0000
0000
0000
0000
1001
,
0000
0000
0000
0010
0000
0000
0100
0000
0000
0000
0000
0101
0000
0000
0010
0000
0000
0000
2000
0000
0000
0001
0000
0000
,
3001
0000
0000
0000
0000
0000
1100
0000
0000
0000
0000
0010
0001
0000
0000
1000
0000
0000
0001
0000
0000
0200
0000
0000
,
0000
0000
0000
0010
0000
0000
0310
0000
0000
0000
0000
1000
0010
0000
0000
0001
0000
0000
0010
0000
0000
2000
0000
0000
,
0000
0000
0000
0100
0000
0000
3100
0000
0000
0000
0000
1000
0000
0000
0000
0001
0000
0000
0000
0000
0000
1002
0000
0000
,
0000
0000
0000
0013
0000
0000
0000
0000
0000
0001
0000
1000
0001
0000
0000
0100
0000
0000
0010
0000
0000
0010
0000
0000
,
2000
0000
0000
0000
0000
0000
3001
0000
0000
1000
0000
0100
1000
0000
0000
0001
0000
0000
0100
0000
0000
0001
0000
0000
,
0001
0000
0000
0001
0000
0000
1000
0000
0000
0010
0000
0100
0010
0000
0000
1000
0000
0000
0010
0000
0000
0100
0000
0000
,
0002
0000
0000
1000
0000
0000
1003
0000
0000
0000
0000
0020
0000
0000
0000
0100
0000
0000
0000
0000
0130
0000
0000
0000
,
0002
1000
1000
1000
1000
1000
1003
0000
,
0002
0000
0000
0000
0103
0000
0000
0100
0010
0000
0000
0010
1000
0000
0000
1000
,
0001
0000
0000
0000
0000
0000
1000
0000
0010
0100
0010
0100
0001
0000
1000
0000
,
0100
0000
0001
0000
0100
0000
1000
0000
0010
0000
0100
0001
0100
0000
0000
0010
,
1000
0000
0010
0000
0100
0000
0000
0001
1000
0000
0000
0000
0000
0000
0000
0000
,
0001
0010
0000
0001
0100
0000
0010
1000
0000
0100
1000
0000
0001
1000
0000
0000
,
0000
0020
0230
0300
0020
0230
0300
0002
,
1003
0010
0000
1000
0100
0000
0010
0001
0000
0100
0001
0000
0010
0100
0000
0000
,
1000
0010
0100
0001
1100
0101
2002
3003
,
0001
0000
1000
0000
1000
0100
1000
0000
0001
0000
0010
0000
1000
0000
0010
0000
,
0001
0000
0100
0000
0100
0010
0100
0000
0010
0000
1000
0000
0100
0000
1000
0000
,
0001
0000
0010
0000
0010
0001
0010
0000
0100
0000
1000
0000
0010
0000
1000
0000
,
0002
1000
2003
0010
3020
0100
0230
0001
,
0301
0001
1000
1000
0100
0100
0010
0010
,
0001
0001
0100
0100
0010
0010
1000
1000
,
0001
0000
1000
0001
0000
0100
0001
0000
1000
0001
0000
0100
0001
0000
1000
0001
0000
0010
0001
0000
1000
0001
0000
0010
,
0002
1000
1003
0001
0001
0100
0010
0000
,
1000
0000
0000
0200
0000
0000
0010
0000
0000
0310
0000
0000
0001
0000
0000
1000
0000
0001
0100
0000
0000
0010
0000
0000
,
1000
0000
0000
0002
0000
0000
0100
0000
0000
0103
0000
0000
0010
0000
0000
1000
0000
0010
0100
0000
0000
0001
0000
0000
,
1000
0000
0000
0100
0000
0000
0020
0000
0000
0001
0000
0000
0031
0000
0000
0100
0000
0001
1000
0000
0010
1000
0000
0000
,
1001
0000
0000
0100
0000
0000
0110
0000
0000
0010
0000
1000
0000
0000
0000
1001
0000
0000
0000
0000
0000
0000
0000
0000
,
1100
0000
0000
0001
0000
0000
1000
0000
0000
0100
0000
0010
0100
0000
0000
0010
0000
0000
0001
0000
0000
0010
0000
0000
,
1000
0000
0000
0010
0000
0000
0001
0000
0000
1000
0000
0001
1000
0000
0000
0010
0000
0000
0100
0000
0000
0001
0000
0000
,
0100
0000
0000
0010
0000
0000
1000
0000
0000
0001
0000
1000
0100
0000
0000
0010
0000
0000
0001
0000
0000
1000
0000
0000
,
1010
0000
0000
0101
0000
0000
1100
0000
0000
0000
0000
1001
0000
0000
0000
1001
0000
0000
0000
0000
0000
0000
0000
0000
,
0002
0000
0000
0010
0000
0000
0013
0000
0000
0001
0000
0000
1000
0000
0000
0010
0000
1000
0010
0000
0000
0010
0000
0000
,
1000
0000
0000
0100
0000
0000
0010
0000
0000
0001
0000
0000
1000
0000
0000
0100
0000
1000
0001
0000
0000
0001
0000
0000
,
1000
0000
0000
0010
0000
0000
0100
0000
0000
0001
0000
0000
0010
0000
0000
0100
0000
1000
0010
0000
0000
0010
0000
0000
,
1001
0000
0000
0100
0000
0000
0101
0000
0000
0000
0000
0011
0000
0000
0000
1100
0000
0000
0000
0000
0000
0000
0000
0000
,
0101
0000
0000
1000
0000
0000
0100
0000
0000
0010
0000
0000
0001
0000
1000
0001
0000
0000
0100
0000
0001
0100
0000
0000
,
0110
0000
0000
1000
0000
0000
0001
0000
0000
1000
0000
0000
0010
0000
1000
0001
0000
0000
0100
0000
0010
1000
0000
0000
,
0001
0000
0010
0100
0000
0000
1000
0000
0010
0100
0000
0000
0001
0000
1000
0001
0000
1000
0001
0000
1000
0001
0000
1000
,
0001
0000
0000
0000
,
1000
0001
1000
0000
0100
0010
0000
0002
,
0000
1003
0010
0100
0000
1000
0100
0001
,
0010
0000
0000
0100
0000
0000
1000
0000
0001
0000
0000
1000
0000
0000
0200
0000
,
0000
0010
0310
0001
0000
0100
0001
1000
,
0010
0000
0000
0000
0000
0000
0010
0000
0000
0000
0000
0000
1000
0000
0000
0000
0000
0010
0000
0000
0000
0002
0000
0000
,
0000
0000
0000
0013
0000
0000
1000
0000
0000
0001
0000
0000
0000
0000
0000
0100
0000
0001
0000
0000
0000
1000
0000
0000
,
0010
0000
0000
0000
0000
0010
0100
0000
0000
0100
0000
0000
0001
0000
0000
1000
0000
0000
0002
0000
0000
0000
0000
0000
,
0100
0000
0010
0000
1003
0010
1000
0000
,
1001
0000
1100
0000
0001
1000
0100
0020
,
0001
0031
1100
0011
,
0001
0000
0000
0000
0000
0001
1000
0000
0000
0100
0000
0000
0010
0000
0000
0000
0000
0010
0001
0000
0000
2000
0000
0000
,
0010
3010
1100
0101
,
1000
0001
0100
0001
1000
0100
0010
0001
,
0100
0010
1000
0010
0100
0001
0010
0100
,
2000
0000
0000
0000
0002
0000
0000
3003
,
0110
0000
0000
0000
,
1001
0000
0000
0000
0000
0000
1000
0000
0100
0000
0000
0010
0000
0000
0000
0001
0000
1000
0000
0000
0001
0000
0000
0010
,
0000
0000
0000
0100
0000
1000
0000
0000
0010
0000
0000
0100
0000
0000
0000
0001
0000
0010
0000
0000
0100
0000
0000
1000
,
0000
0000
0000
0000
0000
0001
0000
0000
0100
0000
0000
0010
0000
0000
0000
1000
0000
0001
0000
0000
1000
0000
0000
0100
,
0000
0000
0000
0010
0000
0001
0000
0000
0100
0000
0000
1000
0000
0000
0000
0100
0000
0000
0001
0000
0000
0010
0000
0000
,
0001
0000
0000
0000
0000
1000
0000
0000
1000
0000
0000
0010
0200
0000
0000
0000
0000
0001
0000
0000
0000
0301
0000
0000
,
1000
0000
0000
0100
0000
0010
0000
0000
0001
0000
0000
0020
0000
0000
0000
0100
0000
0000
0130
0000
0000
1000
0000
0000
,
0010
0000
0000
0000
0000
1000
0000
0000
0100
0000
0000
0010
0000
0000
0000
0001
0000
1000
0000
0000
0100
1000
0000
0000
,
1001
0000
0000
0000
0000
0001
0000
0000
1000
0000
0000
0001
0000
0000
0000
0100
0000
0000
0010
0000
0000
0010
0000
0000
,
1001
0000
0000
0000
0000
1000
0000
0000
0100
0000
0000
0010
0001
0000
0000
0000
0000
0100
0000
0000
0001
0000
0000
1000
,
0010
0000
0000
0000
0000
0100
0000
0000
0001
0000
0000
1000
0100
0000
0000
0000
0000
0010
0000
0000
0001
0000
0000
1000
,
0010
0000
0000
0000
0000
1000
0000
0000
0001
0000
0000
0010
0000
0000
0100
0000
0000
1000
0002
0000
0000
1003
0000
0000
,
1001
0000
0000
0000
0000
0001
0000
0000
0100
0010
0000
0000
0000
0000
1000
0100
0000
0010
0001
0000
0010
0100
0000
1000
,
0002
0000
0000
0000
0000
0013
0000
0000
0010
0000
0000
0100
0000
0000
0000
1000
0000
0100
0000
0000
0100
0000
0000
0010
,
0000
0000
0000
0001
0000
1000
0000
0000
0001
0000
0000
0100
0000
0000
0000
0010
0000
1000
0100
0000
0010
0001
0000
0100
,
0020
0031
0020
1030
0200
0301
0200
1300
,
0220
0000
0000
0000
,
0330
0000
0000
0000
;
