#TITLE:STOP SPINNING ME IN CIRCLES;
#SUBTITLE:;
#ARTIST:Thomas Howard Lichtenstein;
#TITLETRANSLIT:;
#SUBTITLETRANSLIT:;
#ARTISTTRANSLIT:;
#GENRE:;
#CREDIT:;
#BANNER:STOP SPINNING ME IN CIRCLES.png;
#BACKGROUND:STOP SPINNING ME IN CIRCLES-bg.png;
#LYRICSPATH:;
#CDTITLE:;
#MUSIC:STOP SPINNING ME IN CIRCLES.ogg;
#OFFSET:0.822746;
#SAMPLESTART:29.042046;
#SAMPLELENGTH:9.411762;
#SELECTABLE:YES;
#BPMS:0.000000=201.000000
,100.000000=204.000000
,160.000000=232.000000
,196.000000=233.000000
,228.000000=241.000015
,300.000000=240.000000
,324.000000=241.000015
;
#STOPS:
;
#BGCHANGES:;
#KEYSOUNDS:;
#ATTACKS:;

//---------------dance-single - ----------------
#NOTES:
     dance-single:
     :
     Hard:
     14:
     0.703256,0.707333,0.285379,0.000000,0.000000,483.000000,455.000000,28.000000,0.000000,0.000000,0.000000,0.703256,0.707333,0.285379,0.000000,0.000000,483.000000,455.000000,28.000000,0.000000,0.000000,0.000000:
// measure 0
0000
0000
0000
0000
,  // measure 1
0000
0000
0000
0000
,  // measure 2
0000
0000
0000
0000
,  // measure 3
0000
0000
0000
0000
,  // measure 4
0000
0000
0000
0000
,  // measure 5
0001
0000
0001
0000
1000
0010
0000
0010
,  // measure 6
0000
1000
0010
0100
0001
0010
0100
0010
,  // measure 7
0001
0000
0001
0000
0100
0010
0000
0100
,  // measure 8
0001
0010
0100
0000
0100
0010
0001
0000
,  // measure 9
1000
0000
1000
0000
0001
0100
0000
0100
,  // measure 10
0000
0001
1000
0010
0100
0010
1000
0001
,  // measure 11
1000
0000
1000
0000
0010
1000
0000
0100
,  // measure 12
0000
0100
0010
0000
0010
0100
1000
0010
,  // measure 13
1000
0000
1000
0000
0001
0010
0000
0100
,  // measure 14
0000
0010
0001
0000
1000
0001
1000
0010
,  // measure 15
0010
0000
0010
0000
1000
0001
0000
0010
,  // measure 16
0001
0001
0100
0010
0000
1010
0000
0000
,  // measure 17
1000
0000
0100
0000
0100
0010
0000
0010
,  // measure 18
0000
0100
1000
0000
0001
1000
0001
0010
,  // measure 19
0010
0000
0001
0000
1000
0010
0000
1000
,  // measure 20
0000
0001
0010
0000
0100
0000
1100
0000
,  // measure 21
1001
0000
0001
0000
1000
0010
0000
1000
,  // measure 22
0000
1000
0001
0010
0001
1000
0000
1000
,  // measure 23
0100
0100
1000
0001
,  // measure 24
1000
0010
1000
0001
0000
0101
0000
0000
,  // measure 25
0110
0000
0010
0000
1000
0010
0000
0001
,  // measure 26
0000
1000
0000
0100
0000
0001
0000
0001
,  // measure 27
0010
0000
1000
0000
0010
0001
0000
1000
,  // measure 28
0000
0100
0000
0001
0000
0100
0000
1000
,  // measure 29
0001
0000
0001
0000
1100
0000
0100
1000
,  // measure 30
0000
0010
1000
0001
0010
0100
0010
0000
,  // measure 31
0011
0000
0010
0000
0001
0010
0000
1000
,  // measure 32
0000
0001
0000
0100
0000
1000
0000
1000
,  // measure 33
0010
0000
0001
0000
1000
0100
0000
0010
,  // measure 34
0000
0010
1000
0001
0010
1000
0001
0100
,  // measure 35
1000
0000
1000
0000
0001
0010
0000
0010
,  // measure 36
0000
0001
1000
0010
1000
0100
0010
0100
,  // measure 37
0010
0000
0010
0000
0001
0010
0000
0010
,  // measure 38
0000
0001
0000
1000
0100
0010
0001
0000
,  // measure 39
1001
0000
0000
0000
,  // measure 40
0000
0000
0000
0000
,  // measure 41
1000
0100
0001
0100
0010
0001
1000
0100
,  // measure 42
0001
0100
0010
0001
1000
0100
0010
0000
,  // measure 43
0001
0101
0010
1010
,  // measure 44
1000
0010
1000
0010
1000
0100
0010
0000
,  // measure 45
0001
0100
1000
0100
0010
1000
0001
0100
,  // measure 46
1000
0100
0010
1000
0001
0100
0010
0000
,  // measure 47
1000
0001
0010
0001
1000
0010
1000
0001
,  // measure 48
0100
0001
1000
0100
0010
0001
1000
0000
,  // measure 49
0001
0101
0100
0110
,  // measure 50
0000
0100
0010
0100
0010
1000
0001
0000
,  // measure 51
1000
1100
0100
0110
,  // measure 52
0000
0100
0010
0100
0010
0001
1000
0000
,  // measure 53
0010
1010
1000
0101
,  // measure 54
0000
0100
0001
0100
0001
0010
0100
0000
,  // measure 55
1000
0000
0100
0000
0001
0000
0100
1000
,  // measure 56
0001
1000
0010
1000
0100
0010
0001
1000
,  // measure 57
0010
0000
0011
0000
0001
0010
0100
0010
,  // measure 58
0000
0010
0001
1000
0010
1000
0001
0000
,  // measure 59
1000
0000
1100
0000
1000
0010
0100
0010
,  // measure 60
0000
1000
0001
0010
0000
0100
0010
0001
,  // measure 61
1000
0000
0001
0000
1000
0000
0010
0100
,  // measure 62
0000
0100
0010
0100
0010
1000
0001
0000
,  // measure 63
0100
0000
0101
0000
0001
0100
0010
1000
,  // measure 64
0000
1000
0100
0000
0010
0001
1000
0000
,  // measure 65
0010
0000
1010
0000
1000
0010
0100
0001
,  // measure 66
0000
0001
1000
0100
0010
0100
1000
0001
,  // measure 67
1000
0000
0001
0000
1000
0010
0000
0010
,  // measure 68
0000
1000
0001
1000
0001
0010
0100
1000
,  // measure 69
0001
0000
1001
0000
1000
0010
0001
1000
,  // measure 70
0000
1000
0100
0001
0000
0001
1000
0001
,  // measure 71
1000
0000
0010
0000
0001
0010
1000
0001
,  // measure 72
0000
0001
0010
1000
0000
1000
0010
0001
,  // measure 73
1000
0101
0001
1010
,  // measure 74
0010
0000
0110
0000
0100
0010
0100
0000
,  // measure 75
0100
0001
1000
0000
0001
0010
1000
0001
,  // measure 76
0000
0001
0100
1000
0000
1000
0001
1000
,  // measure 77
0010
0000
0100
0000
1000
0100
0001
0010
,  // measure 78
0000
0010
1000
0001
0100
1000
0010
1000
,  // measure 79
0001
0000
1000
0000
0001
1000
0010
0000
,  // measure 80
0100
0001
0010
0100
1000
0001
1000
0001
,  // measure 81
1000
0000
1010
0000
0010
0000
1000
0010
,  // measure 82
0000
0010
1000
0001
0010
0000
0100
0010
,  // measure 83
0001
0000
0011
0000
0010
0000
0001
0100
,  // measure 84
0000
0100
0001
0010
0100
0000
1100
0000
,  // measure 85
1000
0000
1001
0000
1000
0000
0001
0100
,  // measure 86
0010
0100
0001
1000
0100
0010
0001
0000
;

//---------------dance-single - ----------------
#NOTES:
     dance-single:
     :
     Medium:
     12:
     0.522710,0.574708,0.061153,0.000000,0.000000,359.000000,353.000000,6.000000,0.000000,0.000000,0.000000,0.522710,0.574708,0.061153,0.000000,0.000000,359.000000,353.000000,6.000000,0.000000,0.000000,0.000000:
0000
0000
0000
0000
,
0000
0000
0000
0000
,
0000
0000
0000
0000
,
0000
0000
0000
0000
,
0000
0000
0000
0000
,
1000
0000
0010
0000
0010
0000
0000
1000
,
0000
1000
0000
0001
0000
0010
0000
0100
,
0010
0000
0001
0000
0001
1000
0000
0100
,
0000
1000
0001
0000
1000
0010
1000
0000
,
0001
0000
0010
0000
0010
0000
0000
0001
,
0000
0001
0000
1000
0000
0010
0000
0100
,
0010
0000
1000
0000
1000
0001
0000
0100
,
0000
0001
1000
0000
0001
0000
0001
0010
,
0001
0000
1000
0000
0010
1000
0000
1000
,
0000
0001
1000
0000
0010
0100
0000
0010
,
1000
0000
0001
0000
0010
0001
0000
0000
,
0001
0010
0000
0100
0000
1100
0000
0000
,
1000
0000
0001
0000
0001
0010
0000
0010
,
0000
0001
1000
0000
0010
0100
0000
0010
,
1000
0000
1000
0000
0100
0000
0000
0010
,
0000
0010
0100
0000
1000
0000
0001
1000
,
0001
0000
1000
0000
0010
1000
0000
0001
,
0000
0001
1000
0000
0010
0000
0100
0000
,
0001
1000
0100
0010
,
0001
1000
0001
1000
0000
1001
0000
0000
,
1000
0000
0001
0000
0010
0001
0000
0100
,
0000
1000
0000
0100
0000
0001
0000
0000
,
0010
0000
1000
0000
0010
0001
0000
1000
,
0000
0010
0000
0100
0000
0010
0000
0010
,
0000
0000
1000
0000
0010
0000
0000
0100
,
0000
0100
0010
0000
1000
0010
1000
0000
,
0001
0000
1000
0000
0010
1000
0000
0100
,
0000
0001
0000
0100
0000
1000
0000
0000
,
0010
0000
0001
0000
0010
1000
0000
0001
,
0000
0000
0010
0000
0100
0010
0000
0100
,
0010
0000
0001
0000
1000
0000
0000
0010
,
0000
1000
0001
0000
0010
0000
0100
0000
,
1000
0000
0000
0000
0001
1000
0000
1000
,
0000
1000
0001
0010
,
0110
0000
0000
0000
,
0000
0000
0000
0000
,
0010
0000
0001
1000
0000
0001
0100
0000
,
0010
1000
0000
0010
0100
0000
0001
0000
,
1000
0100
0100
0010
,
0010
0000
0001
0000
1000
0001
0100
0000
,
0010
0000
1000
0001
0000
1000
0100
0000
,
0010
0001
0000
1000
0001
0000
0100
0000
,
0010
0000
1000
0001
1000
0000
0100
0000
,
1000
0001
1000
0000
0001
0010
0100
0000
,
1000
0100
0010
0001
,
0000
0000
0001
0000
1000
0010
0100
0000
,
0001
0100
0010
1000
,
0000
0000
1000
0000
0001
0010
0100
0000
,
1000
0001
0100
0010
,
0000
0000
0010
0000
0100
0010
1000
0000
,
0001
1000
1000
0001
,
0001
0000
0010
0000
0100
0010
0100
0010
,
0100
0000
1000
0000
0001
1000
0000
0010
,
0000
1000
0000
0001
0000
1000
0000
0000
,
0001
0000
0010
0000
0100
0010
0000
0100
,
0000
1000
0000
0001
0000
1000
0000
1000
,
0000
0010
1000
0100
,
0010
0000
0001
0000
0001
1000
0001
0000
,
0010
0000
0001
0000
1000
0001
0000
0010
,
0000
0100
0000
1000
0000
1000
0000
0000
,
0010
0000
0100
0000
0010
1000
0000
0001
,
0000
0001
0010
0100
,
1000
0000
0010
0000
0100
0000
0001
0100
,
0000
0001
1000
0000
0001
1000
0001
1000
,
0001
0000
0010
0000
0001
1000
0000
0010
,
0000
0001
0000
0010
0000
1000
0000
0000
,
0001
0000
1000
0000
0001
0100
0000
1000
,
0000
0100
0000
0001
0000
1000
0000
1000
,
0000
0100
0100
0010
,
0010
0000
0001
0000
0001
1000
0001
0000
,
1000
0000
0010
0000
1000
0001
0000
0010
,
0000
1000
0000
0010
0000
0001
0000
0000
,
1000
0000
0001
0000
0100
1000
0000
0100
,
0000
0100
0010
0100
,
0001
1000
0100
0010
,
0001
0010
0001
0000
1000
0001
1000
0001
,
1000
0000
1010
0000
1000
0000
0000
0001
,
0000
0001
0000
1000
0001
0000
0010
0000
,
0001
0000
0101
0000
0001
0000
0000
1000
,
0000
1000
0000
0010
1000
0000
0001
0000
,
0010
0000
0110
0000
0100
0000
0000
0010
,
0000
0010
0001
0010
0001
1000
0001
0000
;

//---------------dance-single - ----------------
#NOTES:
     dance-single:
     :
     Easy:
     9:
     0.358180,0.442083,0.061153,0.000000,0.000000,246.000000,240.000000,6.000000,0.000000,0.000000,0.000000,0.358180,0.442083,0.061153,0.000000,0.000000,246.000000,240.000000,6.000000,0.000000,0.000000,0.000000:
0000
0000
0000
0000
,
0000
0000
0000
0000
,
0000
0000
0000
0000
,
0000
0000
0000
0000
,
0000
0000
0000
0000
,
0001
0000
1000
0000
,
0001
0010
0001
1000
,
0001
0000
0100
0000
,
0001
1000
0010
0000
,
1000
0000
0001
0000
,
1000
0100
1000
0001
,
1000
0000
0010
0000
,
0100
0010
0100
0000
,
0001
0000
1000
0000
,
0010
1000
0001
0100
,
0010
0000
1000
0000
,
0001
0000
0000
0010
0000
0010
0000
0000
,
0001
0000
1000
0000
,
0001
0010
0100
1000
,
0001
0000
1000
0000
,
0010
0100
0010
0000
,
1000
0000
0001
0000
,
0100
0010
0100
0000
,
0001
0000
1000
0000
,
0100
0000
0000
0110
0000
0110
0000
0000
,
1001
0000
0010
0000
,
0001
1000
0100
0000
,
1000
0000
0010
0000
,
1000
0001
0100
0010
,
0100
0000
0001
0000
,
1000
0000
0001
0000
,
1001
0000
1000
0000
,
0010
1000
0001
0000
,
0100
0000
0001
0000
,
0010
0100
1000
0000
,
0001
0000
0100
0000
,
0010
1000
0001
1000
,
0100
0000
0000
0000
0010
0000
0000
0100
,
0000
0100
0010
0100
,
0100
0000
0000
0000
,
0000
0000
0000
0000
,
1000
0001
0010
0001
,
1000
0001
0010
0100
,
1000
0000
0001
0000
,
0100
0010
0100
0000
,
0001
1000
0010
1000
,
0001
1000
0010
0000
,
0100
0001
1000
0000
,
0100
0010
0001
1000
,
0001
1000
0001
0010
,
0000
0100
0100
0000
,
1000
0001
1000
0010
,
0000
0100
0100
0000
,
0001
0100
0001
1000
,
0000
0010
1000
0001
,
0010
0000
0100
0000
,
1000
0100
0010
0001
,
1000
0000
0010
0000
,
1000
0001
0100
0000
,
0010
0000
0100
0000
,
0001
1000
0100
0010
,
0001
0000
0010
0000
,
0100
0010
0100
1000
,
0001
0000
1000
0000
,
0010
0100
0001
0000
,
1000
0000
0001
0000
,
0010
0100
1000
0001
,
1000
0000
0010
0000
,
1000
0100
0010
0001
,
1000
0001
0001
0100
,
0010
1000
0001
0000
,
1000
0010
0010
1000
,
0100
0010
0001
1000
,
0001
0000
0010
0000
,
0100
0010
0100
1000
,
0001
1001
1001
0000
,
1000
0010
0100
0000
,
0001
1000
0010
1000
,
0001
0010
0100
0000
,
1000
0100
0010
0000
,
0001
1000
0001
0010
,
0100
0000
0100
0000
0100
0000
0000
0010
,
0000
0100
1000
0001
,
0010
0000
0010
0000
0010
0000
0000
0001
,
0000
0100
0010
1000
,
0001
0000
1000
0000
0001
0000
0000
0100
,
0000
0100
0010
1000
;
