#VERSION:0.83;
#TITLE:SPACE VILLAGE;
#SUBTITLE:;
#ARTIST:CYBER DRAMA RECORD;
#TITLETRANSLIT:;
#SUBTITLETRANSLIT:;
#ARTISTTRANSLIT:;
#GENRE:;
#ORIGIN:;
#CREDIT:;
#BANNER:SPACE VILLAGE-bn.png;
#BACKGROUND:SPACE VILLAGE-bg.png;
#PREVIEWVID:;
#JACKET:SPACE VILLAGE-jacket.png;
#CDIMAGE:;
#DISCIMAGE:;
#LYRICSPATH:;
#CDTITLE:;
#MUSIC:SPACE VILLAGE.ogg;
#OFFSET:0.875000;
#SAMPLESTART:45.700001;
#SAMPLELENGTH:20.000000;
#SELECTABLE:YES;
#DISPLAYBPM:170.000000;
#BPMS:0.000=170.000;
#STOPS:;
#DELAYS:;
#WARPS:;
#TIMESIGNATURES:0.000=4=4;
#TICKCOUNTS:0.000=4;
#COMBOS:0.000=1;
#SPEEDS:0.000=1.000=0.000=0;
#SCROLLS:0.000=1.000;
#FAKES:;
#LABELS:0.000=Song Start;
#BGCHANGES:;
#KEYSOUNDS:;
#ATTACKS:
;

//---------------dance-single - ----------------
#NOTEDATA:;
#CHARTNAME:;
#STEPSTYPE:dance-single;
#DESCRIPTION:;
#CHARTSTYLE:;
#DIFFICULTY:Hard;
#METER:15;
#RADARVALUES:0.769351,0.953491,0.406116,0.406116,0.516474,610.000000,564.000000,46.000000,46.000000,0.000000,0.000000,0.000000,0.000000,0.000000,0.769351,0.953491,0.406116,0.406116,0.516474,610.000000,564.000000,46.000000,46.000000,0.000000,0.000000,0.000000,0.000000,0.000000;
#CREDIT:;
#DISPLAYBPM:170.000000;
#NOTES:
0000
0000
0000
0000
,
0000
0000
0000
0000
,
0000
0000
0000
0000
,
0000
0000
0000
0000
,
0000
0000
0000
0000
,
0010
0000
0001
0000
0100
0000
1000
0000
0100
0000
0010
1000
0100
0000
0010
0000
,
0001
0000
0010
0000
1000
0000
0010
0000
0100
0000
0001
0000
0100
1000
0001
0000
,
0010
0000
0100
0000
0010
0000
1000
0000
0010
0000
0001
0000
0100
0010
1000
0000
,
0100
0000
0001
0000
0100
0000
0010
0000
0100
0000
1000
0000
0200
0000
0000
0300
,
1001
0000
0010
0000
1000
0000
0100
0000
0001
0000
0100
0010
1000
0000
0010
0000
,
0001
0100
0010
0100
1000
0100
0001
0010
,
1001
0000
0100
0000
0010
0000
1000
0000
0100
0000
0001
0100
0010
0000
0001
0000
,
1000
0010
0100
0001
0010
1000
0010
0100
,
0110
0000
0010
0000
0001
0000
0100
0000
0010
0000
0001
0010
1000
0000
0100
0000
,
0010
0000
0100
0000
1000
0000
0010
0000
0001
0000
0010
0000
1000
0100
0010
0000
,
0001
0000
1000
0000
0100
0000
0010
0000
1000
0000
0010
0001
0100
0000
0010
0000
,
0100
1000
0100
0001
0010
0100
1000
0001
,
0020
0000
0001
0000
0031
1000
0100
0000
1000
0000
0010
0000
0100
0000
0001
0000
,
0010
0000
1000
0000
0010
0100
0001
0000
0100
0000
0010
0000
0100
0000
1000
0000
,
1010
0000
0101
0000
0001
1000
0100
0010
,
0011
0000
0000
0000
1100
0000
0000
0000
0010
0000
0100
0000
0001
0000
0010
1000
,
0010
0000
0001
0000
0100
0010
1000
0000
0100
0000
0001
0000
0100
0000
0010
0000
,
0100
0000
1000
0000
0010
0001
0010
0000
0100
0000
0001
0000
0010
0000
0100
0000
,
1000
0000
0010
0000
0100
0000
1000
0100
0001
0000
0010
0000
0001
0000
1000
0000
,
1200
0000
1300
0001
0020
0000
0130
0000
,
0110
0000
1000
0010
0100
0001
0010
0100
1000
0001
0000
0100
,
0010
0000
0100
0001
0010
0100
1000
0001
1000
0010
0000
0100
,
0001
0000
0001
1000
0000
1000
0010
0000
0010
0100
0000
0100
,
0002
0000
0000
2003
0000
0000
3010
0000
0010
1000
0000
1000
,
0100
0000
1000
0010
0001
0010
0100
0001
1000
0010
0000
0100
,
0010
0000
1000
0100
0001
0100
0010
1000
0010
0001
0000
0100
,
0020
0000
0000
1030
0000
1000
0100
0000
0100
0010
0000
0010
,
0002
0000
0203
0000
0320
0000
1030
0000
0000
1010
0000
0000
,
1001
0000
0010
0100
0000
0010
0100
0001
1000
0001
0000
0010
,
0001
0100
1000
0100
0001
1000
0010
0000
0010
0100
0000
0001
,
2000
0010
3200
0001
,
0320
1000
0032
0103
,
1001
0000
0010
0100
0000
0010
0100
0000
0001
1000
0000
0001
,
1000
0000
0010
0100
0000
0001
1000
0100
0001
0100
0000
1000
,
0002
0100
1000
0103
,
2001
0000
3100
0000
0110
0000
0010
0001
,
0100
0000
1000
0100
0001
0000
0010
0000
1000
0000
0010
0000
0100
0000
0010
0000
,
0001
0100
1000
0100
0002
0010
0013
0000
,
1000
0000
0010
0001
0010
0000
0100
0000
0001
0000
0100
0000
1000
0000
0100
0000
,
0010
0000
1000
0010
0001
0000
1000
0000
0200
0000
0010
0000
0310
0000
0000
0000
,
0001
0000
0100
0010
0001
0000
0010
0000
1000
0000
0100
0000
1000
0000
0001
0000
,
0010
1000
0010
0001
0200
1000
1300
0000
,
0100
0000
0001
1000
0100
0000
0010
0000
1000
0000
0010
0000
0001
0000
0100
0000
,
0010
0000
1000
0001
0100
0000
0010
0000
2000
0000
0001
0000
3001
0000
0000
0000
,
0011
0100
0010
1000
1100
0000
0101
0000
,
1000
0001
1000
0000
0010
0000
0100
0000
0110
0000
0000
0101
0000
0000
1001
0000
,
1000
0001
1000
0000
0000
0000
0011
0000
0000
0000
1100
0000
0000
0000
0010
0100
,
0002
0000
0000
0000
1003
0010
0100
0000
0001
0000
1000
0000
0100
0000
0000
0000
,
1100
0000
0000
0000
0110
0000
0000
0000
0012
0000
0100
0000
0103
0000
0010
1000
,
0200
0000
0000
0000
0301
0100
1000
0000
0010
0000
0100
0000
0001
0000
0000
0000
,
1000
0000
0001
0000
0100
0000
0010
0000
2010
0000
0001
0000
3001
0000
1000
0100
,
0020
0000
0000
0000
1030
0010
0100
0000
1000
0000
0001
0000
0100
0000
0000
0000
,
0110
0000
0000
1010
0000
0000
0101
0000
1002
0000
0010
0000
0013
0000
0001
1000
,
0200
0000
0000
0000
1300
0010
0100
0000
0001
0000
1000
0000
0010
0000
0100
0000
,
2000
0000
0000
0000
3100
0001
1000
0000
0010
0000
0100
0001
0000
0001
0010
0000
,
0001
1000
0010
0000
0100
0000
0001
0000
0010
0000
1000
0000
0010
0000
0001
0100
,
0010
1000
0100
1000
0010
0100
0000
0002
0000
0000
1000
0000
1003
0000
0010
0000
,
0100
0000
0001
0010
0001
0000
1000
0000
0010
0000
0100
1000
0100
0000
0001
0000
,
1000
0001
0100
0000
0001
1000
0100
0000
0010
0000
0001
1000
0000
0010
0100
0000
,
0020
0000
0000
0000
1030
0001
0010
0000
0100
0000
1000
0000
0001
0000
0000
0000
,
1010
0000
0000
1100
0000
0000
0011
0000
2001
0000
0100
0000
3100
0000
1000
0001
,
0100
0010
0100
0000
0001
1000
0001
0000
1000
0001
1000
0000
0010
0100
0010
0000
,
1000
0100
0010
0001
0100
0010
1000
0001
2000
0000
3020
0000
0230
0000
0301
0000
,
2002
0000
0003
0100
0001
0000
0010
0000
,
3001
1100
0101
1100
,
2002
0000
3000
0100
1000
0000
0010
0000
,
1003
0011
1010
0011
,
1001
0000
0000
0000
1000
0010
0100
0000
0002
0000
0000
0000
1003
0000
0000
0000
,
0110
0000
0000
0000
0010
1000
0001
0000
0020
0000
0000
0000
0130
0000
0000
0000
,
2100
0001
0010
0100
,
3002
0000
0000
0010
0000
0000
1000
0000
1000
0000
0000
0000
0103
0000
0000
0000
,
0110
0000
0001
1000
0200
0000
0300
0010
,
0002
0000
0000
0000
0003
0000
0100
0000
0010
0000
1000
0100
1000
0000
0002
0000
,
0200
0000
0000
0000
,
0000
0000
0000
0000
,
0303
0000
0000
0000
;

//---------------dance-single - ----------------
#NOTEDATA:;
#CHARTNAME:;
#STEPSTYPE:dance-single;
#DESCRIPTION:;
#CHARTSTYLE:;
#DIFFICULTY:Medium;
#METER:12;
#RADARVALUES:0.558725,0.565032,0.247201,0.512060,0.123601,443.000000,415.000000,28.000000,58.000000,0.000000,0.000000,0.000000,0.000000,0.000000,0.558725,0.565032,0.247201,0.512060,0.123601,443.000000,415.000000,28.000000,58.000000,0.000000,0.000000,0.000000,0.000000,0.000000;
#CREDIT:;
#DISPLAYBPM:170.000000;
#NOTES:
0000
0000
0000
0000
,
0000
0000
0000
0000
,
0000
0000
0000
0000
,
0000
0000
0000
0000
,
0000
0000
0000
0000
,
0010
1000
0100
0010
0100
1000
0001
0000
,
1000
0001
0010
0100
0010
0001
1000
0000
,
0010
0100
0001
0010
0001
1000
0100
0000
,
1000
0001
0010
0100
1000
0001
0100
0000
,
1002
0010
0100
1003
,
0001
0100
0010
0100
0010
1000
0001
0000
,
2001
0100
0010
3001
,
1100
0000
0101
0000
1000
0001
0100
0000
,
0010
1000
0010
1000
0100
0010
0001
0000
,
0100
0001
0010
0100
0010
0001
1000
0000
,
0001
1000
0100
0010
0001
0100
0010
0000
,
1000
0001
0010
0100
1000
0010
0100
0001
,
0010
0001
1000
0010
1000
0001
0100
0000
,
0010
0100
0010
1000
0100
1000
0001
0000
,
0011
0000
1010
0000
0001
1000
0010
0000
,
0110
0000
1001
0000
1000
0100
0010
0001
,
0100
0001
0010
0100
1000
0001
1000
0000
,
0001
0010
0100
1000
0010
1000
0001
0000
,
0010
0001
0000
1000
0010
0100
0010
1000
,
0200
0000
1300
0001
0020
0000
0130
0000
,
0110
0000
0010
0001
0000
0000
1000
0000
1000
0100
0000
0000
,
1000
0000
1000
0001
0000
0001
0010
0000
0010
0100
0000
0000
,
1100
0000
0000
0011
0000
0000
0001
0000
1000
0100
0000
0000
,
1010
0000
0000
0101
0000
0000
0010
0000
1000
0001
0000
0000
,
1001
0000
1000
0010
0000
0000
0100
0000
0100
0001
0000
0000
,
0010
0000
0010
0001
0000
0001
1000
0000
1000
0100
0000
0000
,
1100
0000
0000
0011
0000
0000
1000
0000
0010
0100
0000
0000
,
0002
0000
0203
0000
0320
0000
2030
0000
0000
3001
0000
0000
,
2001
0010
0100
3001
,
1000
0000
1000
0010
0000
0010
0100
0000
0100
0001
0000
0001
,
0020
0130
0002
1003
,
0200
0000
0000
0310
0000
0000
1000
0000
1000
0001
0000
0000
,
0120
0001
1000
0130
,
0010
0000
0010
0001
0000
0001
1000
0000
1000
0100
0000
0100
,
2000
0010
0001
3100
,
0201
0000
0310
0000
1002
0000
1003
0001
,
0100
0010
0100
0001
0010
0100
1000
0000
,
0001
0010
1000
0010
0002
0000
0000
0000
,
1003
0001
0010
0001
0100
0010
1000
0000
,
0001
0100
1000
0100
0002
0000
0000
0000
,
0013
0001
0100
0010
0100
0001
1000
0000
,
1000
0100
0001
0100
2000
0000
0000
0000
,
3010
1000
0100
0010
0100
1000
0001
0000
,
1000
0010
0001
0010
2000
0000
0000
0000
,
3020
0000
0000
0100
0230
0000
0320
0000
,
0230
0000
0000
0000
1000
0000
0000
0000
0301
0000
0000
0100
0000
0000
0010
0000
,
1000
0001
0000
0101
0000
1100
0000
0010
,
1000
0000
0100
0010
0002
0000
2003
0000
,
3010
0000
1010
0000
0202
0000
0300
1000
,
1003
0000
0001
0010
0200
0000
2300
0000
,
3001
0010
0100
0010
2000
0000
0000
3010
,
0001
0000
1000
0010
0200
0000
0302
0000
,
1003
0000
0000
0010
0000
0000
0100
0000
0002
0000
0000
0000
0000
0000
0010
0000
,
0013
0000
0001
1000
0020
0000
0230
0000
,
0302
0000
0000
0000
0000
0000
1000
0000
2003
0000
0000
3020
0000
0000
0130
0000
,
0002
1000
1003
0001
0100
0010
1000
0000
,
0100
0010
0001
0100
0001
1000
0100
0000
,
1000
0010
0001
0000
0001
0010
1000
0000
,
0001
1000
0010
1000
0100
0010
0001
0100
,
0010
0000
1000
0001
0200
0000
0320
0000
,
2030
0000
0000
3002
0000
0000
2003
0000
0200
0000
0000
3000
0000
0000
0310
0000
,
0001
0100
1000
0000
1000
0100
0001
0000
,
0010
0001
0100
0010
1000
0100
0010
0001
,
2002
0000
0003
0100
0100
0000
3001
0000
,
0020
0001
1000
0130
,
0220
0000
0030
1000
1000
0000
0301
0000
,
2000
0010
0100
3001
,
1010
0000
0001
0100
0020
0000
1030
0000
,
0101
0000
0010
0100
2000
0000
3001
0000
,
0020
1000
0001
0130
,
0002
1000
0010
0103
,
1000
0100
0010
0001
,
0100
0000
0010
0000
1000
0001
0010
0002
,
0200
0000
0000
0000
,
0000
0000
0000
0000
,
0303
0000
0000
0000
;

//---------------dance-single - ----------------
#NOTEDATA:;
#CHARTNAME:;
#STEPSTYPE:dance-single;
#DESCRIPTION:;
#CHARTSTYLE:;
#DIFFICULTY:Easy;
#METER:7;
#RADARVALUES:0.346839,0.388459,0.176572,0.282516,0.000000,275.000000,255.000000,20.000000,32.000000,0.000000,0.000000,0.000000,0.000000,0.000000,0.346839,0.388459,0.176572,0.282516,0.000000,275.000000,255.000000,20.000000,32.000000,0.000000,0.000000,0.000000,0.000000,0.000000;
#CREDIT:;
#DISPLAYBPM:170.000000;
#NOTES:
0000
0000
0000
0000
,
0000
0000
0000
0000
,
0000
0000
0000
0000
,
0000
0000
0000
0000
,
0000
0000
0000
0000
,
0010
0001
0100
1000
,
0010
0100
0001
1000
,
0100
0010
0001
1000
,
0001
0100
0010
1000
,
2002
0000
0000
0003
,
0100
0100
0100
3100
,
2002
0000
0000
3000
,
0100
0100
0100
0103
,
0001
0010
0001
1000
,
0100
0010
0100
1000
,
0010
1000
0001
0010
,
0001
0100
1000
0100
,
0001
1000
0100
0010
,
0100
0010
0001
1000
,
0010
1000
0100
0001
,
1000
0001
0010
0100
,
1000
0010
0100
0001
,
0010
0100
1000
0001
,
0100
0001
0010
0100
,
1000
0001
1000
0100
,
0110
0001
1000
0100
,
1000
0010
0100
0001
,
0010
0100
0010
0001
,
1000
0101
0001
0100
,
0110
1000
0100
0010
,
0001
0100
0001
1000
,
0010
1000
0100
0010
,
0001
1000
0010
0100
,
1001
0001
0001
0001
,
1000
1000
0001
0100
,
0020
0030
2000
3000
,
0002
0003
0200
0300
,
0110
0100
0100
0100
,
0010
0010
1000
0001
,
0200
0000
0000
0300
,
0020
0030
1001
0100
,
0001
1000
0100
0010
,
0100
1000
0002
0000
,
0013
0001
0100
0010
,
1000
0001
2000
0000
,
3100
0010
0001
0100
,
0001
1000
0020
0000
,
1030
0100
1000
0001
,
0010
0001
0200
0000
,
0302
0000
1000
0103
,
0020
1000
0100
0031
,
2000
0000
0002
3003
,
1001
0010
1000
0100
,
1000
0001
0200
0300
,
0110
0001
1000
0010
,
1000
0100
0002
0003
,
0101
0010
1000
0100
,
0010
0001
2000
3000
,
1100
0001
0100
1000
,
0020
0000
0001
1030
,
1100
0001
0100
0010
,
1000
0100
0010
0001
,
1000
0010
1000
0001
,
0010
0100
1000
0001
,
1001
0100
0010
0100
,
0001
0010
0100
1000
,
0010
0010
0100
0100
,
0001
1000
0001
1000
,
2002
0003
0020
3000
,
0100
0100
0100
0130
,
0220
0030
0002
0300
,
1000
1000
1000
1003
,
0011
0000
1100
0000
,
0101
0000
1010
0000
,
0002
0100
1000
0100
,
0010
0010
0013
0000
,
2000
0000
3001
0000
,
0020
0000
0031
0000
,
0200
0000
0000
0000
,
0000
0000
0000
0000
,
0300
0000
0000
0000
;

//---------------dance-single - ----------------
#NOTEDATA:;
#CHARTNAME:;
#STEPSTYPE:dance-single;
#DESCRIPTION:;
#CHARTSTYLE:;
#DIFFICULTY:Beginner;
#METER:4;
#RADARVALUES:0.198013,0.282516,0.123601,0.044143,0.000000,157.000000,143.000000,14.000000,5.000000,0.000000,0.000000,0.000000,0.000000,0.000000,0.198013,0.282516,0.123601,0.044143,0.000000,157.000000,143.000000,14.000000,5.000000,0.000000,0.000000,0.000000,0.000000,0.000000;
#CREDIT:;
#DISPLAYBPM:170.000000;
#NOTES:
// measure 0
0000
0000
0000
0000
,  // measure 1
0000
0000
0000
0000
,  // measure 2
0000
0000
0000
0000
,  // measure 3
0000
0000
0000
0000
,  // measure 4
0000
0000
0000
0000
,  // measure 5
0010
0000
0100
0000
,  // measure 6
0001
0000
1000
0000
,  // measure 7
0100
0000
0010
0000
,  // measure 8
0001
0000
1000
0000
,  // measure 9
1001
0000
0000
0000
,  // measure 10
0010
0000
0100
0000
,  // measure 11
0110
0000
0000
0000
,  // measure 12
0001
0000
1000
0000
,  // measure 13
1001
0000
0000
0000
,  // measure 14
1000
0000
0100
0000
,  // measure 15
0110
0000
0000
0000
,  // measure 16
0010
0000
0001
0000
,  // measure 17
1000
0000
0001
0000
,  // measure 18
0010
0000
0100
0000
,  // measure 19
1000
1000
1000
0000
,  // measure 20
0001
0001
0001
0000
,  // measure 21
0010
0000
0001
0000
,  // measure 22
1000
0000
0100
0000
,  // measure 23
0010
0000
0100
0000
,  // measure 24
1000
0000
0001
0000
,  // measure 25
0110
0000
1001
0000
,  // measure 26
0001
0001
0001
0000
,  // measure 27
0010
0000
0100
0000
,  // measure 28
1000
1000
1000
0000
,  // measure 29
1001
0000
0110
0000
,  // measure 30
0100
0100
0100
0000
,  // measure 31
0010
0000
1000
0000
,  // measure 32
0001
0001
0001
0000
,  // measure 33
1001
0000
0000
0000
,  // measure 34
0100
0000
0010
0000
,  // measure 35
2000
0000
3000
0000
,  // measure 36
0002
0000
0003
0000
,  // measure 37
0110
0000
0000
0000
,  // measure 38
0001
0000
1000
0000
,  // measure 39
0020
0000
0030
0000
,  // measure 40
0200
0000
0300
0000
,  // measure 41
0001
0000
1000
0000
,  // measure 42
0010
0010
0010
0000
,  // measure 43
0100
0000
0010
0000
,  // measure 44
1000
1000
1000
0000
,  // measure 45
0100
0000
0010
0000
,  // measure 46
0001
0001
0001
0000
,  // measure 47
1000
0000
0001
0000
,  // measure 48
0100
0100
0100
0000
,  // measure 49
0001
0000
0100
0000
,  // measure 50
1000
0000
0000
0000
,  // measure 51
0010
0000
0000
0000
,  // measure 52
1000
0000
0001
0000
,  // measure 53
1000
1000
1000
0000
,  // measure 54
0001
0000
0010
0000
,  // measure 55
0100
0100
0100
0000
,  // measure 56
1000
0000
0001
0000
,  // measure 57
0010
0010
0010
0000
,  // measure 58
0100
0000
1000
0000
,  // measure 59
0010
0000
0100
0000
,  // measure 60
0001
0000
0010
0000
,  // measure 61
0001
0001
0001
0000
,  // measure 62
1000
0000
0010
0000
,  // measure 63
0100
0100
0100
0000
,  // measure 64
0001
0000
1000
0000
,  // measure 65
0010
0010
0010
0000
,  // measure 66
1000
0000
1000
0000
,  // measure 67
0001
0000
0001
0000
,  // measure 68
1001
0000
0000
0000
,  // measure 69
0100
0000
0000
0000
,  // measure 70
0110
0000
0000
0000
,  // measure 71
0010
0000
0000
0000
,  // measure 72
1000
0000
0100
0000
,  // measure 73
0010
0000
0001
0000
,  // measure 74
1001
0000
0000
0000
,  // measure 75
0110
0000
0000
0000
,  // measure 76
0010
0000
0000
0000
,  // measure 77
1000
0000
0000
0000
,  // measure 78
0200
0000
0000
0000
,  // measure 79
0000
0000
0000
0000
,  // measure 80
0300
0000
0000
0000
;
