#TITLE:SOMEDAY -00.prologue-;
#SUBTITLE:;
#ARTIST:TЁЯRA;
#TITLETRANSLIT:;
#SUBTITLETRANSLIT:;
#ARTISTTRANSLIT:;
#GENRE:;
#CREDIT:;
#BANNER:SOMEDAY -00.prologue-.png;
#BACKGROUND:SOMEDAY -00.prologue--jacket.jpg;
#LYRICSPATH:;
#CDTITLE:;
#MUSIC:SOMEDAY -00.prologue-.ogg;
#OFFSET:1.356267;
#SAMPLESTART:60.700001;
#SAMPLELENGTH:13.000000;
#LASTBEATHINT:0.844754;
#SELECTABLE:YES;
#BPMS:0.000000=170.000000
,108.000000=169.000000
,112.000000=85.000000
,127.000000=85.500000
,128.000000=127.500000
,152.000000=170.000000
,296.000000=168.000000
,300.000000=164.000000
,304.000000=162.000000
,307.000000=152.000000
,309.000000=141.000000
,310.000000=114.000000
,311.000000=88.000000
;
#STOPS:
;
#BGCHANGES:3.833=SOMEDAY -00.prologue-.avi=1.000=0=0=1=====,
99999=-nosongbg-=1.000=0=0=0 // don't automatically add -songbackground-
;
#KEYSOUNDS:;
#ATTACKS:;

//---------------dance-single - ----------------
#NOTES:
     dance-single:
     :
     Beginner:
     1:
     0.095560,0.190886,0.008158,0.000000,0.000000,82.000000,81.000000,1.000000,0.000000,0.000000,0.000000,0.095560,0.190886,0.008158,0.000000,0.000000,82.000000,81.000000,1.000000,0.000000,0.000000,0.000000:
0000
0000
0000
0000
,
0000
0000
0000
0000
,
0000
0000
0000
0000
,
0000
0000
0000
0000
,
0000
0000
0000
0000
,
0000
0000
0000
0000
,
1000
0000
0000
0000
,
0001
0000
0000
0000
,
0010
0000
0100
0000
,
0010
0000
0000
0000
,
1001
0000
0000
0000
,
0000
0000
0000
0000
,
0001
0000
0000
0000
,
0100
0000
0000
0000
,
0010
0000
0000
0000
,
1000
0000
0000
0000
,
0001
0000
0000
0000
,
1000
0000
0000
0000
,
0100
0000
0000
0000
,
0010
0000
0000
0000
,
0001
0000
0001
0000
,
0001
0000
0000
0000
,
1000
0000
1000
0000
,
1000
0000
0000
0000
,
0010
0000
0000
0000
,
0100
0000
0000
0000
,
0001
0000
1000
0000
,
0001
0000
0000
0000
,
1000
0000
0100
0000
,
0100
0000
0000
0000
,
0010
0000
0000
0000
,
0001
0000
0000
0000
,
1000
0000
0000
0000
,
0000
0000
0010
0000
,
0000
0000
0000
0000
,
0100
0000
0000
0001
,
0000
0000
1000
0000
,
0000
0001
0000
0000
,
1000
0000
1000
0000
,
1000
0000
0000
0000
,
0001
0000
0001
0000
,
0001
0000
0000
0000
,
0010
0000
0010
0000
,
0010
0000
0000
0000
,
0100
0000
0100
0000
,
0100
0000
0000
0000
,
1000
0000
0001
0000
,
1000
0000
0000
0000
,
0010
0000
0100
0000
,
0010
0000
0000
0000
,
1000
0000
0100
0000
,
1000
0000
0000
0000
,
0001
0000
0010
0000
,
0001
0000
0000
0000
,
0100
0000
0000
0000
,
0000
0000
0000
0000
,
0010
0000
0000
0000
,
1000
1000
1000
1000
,
0001
0000
0000
0000
,
1000
0000
0000
0000
,
0010
0000
0000
0000
,
0100
0000
0000
0000
,
0010
0000
0000
0000
,
1000
0000
0000
0000
,
0001
0000
0000
0000
,
1000
0000
0000
0000
,
0100
0000
0000
0000
,
0000
0000
0000
0000
,
0010
0000
0000
0000
,
0000
0000
0000
0000
,
0001
0000
0000
0000
,
0000
0000
0000
0000
,
1000
0000
0000
0000
,
0000
0000
0000
0000
,
0010
0000
0000
0000
,
0000
0000
0000
0000
,
1000
0000
0000
0000
,
0000
0000
0000
0000
,
0001
0000
0000
0000
;

//---------------dance-single - ----------------
#NOTES:
     dance-single:
     :
     Easy:
     4:
     0.156159,0.254515,0.000000,0.277356,0.000000,134.000000,134.000000,0.000000,34.000000,0.000000,0.000000,0.156159,0.254515,0.000000,0.277356,0.000000,134.000000,134.000000,0.000000,34.000000,0.000000,0.000000:
0000
0000
0000
0000
,
0000
0000
0000
0000
,
0000
0000
0000
0000
,
0000
0000
0000
0000
,
0000
0000
0000
0000
,
0000
0000
0000
0000
,
0002
0000
0000
0003
,
2000
0000
0000
3000
,
0020
0030
0200
0300
,
0002
0003
2000
3000
,
0002
0000
0000
0000
,
0000
0000
0000
0003
,
1000
0000
0100
0000
,
1000
0100
1000
0000
,
0001
0000
0010
0000
,
0200
0000
0310
0000
,
0001
0000
1000
0000
,
0001
0100
0001
0000
,
1000
0000
0000
0000
,
0020
0000
0130
0000
,
0001
0000
1000
0000
,
0001
0000
0010
0000
,
0100
0000
0010
0000
,
0002
0000
0003
0000
,
1000
0000
0000
0000
,
0010
0000
0100
0000
,
0002
0000
0000
0000
,
2000
0000
0000
3003
,
2000
0000
3001
0000
,
0002
0000
0013
0010
,
0200
0000
1300
0000
,
0020
0000
0130
0000
,
0002
0000
0000
0000
,
0000
0003
2000
0000
,
0000
0000
3000
0000
,
0100
0000
0000
0100
0000
0000
0010
0000
,
0000
0010
0000
0000
0001
0000
0000
0001
,
0000
1000
0000
0000
,
0001
0000
0100
0000
,
0020
0000
1000
0030
,
1000
0000
0001
0000
,
0020
0000
0130
0000
,
0010
0000
0001
0000
,
2000
0000
3010
0000
,
0100
0000
0001
0000
,
2000
0000
0000
3000
,
0001
1000
0001
1000
,
0200
0000
0310
0000
,
0010
0001
0010
0001
,
2000
0000
3010
0000
,
0100
0001
0100
0001
,
2000
0000
3001
0000
,
0001
0010
0001
0010
,
0200
0000
0000
0300
,
2000
0000
0000
3000
,
0020
0000
0000
0030
,
0200
0000
0000
0300
,
0001
0001
0001
0001
,
1000
0000
0001
0010
,
0100
0000
0010
0001
,
1000
0000
0001
0000
,
0100
0000
0000
0000
,
0010
0000
1000
0100
,
0010
0000
0100
1000
,
0001
0000
0100
0000
,
0020
0000
0030
0000
,
1000
0000
0000
0000
,
0001
0000
0000
0000
,
0010
0000
0100
0000
,
2000
0000
3000
0000
,
0001
0000
0000
0000
,
1000
0000
0000
0000
,
0010
0000
0100
0000
,
0002
0000
0003
0000
,
2000
0000
0000
0000
,
3000
0000
0000
0000
,
0020
0000
0000
0000
,
0130
0001
0010
0100
,
1000
0000
0000
0000
;

//---------------dance-single - ----------------
#NOTES:
     dance-single:
     :
     Medium:
     7:
     0.263372,0.355286,0.024473,0.375247,0.028551,226.000000,223.000000,3.000000,46.000000,0.000000,0.000000,0.263372,0.355286,0.024473,0.375247,0.028551,226.000000,223.000000,3.000000,46.000000,0.000000,0.000000:
0000
0000
0000
0000
,
0000
0000
0000
0000
,
0000
0000
0000
0000
,
0000
0000
0000
0000
,
0000
0000
0000
0000
,
0000
0000
0000
0000
,
0002
0000
0013
0100
,
2000
0000
3010
1000
,
0002
0000
2003
0000
,
3020
0000
0200
0330
,
2002
0000
0000
0000
,
0000
0000
0000
3003
,
0001
0001
0010
0100
,
1000
0010
1000
0000
0001
0000
0000
0000
,
1000
0100
0010
0001
,
0200
0000
0320
0000
,
1030
0100
1000
0001
,
0100
0010
0100
0000
0001
0000
0000
0000
,
0001
0000
0010
0100
0000
1000
0000
0001
,
2000
0010
3020
0100
,
0130
0001
1000
0001
,
0010
0100
1000
0000
,
0100
0000
0010
0001
,
1000
0000
0000
0010
0000
0000
1000
0000
0001
0000
0000
0000
0000
0000
0000
0000
,
0010
0100
1000
0000
,
0001
0001
0010
0001
,
0100
0000
0000
0010
0000
0000
1000
0000
0001
0000
0000
0000
0000
0000
0000
0000
,
2002
0000
0000
3003
,
1000
0100
0020
0030
,
0001
0100
0020
0130
,
0001
1000
0200
0310
,
0200
1300
0001
0000
,
0200
0000
0000
0300
,
0000
0000
0000
0000
0000
0000
0000
0000
0000
0000
0000
0000
0000
0001
0000
0000
1000
0000
0000
0000
0000
0000
0000
0000
0000
0000
0000
0000
0000
0000
0000
0000
,
0000
0000
0000
0000
0000
0000
0000
0000
0000
0000
0000
0000
0000
0000
0000
0000
0000
0000
0000
0000
0100
0000
0000
0000
0000
0000
0000
0000
0000
0100
0000
0000
,
0010
0000
0000
0001
0000
0000
1000
0000
,
0000
0010
0000
0000
0100
0000
0000
0001
,
0000
0000
0000
0000
1000
0000
0000
0100
0000
0000
1000
0000
0000
0200
0000
0000
,
0310
0001
0100
0010
,
2000
0000
0000
0001
0000
3001
0010
0100
,
1000
0010
0100
0001
,
2000
0000
0000
0001
3001
0000
0000
0000
,
1000
0100
0010
0001
,
0200
0000
0000
0010
0000
0310
1000
0001
,
0010
0100
1000
0001
,
0200
0000
0010
0310
,
1000
0100
1000
0001
,
0200
0000
0000
0310
0000
1000
0001
1000
,
0001
0010
0100
1000
,
0020
0000
0000
0100
0230
0000
0300
0000
,
0001
1000
0100
0010
,
0002
0000
0000
0103
0000
0010
1000
0010
,
1000
0100
0010
0001
,
1000
0000
0000
0001
0000
0000
1000
0000
0000
0000
0001
0000
0100
0000
0000
0000
,
0020
0000
0000
0000
,
2030
0000
0000
3000
,
1002
0000
0000
0000
0000
0000
0000
0003
,
0100
0100
0100
0200
,
0310
1000
0100
1000
,
0001
0010
0100
1000
,
0010
0100
0001
1000
,
0002
0000
1003
0000
,
1000
0100
0010
0001
,
0100
0010
1000
0001
,
0010
0100
0010
0001
,
2000
0000
3010
0000
,
0200
0000
0301
0000
,
0020
0000
0130
0000
,
2000
0000
3001
0100
,
0020
0000
1030
0000
,
0002
0000
0013
0000
,
0200
0000
1300
0000
,
0020
0000
0130
0001
,
2000
0000
3000
0000
,
0002
0000
0003
0000
,
0020
0000
0030
0000
,
0200
0000
0300
0000
,
1000
0010
0100
0001
,
2000
0000
0000
0000
,
0000
0000
0000
3000
0000
0000
0000
0000
0000
0000
0000
0000
0000
0000
0000
0000
;

//---------------dance-single - ----------------
#NOTES:
     dance-single:
     :
     Hard:
     12:
     0.393893,0.581378,0.048945,0.840226,0.183545,338.000000,332.000000,6.000000,103.000000,0.000000,0.000000,0.393893,0.581378,0.048945,0.840226,0.183545,338.000000,332.000000,6.000000,103.000000,0.000000,0.000000:
// measure 0
0000
0000
0000
0000
,  // measure 1
0000
0000
0000
0000
,  // measure 2
0000
0000
0000
0000
,  // measure 3
0000
0000
0000
0000
,  // measure 4
0000
0000
0000
0000
,  // measure 5
0000
0000
0000
0000
,  // measure 6
0001
0000
0100
0010
,  // measure 7
1000
0000
0100
0010
,  // measure 8
0001
0010
0100
1000
,  // measure 9
0002
0000
0000
0103
0010
0000
0000
0000
,  // measure 10
2002
0000
0000
0000
,  // measure 11
0000
0000
0000
3003
,  // measure 12
0001
1000
0010
0100
,  // measure 13
0001
0010
0100
0010
0001
0000
1000
0000
,  // measure 14
0001
0000
0100
0000
0010
0000
1000
0100
,  // measure 15
0020
0000
0130
1000
0002
0000
0103
0000
,  // measure 16
0010
1000
0001
0010
,  // measure 17
0100
1000
0001
1000
0010
0000
0100
0000
,  // measure 18
0101
0000
0000
0000
1000
0000
1100
0000
0000
0000
0011
0000
0000
0000
0001
0100
,  // measure 19
0020
0000
0000
0000
1030
0000
0001
0000
0020
0000
0000
0130
1000
0000
0001
0000
,  // measure 20
0200
0000
0000
0010
0000
0000
0301
0000
0000
0000
0010
0000
0000
0000
0100
0000
,  // measure 21
2000
0000
0000
0100
0000
0000
3001
0000
0000
0000
0010
0000
0000
0000
0001
0000
,  // measure 22
0200
0000
0000
1000
0000
0000
0310
0000
0000
0000
0010
0000
0000
0000
1000
0000
,  // measure 23
0001
0000
0000
0011
0000
0000
1000
0000
0001
0000
0000
0000
1000
0000
0001
1000
,  // measure 24
0002
0000
0000
0100
0000
0000
1003
0000
0000
0000
0010
0000
0000
0000
1000
0000
,  // measure 25
0200
0000
0000
0010
0000
0000
0301
0000
0100
0000
0000
0000
1000
0000
0000
0000
,  // measure 26
0001
0000
0000
0100
0000
0000
0001
0000
1000
0000
0000
0000
0000
0000
0001
2000
,  // measure 27
0002
0000
0000
0000
0000
0000
0000
3003
,  // measure 28
1000
0000
0100
0000
0010
0000
0001
0000
2000
0000
0000
3002
0000
0000
0000
0000
,  // measure 29
0103
0000
0010
0000
1000
0000
0001
0000
0020
0000
0000
0100
0230
0000
0000
0000
,  // measure 30
1300
0000
0100
0000
0010
0000
0001
0000
2000
0000
0000
3020
0000
0000
0230
0000
,  // measure 31
0302
0000
0000
0023
0000
0000
0230
0000
2300
0000
0000
0000
0001
0000
0000
0000
,  // measure 32
3002
0000
0000
0010
0000
0000
1000
0000
0000
0100
0000
0000
0203
0000
0000
0000
,  // measure 33
0000
1000
0000
0000
0000
0000
0000
0000
0000
0000
0301
0000
0000
1000
0000
0000
2000
0000
0000
0000
0000
0000
0000
0000
0000
0100
0000
0000
0000
0000
0000
0000
,  // measure 34
0000
0000
0001
0000
0000
0000
0000
0000
3020
0000
0000
0000
0000
0000
0000
0000
0000
0100
0000
0000
0230
0000
0000
0000
0000
0000
0000
0000
0000
0001
0000
0000
,  // measure 35
0301
0000
0000
0100
0000
0000
1000
0000
0000
0100
0000
0000
0001
0000
0000
0010
,  // measure 36
0000
0100
0000
0000
1000
0000
0000
0000
0000
0000
0010
0000
0000
0000
0000
0000
0100
0000
0000
0000
0000
0000
0001
0000
0000
0010
0000
0000
0100
0000
0000
0000
,  // measure 37
0000
0000
0000
0000
0010
0000
0000
0000
0000
0000
0001
0000
0000
1000
0000
0000
0001
0000
0000
0000
0000
0000
0000
0000
0000
0000
0000
0000
1000
0000
0000
0000
0000
0000
0000
0000
0000
0000
0000
0000
0001
0000
0000
0000
0000
0000
0000
0000
0000
0000
0000
0000
0010
0000
0000
0100
0000
0000
0010
0000
0000
0100
0000
0000
,  // measure 38
2000
3200
0320
0032
,  // measure 39
2003
0000
3010
0002
0000
0013
0100
0001
,  // measure 40
2000
3200
0302
0203
,  // measure 41
2300
0000
3010
0100
0020
0000
1030
0000
,  // measure 42
0002
0023
0230
2300
,  // measure 43
3002
0000
0103
2000
0000
3100
0001
0010
,  // measure 44
0200
2300
3002
0203
,  // measure 45
0320
0000
0000
0000
1030
0000
0000
0000
0001
0000
0000
1000
0001
0000
0100
0000
,  // measure 46
0020
2030
3200
0320
,  // measure 47
0032
0000
0103
0010
1000
0100
0010
0001
,  // measure 48
2000
3020
0032
0023
,  // measure 49
2030
0000
3100
0010
0020
0000
0031
0000
,  // measure 50
2000
3200
0302
0203
,  // measure 51
2300
0000
3001
0010
0100
1000
0010
0100
,  // measure 52
0002
0000
0000
0000
0203
0000
0000
0000
2300
0000
0000
0000
3100
0000
0001
1000
,  // measure 53
0001
0000
0000
0010
0000
0000
0100
0000
0000
0000
1000
0000
0001
0000
1000
0100
,  // measure 54
2000
0100
0001
0010
,  // measure 55
3020
0000
0000
0100
0000
0000
0031
0000
,  // measure 56
0120
0000
0000
2030
0000
0000
3002
0000
,  // measure 57
0010
0000
0000
0000
0010
0000
0000
0000
0013
0000
0000
0000
0100
1000
0100
1000
,  // measure 58
0002
0000
0103
0020
1000
0030
0002
0000
,  // measure 59
0023
0000
0130
2000
0001
3000
2000
0000
,  // measure 60
3020
0000
0130
0002
1000
0003
0002
0000
,  // measure 61
0023
0100
1000
0031
,  // measure 62
2000
0000
3001
0200
0010
0300
2000
0000
,  // measure 63
3002
0000
0013
0200
0010
0300
0002
0000
,  // measure 64
2003
0000
3010
0200
0001
0300
2000
0000
,  // measure 65
3200
0001
0010
1300
,  // measure 66
0001
0000
0100
0010
,  // measure 67
1000
0000
0001
0010
,  // measure 68
0100
0000
0000
0010
0001
0000
1000
0000
,  // measure 69
0020
0000
0130
0000
,  // measure 70
0001
0000
1000
0100
,  // measure 71
0010
0000
0100
1000
,  // measure 72
0001
0000
0000
0100
0000
0000
0010
0000
,  // measure 73
2000
0000
3000
0000
,  // measure 74
0200
0000
0000
0300
,  // measure 75
2000
0001
0010
3000
,  // measure 76
0020
1000
0001
0030
,  // measure 77
1000
0000
0100
0000
0010
0000
0001
1000
,  // measure 78
0002
0000
0000
0000
,  // measure 79
0000
0000
0000
0003
0000
0000
0000
0000
0000
0000
0000
0000
0000
0000
0000
0000
;

//---------------dance-single - ----------------
#NOTES:
     dance-single:
     :
     Challenge:
     14:
     0.614146,0.936664,0.277356,0.538398,0.464980,527.000000,493.000000,34.000000,66.000000,0.000000,0.000000,0.614146,0.936664,0.277356,0.538398,0.464980,527.000000,493.000000,34.000000,66.000000,0.000000,0.000000:
0000
0000
0000
0000
,
0000
0000
0000
0000
,
0000
0000
0000
0000
,
0000
0000
0000
0000
,
0000
0000
0000
0000
,
0000
0000
0000
0010
,
1002
0000
0000
0203
0000
0000
0310
0000
,
1000
0000
0200
0010
0000
0000
1300
0000
,
2100
3010
0012
0103
,
2001
0000
0000
3020
0200
0000
0330
0000
,
2001
0000
0000
0000
0000
0000
0010
0000
0000
0000
0000
0000
3100
0000
1000
0001
,
1000
0001
0000
0000
0000
0000
0010
0000
0000
0001
0000
0000
0100
0000
0001
1000
,
0100
0000
1000
0010
0100
0010
1000
0100
,
0010
0000
0001
0000
0100
0000
0010
0000
0100
0000
0000
0000
1010
0000
0001
0100
,
0010
0000
1000
0100
0010
0100
0001
0100
,
0020
0000
0000
0000
0031
0000
0100
0000
2000
0000
0000
3100
0010
0000
0000
0000
,
0110
0000
0001
1000
0100
1000
0010
0100
,
0001
0000
0010
0000
1000
0000
0010
0000
0100
0000
0000
0000
1000
0000
0001
0010
,
0100
0000
0000
0000
1000
0000
1100
0000
0000
0000
0011
0000
0000
0000
0001
0100
,
0020
0000
0000
0000
1030
0000
0001
0010
0200
0000
0000
1300
0001
0010
0001
0010
,
0100
0000
0000
1000
0001
0000
0100
0000
0010
0000
0000
1000
0100
0000
0010
0000
,
0001
0000
0000
1000
0001
0000
0100
0000
1000
0000
0000
0000
0100
0000
0010
0100
,
0001
0000
0000
0000
1000
0000
0001
0010
0100
0000
0000
1000
0010
0000
0100
0000
,
0101
0000
0000
1100
0000
0000
1010
0000
0012
0000
0000
0000
0013
0000
0010
0100
,
1000
0000
0000
0001
0100
0000
0001
0000
0010
0000
0000
0000
0100
0000
1000
0100
,
0010
0011
0101
1100
,
1010
0000
0000
0101
0000
0000
1100
0000
0210
0000
0000
0000
0000
0000
1300
0001
,
0200
1000
0001
0310
,
0020
0000
0001
0000
1000
0000
0100
0000
0130
0001
1000
0001
0010
0100
1000
0001
,
2000
0000
0100
0000
0001
0000
0010
0000
3010
0100
0001
1000
1000
0100
1000
0001
,
0020
0000
0100
0000
1000
0000
0001
0000
0031
0100
0001
1000
0010
1000
0100
0010
,
0100
0001
0100
1000
0010
1000
0001
0010
0200
0000
1300
0010
0100
1000
0100
0001
,
1000
0000
0000
0100
0000
0000
0010
0000
0000
0001
0000
0000
1002
0000
0000
0000
,
0000
0103
0000
0000
0000
0000
0000
0000
0000
0000
0010
0000
0000
1000
0000
0000
1002
0000
0000
0000
0000
0000
0000
0000
0000
0013
0000
0000
0000
0000
0000
0000
,
0000
0000
0100
0000
0000
0000
0000
0000
2000
0000
0000
0000
0000
0000
0000
0000
0000
0010
0000
0000
3020
0000
0000
0000
0000
0000
0000
0000
0000
0130
0000
0000
,
0110
0000
0000
0001
0000
0000
1100
0000
0000
0010
0000
0000
1002
0000
0000
0013
,
0000
0001
0000
0000
0100
0000
0000
0000
0000
0000
0010
0000
0000
0000
0000
0000
2010
0000
0000
0000
0000
0000
3001
0000
0000
1000
0000
0000
0100
0000
0000
0000
,
0000
0000
0000
0000
0010
0000
0000
0000
0000
0000
0001
0000
0000
1000
0000
0000
0001
0000
0000
0000
0000
0000
0000
0000
0000
0000
0000
0000
0100
0000
0000
0000
0000
0000
0000
0000
0000
0000
0000
0000
0010
0000
0000
0000
0000
0000
0000
0000
0000
1000
0000
0000
0001
0000
0000
0010
0000
0000
0001
0000
0000
0010
0000
0000
,
0100
0000
0000
0100
1000
0000
0000
1000
0001
0000
0000
0001
0100
0000
0000
0100
,
0010
0000
0000
1000
0100
0000
0020
0000
0000
0000
0130
0000
1000
0000
0010
0000
,
0100
0000
0000
0100
0001
0000
0000
0001
0010
0000
0000
0010
0001
0000
0000
0001
,
1000
0000
0100
0000
0010
0000
0001
0000
0002
0000
0000
1003
0010
0000
0000
0000
,
1000
0000
0000
1000
0001
0000
0000
0001
0100
0000
0000
0100
0010
0000
0000
0010
,
1000
0000
0000
0001
0010
0000
0200
0000
0000
0000
0310
0000
0001
0000
0100
0000
,
0010
0000
0000
0010
1000
0000
0000
1000
0001
0000
0000
0001
0100
0000
0000
0100
,
0001
0000
0000
0001
0010
0000
0000
0010
0100
0000
0000
0100
1000
0100
1000
0100
,
0010
0000
0000
0010
0001
0000
0000
1000
0010
0000
0000
0100
0001
0000
0000
1000
,
0001
0010
1000
0020
0000
0130
1000
0010
,
0100
0000
0000
1000
0100
0000
0000
0001
0100
0000
0000
0010
1000
0000
0000
0001
,
0010
0000
0100
0000
0010
0000
0001
0000
2000
0000
0000
3001
0100
0000
0000
0000
,
0010
0000
0000
1000
0100
0000
0000
0010
1000
0000
0000
0010
0100
0000
0000
1000
,
0001
0010
0100
2000
0000
3010
0001
0010
,
0100
0000
0000
0001
0010
0000
0000
0100
0001
0000
0000
0100
0010
0000
0001
1000
,
0010
0000
0000
0101
0000
0000
1200
0000
0000
0000
0310
0000
0001
0000
1000
0010
,
0200
0010
1000
0310
,
0102
0000
0000
1000
0000
0000
0013
0000
,
0210
0000
0000
1000
0000
0000
0310
0000
,
0120
0000
0000
0000
0100
0000
0000
0000
0130
0000
0000
1000
0100
0010
0001
1000
,
0020
0130
0010
2000
3100
1000
0002
0013
,
0002
0103
0001
2000
3010
1000
0200
0301
,
0200
1300
0020
0230
0310
0001
0020
0130
,
0002
1003
0001
0010
0100
1000
0001
0000
,
2000
3001
0010
0002
0103
0001
2000
3010
,
0200
1300
0200
0302
1003
0100
0002
1003
,
0020
0130
0010
0002
1003
0001
0200
1300
,
0002
0013
0100
0001
0010
0100
1000
0001
,
0100
0000
0010
2000
0000
0000
3001
0000
,
0010
0000
0100
2000
0000
0000
3010
0000
,
1000
0000
0000
0001
0010
0000
0001
0000
,
0200
0000
0310
0000
,
1000
0000
0001
0200
0000
0000
0301
0000
,
0010
0000
0100
0020
0000
0000
0031
0000
,
1000
0000
0000
0010
0000
0000
0001
0000
,
0020
0000
1030
0000
,
1001
0000
1000
0100
0010
0001
1000
0001
,
0101
0100
0010
0100
1000
0100
0010
0100
,
0101
0001
1000
0001
0010
0100
1000
0010
,
0001
0010
1000
0100
0001
0100
1000
0010
,
0200
0000
0000
0000
,
0000
0000
0000
0300
0000
0000
0000
0000
0000
0000
0000
0000
0000
0000
0000
0000
;

//---------------dance-double - ----------------
#NOTES:
     dance-double:
     :
     Challenge:
     14:
     0.590839,0.936664,0.203938,0.481295,0.452743,507.000000,482.000000,25.000000,59.000000,0.000000,0.000000,0.590839,0.936664,0.203938,0.481295,0.452743,507.000000,482.000000,25.000000,59.000000,0.000000,0.000000:
00000000
00000000
00000000
00000000
,
00000000
00000000
00000000
00000000
,
00000000
00000000
00000000
00000000
,
00000000
00000000
00000000
00000000
,
00000000
00000000
00000000
00000000
,
00000000
00000000
00000000
00000010
,
00001002
00000000
00000000
00000203
00000000
00000000
00001300
00000000
,
00200000
00000000
02300000
10000000
00000000
00000000
03100000
00000000
,
00210000
00301000
00010200
00000310
,
00000201
00000000
00000000
00002300
00020000
00000000
00033000
00000000
,
02200000
00000000
00000000
00000000
00000000
00000000
00000000
00000000
00000000
00000000
00000000
00000000
03300000
00000000
10000000
00010000
,
10000000
00010000
00000000
00000000
00000000
00000000
00100000
00000000
00000000
01000000
00000000
00000000
00010000
00000000
00001000
00010000
,
00001000
00000000
00010000
00000100
00000010
00001000
00000010
00000100
,
00010000
00000000
00001000
00000000
00000100
00000000
00001000
00000000
00010000
00000000
00000000
00000000
00001000
00000000
00010000
00001000
,
00100000
00000000
01000000
10000000
00100000
00010000
00100000
10000000
,
02000000
00000000
00000000
00000000
03100000
00000000
00010000
00000000
00002000
00000000
00000000
00003100
00000001
00000000
00000000
00000000
,
00000110
00000000
00000001
00000100
00001000
00010000
00000100
00010000
,
01000000
00000000
00100000
00000000
00010000
00000000
01000000
00000000
00100000
00000000
00000000
00000000
10000000
00000000
00100000
00010000
,
00001000
00000000
00000000
00000000
00010000
00000000
00010100
00000000
00000000
00000000
02001000
00000000
00000000
00000000
03100000
10000000
,
00020000
00000000
00000000
00000000
10030000
00000000
01000000
00100000
00010000
00000000
00000000
00100000
00001000
00010000
00001000
00010000
,
00000100
00000000
00000000
00000010
00000001
00000000
00001000
00000000
00000010
00000000
00000000
00000100
00001000
00000000
00010000
00000000
,
00100000
00000000
00000000
00010000
00001000
00000000
00010000
00000000
01000000
00000000
00000000
00000000
00100000
00000000
00010000
00100000
,
00001000
00000000
00000000
00000000
00010000
00000000
00001000
00010000
00000100
00000000
00000000
00000010
00000001
00000000
00001000
00000000
,
00001010
00000000
00000000
00011000
00000000
00000000
00001100
00000000
00000120
00000000
00000000
00000000
00000031
00000000
00001000
00000001
,
00000100
00000000
00000000
00000010
00000100
00000000
00001000
00000000
00020000
00000000
00000000
00000000
01030000
00000000
00100000
00001000
,
00020000
01000000
00032000
00003100
,
00000100
00000000
00000000
00000101
00000000
00000000
00000011
00000000
00000210
00000000
00000000
00000000
00000000
00000000
00001300
00000100
,
00020000
00100000
00001000
01030000
,
20000000
00000000
01000000
00000000
30020000
00000000
00100000
00000000
00031000
00000100
00000010
00000001
00000100
00001000
00010000
00000100
,
00000020
00000000
00000001
00000000
00000230
00000000
00001000
00000000
00010300
00001000
00000100
00010000
00001000
00000010
00010000
00001000
,
00200000
00000000
01000000
00000000
00320000
00000000
10000000
00000000
01030000
00100000
00010000
00001000
00010000
01000000
00010000
00001000
,
00000100
00000001
00000010
00000100
00000010
00000001
00000100
00000010
00002000
00000000
00013000
00001000
00000010
00010000
00001000
01000000
,
00100000
00000000
00000000
10000000
00000000
00000000
01000000
00000000
00000000
00010000
00000000
00000000
00021000
00000000
00000000
00000000
,
00000000
00030100
00000000
00000000
00000000
00000000
00000000
00000000
00000000
00000000
00000010
00000000
00000000
00000001
00000000
00000000
00001002
00000000
00000000
00000000
00000000
00000000
00000000
00000000
00000000
00000103
00000000
00000000
00000000
00000000
00000000
00000000
,
00000000
00000000
00000010
00000000
00000000
00000000
00000000
00000000
00020000
00000000
00000000
00000000
00000000
00000000
00000000
00000000
00000000
00001000
00000000
00000000
00032000
00000000
00000000
00000000
00000000
00000000
00000000
00000000
00000000
01000000
00000000
00000000
,
01003000
00000000
00000000
00100000
00000000
00000000
10000000
00000000
00000000
01000000
00000000
00000000
00020000
00000000
00000000
00031000
,
00000000
00000010
00000000
00000000
00000100
00000000
00000000
00000000
00000000
00000000
00001000
00000000
00000000
00000000
00000000
00000000
00000002
00000000
00000000
00000000
00000000
00000000
00000103
00000000
00000000
00001000
00000000
00000000
00010000
00000000
00000000
00000000
,
00000000
00000000
00000000
00000000
00001000
00000000
00000000
00000000
00000000
00000000
00010000
00000000
00000000
00001000
00000000
00000000
00100000
00000000
00000000
00000000
00000000
00000000
00000000
00000000
00000000
00000000
00000000
00000000
01000000
00000000
00000000
00000000
00000000
00000000
00000000
00000000
00000000
00000000
00000000
00000000
10000000
00000000
00000000
00000000
00000000
00000000
00000000
00000000
00000000
00010000
00000000
00000000
01000000
00000000
00000000
00100000
00000000
00000000
01000000
00000000
00000000
00100000
00000000
00000000
,
10000000
00000000
00000000
10000000
01000000
00000000
00000000
01000000
00010000
00000000
00000000
00010000
00001000
00000000
00000000
00001000
,
00000010
00000001
00001000
00000020
00000000
00000130
00001000
00010000
,
00000100
00000000
00000000
00000100
00000010
00000000
00000000
00000010
00000001
00000000
00000000
00000001
00001000
00000000
00000000
00001000
,
00000020
00000000
00000000
00000130
00001000
00000000
00010000
00000000
00000200
00000000
00000000
00001300
00000010
00000000
00000000
00000000
,
00000100
00000000
00000000
00000100
00000010
00000000
00000000
00000010
00010000
00000000
00000000
00010000
00001000
00000000
00000000
00001000
,
00000200
00000000
00001300
00020000
00000000
00130000
01000000
00010000
,
10000000
00000000
00000000
10000000
01000000
00000000
00000000
01000000
00010000
00000000
00000000
00010000
00001000
00000000
00000000
00010000
,
00000100
00000000
00000000
00000100
00000010
00000000
00000000
00000010
00000001
00000000
00000000
00000001
00001000
00000000
00000000
00000000
,
00000001
00000000
00000000
00000100
00001000
00000000
00000000
00000100
00000010
00000000
00000000
00001000
00000100
00000000
00000000
00010000
,
00002000
00000000
00103000
02000000
00000000
13000000
01000000
00010000
,
01000000
00000000
00000000
10000000
01000000
00000000
00000000
00100000
00001000
00000000
00000000
00100000
01000000
00000000
00000000
00100000
,
00020000
00000000
00000000
00000000
00031000
00000000
00000100
00000000
00000020
00000000
00000000
00000031
00001000
00000000
00000000
00000000
,
00000001
00000000
00000000
00000010
00000100
00000000
00000000
00010000
00001000
00000000
00000000
01000000
00100000
00000000
00000000
10000000
,
00020000
00000000
00130000
02000000
00000000
03100000
00001000
00010000
,
00000100
00000000
00000000
00000010
00001000
00000000
00000000
00000010
00000100
00000000
00000000
00010000
00001000
00000000
00000000
01000000
,
00100000
00000000
00000000
10100000
00000000
00000000
00210000
00000000
00000000
00000000
01300000
00000000
00010000
00000000
00001000
00010000
,
00002000
00010000
00000100
00013000
,
00021000
00000000
00000000
00100000
00000000
00000000
00031000
00000000
,
00010200
00000000
00000000
00000320
00000000
00000000
00000031
00000000
,
00000102
00000000
00000000
00000000
00000100
00000000
00000000
00000000
00000103
00000000
00000000
00000010
00001000
00000100
00010000
00000100
,
00010000
00001000
00000100
00000010
00001000
00000100
00000001
00001000
,
00000010
00000100
00010000
00000010
00000100
00001000
00010000
00001000
,
00000100
00001000
00010000
01000000
10000000
00100000
00010000
00001000
,
00010000
01000000
00100000
00001000
01000000
00100000
10000000
00000000
,
00010000
00100000
01000000
00010000
10000000
00100000
00010000
01000000
,
00100000
00010000
00001000
00000100
00001000
00010000
00000100
00000010
,
00001000
00000010
00000001
00000100
00000010
00000100
00001000
00010000
,
00100000
01000000
00010000
10000000
01000000
00010000
00001000
00000000
,
00000020
00000000
00000031
00002000
00000000
00000000
00003010
00000000
,
00000100
00000000
00001000
00020000
00000000
00000000
01030000
00000000
,
00100000
00000000
00000000
00010000
01000000
00000000
00100000
00000000
,
20000000
00000000
30010000
00000000
,
10000000
00000000
01000000
00200000
00000000
00000000
00301000
00000000
,
00000100
00000000
00001000
00020000
00000000
00000000
00030100
00000000
,
00000010
00000000
00000000
00000001
00000000
00000000
00000100
00000000
,
00002000
00000000
00013000
00000000
,
00011000
00000000
00001000
00010000
00000100
00000010
00000001
00000100
,
00000110
00000010
00000100
00001000
00010000
00000100
00010000
00001000
,
00101000
00100000
00010000
00100000
10000000
00100000
00010000
10000000
,
01000000
00100000
00001000
00010000
00000100
00000010
00000001
00000100
,
00002000
00000000
00000000
00000000
,
00000000
00000000
00000000
00003000
00000000
00000000
00000000
00000000
00000000
00000000
00000000
00000000
00000000
00000000
00000000
00000000
;
