#TITLE:SHUM;
#SUBTITLE:;
#ARTIST:Go_A;
#TITLETRANSLIT:;
#SUBTITLETRANSLIT:;
#ARTISTTRANSLIT:;
#GENRE:UKRAINIAN FOLK DARK-TECHNO;
#CREDIT:;
#BANNER:SHUM.png;
#BACKGROUND:SHUM-bg.png;
#LYRICSPATH:;
#CDTITLE:cdtitle.png;
#MUSIC:SHUM.ogg;
#OFFSET:-0.067000;
#SAMPLESTART:73.499008;
#SAMPLELENGTH:15.000000;
#SELECTABLE:YES;
#DISPLAYBPM:61.000000:155.000000;
#BPMS:0.000000=115.000000
,2.000000=115.430000
,4.000000=117.809998
,8.000000=119.139999
,10.000000=120.510010
,12.000000=124.999992
,64.000000=125.280006
,68.000000=125.969994
,72.000000=126.540001
,76.000000=127.129997
,80.000000=127.800003
,84.000000=128.190002
,88.000000=129.029999
,92.000000=130.460007
,96.000000=61.250004
,96.500000=64.470001
,97.000000=66.650002
,97.500000=68.209999
,98.000000=69.730003
,98.500000=71.330002
,99.000000=71.980003
,99.500000=71.800003
,100.000000=73.260002
,100.500000=73.540001
,101.000000=73.519997
,101.500000=79.930000
,102.000000=79.320000
,102.500000=83.790001
,103.000000=79.410004
,103.500000=79.000000
,104.000000=82.599998
,105.000000=83.769997
,106.000000=82.239998
,107.000000=89.440002
,108.000000=85.169998
,109.000000=97.000000
,110.000000=103.349998
,111.000000=100.510002
,112.000000=90.000000
,113.000000=100.769997
,114.000000=102.150002
,115.000000=104.230003
,116.000000=105.919998
,117.000000=108.959999
,118.000000=109.519997
,119.000000=112.839996
,120.000000=115.000000
,121.000000=115.660004
,122.000000=118.459999
,123.000000=120.639999
,124.000000=115.000000
,125.000000=119.919998
,126.000000=130.000000
,127.000000=139.610001
,128.000000=129.360001
,129.000000=123.000000
,130.000000=130.649994
,131.000000=144.000000
,132.000000=147.369995
,133.000000=141.000000
,134.000000=142.860001
,135.000000=144.910004
,136.000000=144.979996
,143.000000=145.000000
,176.000000=145.360001
,178.000000=145.500000
,180.000000=145.960007
,182.000000=146.199997
,184.000000=146.009995
,186.000000=147.080002
,188.000000=146.800003
,190.000000=146.929993
,192.000000=149.000000
,194.000000=146.869995
,196.000000=148.339996
,198.000000=148.369995
,200.000000=148.850006
,202.000000=149.389999
,204.000000=149.259995
,206.000000=149.270004
,208.000000=150.639999
,210.000000=150.779999
,212.000000=150.619995
,214.000000=150.850006
,216.000000=151.369995
,218.000000=151.800003
,220.000000=152.070007
,222.000000=152.350006
,224.000000=152.520004
,226.000000=152.710007
,228.000000=153.369995
,230.000000=153.440002
,232.000000=153.580002
,234.000000=154.320007
,236.000000=154.759995
,237.000000=154.800003
,238.000000=154.270004
,239.000000=154.199997
,240.000000=152.399994
;
#STOPS:
;
#BGCHANGES:0.000=SHUM.avi=1.000=0=0=0=StretchNoLoop==CrossFade_Fastest==,
99999=-nosongbg-=1.000=0=0=0 // don't automatically add -songbackground-
;
#KEYSOUNDS:;
#ATTACKS:;

//---------------dance-single - Daff_4K----------------
#NOTES:
     dance-single:
     Daff_4K:
     Beginner:
     3:
     0.133452,0.175997,0.008416,0.000000,0.000000,111.000000,110.000000,1.000000,0.000000,0.000000,0.000000,0.133452,0.175997,0.008416,0.000000,0.000000,111.000000,110.000000,1.000000,0.000000,0.000000,0.000000:
0000
0000
0000
0000
,
0000
0000
0000
0000
,
0000
0000
0000
0000
,
0000
0000
0000
0000
,
1000
0000
1000
0000
,
1000
0000
0000
0000
,
0001
0000
0001
0000
,
0001
0000
0000
0000
,
1000
0000
0001
0000
,
1000
0000
0000
0000
,
0100
0000
0010
0000
,
0100
0000
0000
0000
,
1000
1000
1000
0000
,
0001
0001
0001
0000
,
0010
0010
0010
0000
,
0100
0000
1000
0000
,
0001
0000
1000
0000
,
0001
0000
0000
0000
,
0100
0000
0010
0000
,
0100
0000
0000
0000
,
0001
0001
0001
0000
,
1000
1000
1000
0000
,
0010
0010
0010
0000
,
0100
0000
0001
0000
,
1001
0000
0000
0000
,
0000
0000
0000
0000
,
0000
1000
0000
1000
,
0000
0100
0000
0100
,
0000
0001
0000
0001
,
0000
0010
0000
0010
,
0000
1000
0000
0100
,
0000
0001
0000
0010
,
0000
1000
0000
0100
,
0000
0010
0000
0001
,
0000
0000
0000
0000
,
0000
0000
0000
0000
,
1000
0000
0010
0000
,
0100
0000
0001
0000
,
0010
0000
0100
0000
,
1000
1000
1000
0000
,
0001
0000
0010
0000
,
0100
0000
1000
0000
,
0010
0000
0100
0000
,
0001
0001
0001
0000
,
1000
0000
0100
0000
,
1000
0000
0000
0000
,
0001
0000
0010
0000
,
0001
0000
0000
0000
,
0100
0100
0100
0000
,
0010
0010
0010
0000
,
1000
0000
0001
0000
,
0100
0100
0100
0000
,
0001
0000
0100
0000
,
0001
0000
0000
0000
,
1000
0000
0010
0000
,
1000
0000
0000
0000
,
0100
0100
0100
0000
,
0010
0010
0010
0000
,
0001
0000
1000
0000
,
0100
0100
0100
0100
;

//---------------dance-single - Daff_4K----------------
#NOTES:
     dance-single:
     Daff_4K:
     Easy:
     6:
     0.277724,0.341895,0.252476,0.185149,0.000000,231.000000,201.000000,30.000000,22.000000,0.000000,0.000000,0.277724,0.341895,0.252476,0.185149,0.000000,231.000000,201.000000,30.000000,22.000000,0.000000,0.000000:
0000
0000
0000
0000
,
0000
0000
0000
0000
,
0000
0000
0000
0000
,
0000
0000
0000
0000
,
1000
1100
0001
0101
,
0010
1000
0100
0010
,
0001
0101
1000
1100
,
0010
0001
0100
0010
,
1000
0100
0001
0100
,
1000
0010
0100
1001
,
0001
0100
1000
0100
,
0001
0010
0100
1001
,
2000
0001
0001
3001
,
0010
0100
1000
0001
,
0200
0010
0010
0310
,
1000
0100
0010
1001
,
0001
0100
1000
0100
,
0001
0010
0100
1001
,
1000
0100
0001
0100
,
1000
0010
0100
1001
,
0002
1000
1000
1003
,
0010
0100
0001
1000
,
0200
0010
0010
0310
,
0001
0100
0010
1001
,
0110
0000
0000
0000
,
0000
0000
0000
0000
,
2000
0000
3002
0000
,
0103
0100
0010
0100
,
0020
0000
2030
0000
,
3100
0010
0100
0010
,
0002
0000
2003
0000
,
3100
0100
0010
0100
,
0020
0000
0032
0000
,
0103
0010
0100
0010
,
0000
0000
0000
0000
,
0000
0000
0000
0000
,
1000
1100
0001
0101
,
0010
1000
0100
0001
,
0100
0110
0001
1001
,
0100
0010
1000
1001
,
0001
0101
1000
1100
,
0010
0001
0100
1000
,
0100
0110
1000
1001
,
0100
0010
0001
1001
,
1000
0010
0001
0010
,
1000
0100
0010
1001
,
0001
0100
1000
0001
,
0010
1000
0100
1001
,
0002
0013
0200
1300
,
0010
0100
0010
1001
,
2000
3100
0020
0031
,
0100
0010
0100
1001
,
0001
0010
1000
0010
,
0001
0100
0010
1001
,
1000
0100
0001
1000
,
0010
0001
0100
1001
,
2000
3010
0200
0301
,
0010
0100
0010
1001
,
0002
0103
0020
1030
,
0100
0010
0110
2002
,
0000
0000
0000
0000
,
0000
0000
0000
0000
,
0000
0000
3003
0000
;

//---------------dance-single - Daff_4K----------------
#NOTES:
     dance-single:
     Daff_4K:
     Medium:
     10:
     0.389535,0.447094,0.496537,0.100991,0.000000,324.000000,265.000000,59.000000,12.000000,0.000000,0.000000,0.389535,0.447094,0.496537,0.100991,0.000000,324.000000,265.000000,59.000000,12.000000,0.000000,0.000000:
0000
0000
0000
0000
,
0000
0000
0000
0000
,
0000
0000
0000
0000
,
0000
0000
0000
0000
,
1000
0010
1000
0000
0001
0100
0001
0000
,
1000
0100
0010
1001
,
0001
0010
0001
0000
1000
0100
1000
0000
,
0001
0100
0010
1001
,
1000
0100
0001
0110
,
0001
1000
0010
0000
0100
0000
1001
0000
,
0001
0100
1000
0110
,
1000
0001
0010
0000
0100
0000
1001
0000
,
0101
1100
0101
1100
,
0001
1000
0100
0000
0010
0000
1001
0000
,
1010
0011
1010
0011
,
1000
0001
0010
0000
0100
0000
1001
0000
,
0001
0100
1000
0110
,
1000
0001
0010
0000
0100
0000
1001
0000
,
1000
0100
0001
0110
,
0001
1000
0010
0000
0100
0000
1001
0000
,
1100
0101
1100
0101
,
1000
0001
0100
0000
0010
0000
1001
0000
,
0011
1010
0011
1010
,
0001
1000
0010
0000
0100
0000
1001
0000
,
0110
0000
0000
0000
,
0000
0000
0000
0000
,
2000
3100
0002
0013
,
2000
0000
3001
0000
0010
0100
0010
0000
,
0002
0103
2000
3010
,
0002
0000
1003
0000
0010
0100
0010
0000
,
1000
0100
1000
0000
0001
0010
0001
0000
,
2000
0000
3200
0000
0301
0100
1000
0000
,
0001
0100
0001
0000
1000
0010
1000
0000
,
0002
0000
0203
0000
1300
0100
0001
0000
,
0000
0000
0000
0000
,
0000
0000
0000
0000
,
1000
0100
1000
0000
0001
0010
0001
0000
,
0100
0010
0100
0010
1000
0000
1001
0000
,
0001
0010
0001
0000
1000
0100
1000
0000
,
0010
0100
0001
1000
0001
0000
0110
0000
,
0001
0100
0001
0000
1000
0010
1000
0000
,
0100
0010
0100
0010
0001
0000
1001
0000
,
1000
0010
1000
0000
0001
0100
0001
0000
,
0010
0100
1000
0001
1000
0000
0110
0000
,
1000
0100
0001
0110
,
0001
1000
0001
1000
0010
0000
0101
0000
,
0001
0010
1000
0110
,
1000
0001
1000
0001
0010
0100
1000
0000
,
1010
0011
1010
0011
,
1000
0010
0100
0010
0100
0001
1000
0000
,
1100
0101
1100
0101
,
1000
0001
1000
0001
0100
0000
1001
0000
,
0001
0100
1000
0110
,
1000
0001
1000
0001
0010
0000
1100
0000
,
1000
0010
0001
0110
,
0001
1000
0001
1000
0010
0100
0001
0000
,
0011
1010
0011
1010
,
0001
0010
0100
0010
0100
1000
0001
0000
,
0101
1100
0101
1100
,
0001
1000
0001
1000
0100
0000
2002
0000
,
0000
0000
0000
0000
,
0000
0000
0000
0000
,
0000
0000
3003
0000
;

//---------------dance-single - Daff_4K----------------
#NOTES:
     dance-single:
     Daff_4K:
     Hard:
     12:
     0.485716,0.499693,0.361883,0.033664,0.100991,404.000000,361.000000,43.000000,4.000000,0.000000,0.000000,0.485716,0.499693,0.361883,0.033664,0.100991,404.000000,361.000000,43.000000,4.000000,0.000000,0.000000:
0000
0000
0000
0000
,
0000
0000
0000
0000
,
0000
0000
0000
0000
,
0000
0000
0000
0000
,
1000
0010
0100
0010
0001
0010
1000
0100
,
0010
0000
0001
1000
0001
0000
1000
0000
1010
0000
0000
0000
0101
0000
0000
0000
,
0001
0010
0100
0010
1000
0010
0001
0100
,
0010
0000
1000
0001
1000
0000
0001
0000
0011
0000
0000
0000
1100
0000
0000
0000
,
1001
0000
0000
0001
0100
0000
0010
0000
1000
0000
0000
0000
0101
0000
0000
0000
,
0001
0010
1000
0010
0100
0000
1001
0000
,
1010
0000
0000
0010
0100
0000
0001
0000
1000
0000
0000
0000
1100
0000
0000
0000
,
0010
0001
0100
0010
1000
0000
0101
0000
,
0001
0010
1000
0010
0001
0100
1000
0100
,
0001
0010
0100
1000
0010
0000
1001
0000
,
1000
0100
0001
0100
1000
0010
0001
0010
,
1000
0001
0010
0100
1000
0000
0110
0000
,
1001
0000
0000
1000
0100
0000
0010
0000
0001
0000
0000
0000
1100
0000
0000
0000
,
1000
0010
0001
0010
0100
0000
1001
0000
,
0011
0000
0000
0010
0100
0000
1000
0000
0001
0000
0000
0000
0101
0000
0000
0000
,
0010
1000
0100
0010
0001
0000
1100
0000
,
1000
0010
0001
0010
1000
0100
0001
0100
,
1000
0010
0100
0001
0010
0000
1001
0000
,
0001
0100
1000
0100
0001
0010
1000
0010
,
0001
1000
0010
0100
0001
0000
0110
0000
,
1001
0000
0000
0000
,
0000
0000
0000
0000
,
0000
1000
0100
0001
0000
1000
0010
0001
,
0000
0000
0100
0010
0100
0010
1000
0000
0100
0000
0010
0000
0001
0000
1000
0000
,
0000
0001
0100
1000
0000
0001
0010
1000
,
0000
0000
0100
0010
0100
0010
0001
0000
0100
0000
0010
0000
1000
0000
0001
0000
,
0000
0010
0100
1000
0000
0010
0100
0001
,
0000
0000
1000
0001
1000
0000
0001
0000
0010
0000
0100
0000
1000
0000
0010
0000
,
0000
0010
0100
0001
0000
0010
0100
1000
,
0000
0000
0001
1000
0001
0000
1000
0000
0010
0000
0100
0000
0002
0000
2000
0000
,
0000
0000
0000
0000
,
0000
0000
0000
3003
,
1000
0100
0001
0100
1000
0010
0001
0010
,
1000
0000
0001
0010
0001
0000
0100
0000
0010
0000
0000
0000
1001
0000
0000
0000
,
0001
0010
1000
0001
0100
1000
0010
0100
,
0001
0000
1000
0001
1000
0000
0100
0000
0110
0000
0000
0000
1001
0000
0000
0000
,
0001
0100
1000
0100
0001
0010
1000
0010
,
0001
0000
1000
0010
1000
0000
0100
0000
0010
0000
0000
0000
1001
0000
0000
0000
,
1000
0010
0001
1000
0100
0001
0010
0100
,
1000
0000
0001
1000
0001
0000
0100
0000
0110
0000
0000
0000
1001
0000
0000
0000
,
1100
0000
0000
0100
0010
0000
0001
0000
1000
0000
0000
0000
0101
0000
0000
0000
,
0010
1000
0100
0010
0001
0000
1100
0000
,
1001
0000
0000
0001
0100
0000
0010
0000
1000
0000
0000
0000
0101
0000
0000
0000
,
0001
0010
0100
1000
0001
0000
1010
0000
,
1000
0100
0001
0100
1000
0010
0001
0010
,
1000
0000
0100
0010
0100
0000
0010
0000
0001
0000
0000
0000
1100
0000
0000
0000
,
0001
0010
1000
0010
0001
0100
1000
0100
,
0001
0000
1000
0001
1000
0000
0100
0000
0010
0000
0000
0000
1001
0000
0000
0000
,
0101
0000
0000
0100
0010
0000
1000
0000
0001
0000
0000
0000
1100
0000
0000
0000
,
0010
0001
0100
0010
1000
0000
0101
0000
,
1001
0000
0000
1000
0100
0000
0010
0000
0001
0000
0000
0000
1100
0000
0000
0000
,
1000
0010
0100
0001
1000
0000
0011
0000
,
0001
0100
1000
0100
0001
0010
1000
0010
,
0001
0000
0100
0010
0100
0000
0010
0000
1000
0000
0000
0000
0101
0000
0000
0000
,
1000
0010
0001
0010
1000
0100
0001
0100
,
1000
0000
0001
1000
0001
0000
0100
0000
0010
0000
0000
0000
2002
0000
0000
0000
,
0000
0000
0000
0000
,
0000
0000
0000
0000
,
0000
0000
3003
0000
;

//---------------dance-single - Daff_4K----------------
#NOTES:
     dance-single:
     Daff_4K:
     Challenge:
     15:
     0.607146,0.710090,0.513369,0.370299,0.324011,505.000000,444.000000,61.000000,44.000000,0.000000,0.000000,0.607146,0.710090,0.513369,0.370299,0.324011,505.000000,444.000000,61.000000,44.000000,0.000000,0.000000:
// measure 0
0000
0000
0000
0000
,  // measure 1
0000
0000
0000
0000
,  // measure 2
0000
0000
0000
0000
,  // measure 3
0000
0000
0000
0000
,  // measure 4
2000
0100
3002
0100
2003
0010
3002
0010
,  // measure 5
1003
0000
0100
0010
0100
0000
0001
0000
0100
0000
1000
0000
1001
0000
0000
0000
,  // measure 6
0002
0100
2003
0100
3002
0010
2003
0010
,  // measure 7
3001
0000
0100
0010
0100
0000
1000
0000
0100
0000
0001
0000
1001
0000
0000
0000
,  // measure 8
1100
0000
0000
0010
0001
0000
0100
0000
0110
0000
0000
0000
1001
0000
0000
0000
,  // measure 9
1000
0000
0001
0010
0001
0000
1000
0000
1010
0000
0100
0000
1001
0000
0000
0000
,  // measure 10
0011
0000
0000
0100
1000
0000
0001
0000
0101
0000
0000
0000
1010
0000
0000
0000
,  // measure 11
1000
0000
0001
0010
0001
0000
0100
0000
0110
0000
1000
0000
1001
0000
0000
0000
,  // measure 12
0002
0010
2003
0010
3002
0100
2003
0100
,  // measure 13
3001
0000
1000
0001
1000
0000
0010
0000
0110
0000
0001
0000
1001
0000
0000
0000
,  // measure 14
2000
0100
3002
0100
2003
0010
3002
0010
,  // measure 15
1003
0000
0001
0100
0001
0000
0010
0000
0110
0000
1000
0000
1001
0000
0000
0000
,  // measure 16
0101
0000
0000
0010
1000
0000
0100
0000
0110
0000
0000
0000
1001
0000
0000
0000
,  // measure 17
0001
0000
1000
0010
1000
0000
0001
0000
0011
0000
0100
0000
1001
0000
0000
0000
,  // measure 18
1010
0000
0000
0100
0001
0000
1000
0000
1100
0000
0000
0000
0011
0000
0000
0000
,  // measure 19
0001
0000
1000
0010
1000
0000
0100
0000
0110
0000
0001
0000
1001
0000
0000
0000
,  // measure 20
2000
0010
3002
0010
2003
0100
3002
0100
,  // measure 21
1003
0000
0001
1000
0001
0000
0010
0000
0110
0000
1000
0000
1001
0000
0000
0000
,  // measure 22
0002
0100
2003
0100
3002
0010
2003
0010
,  // measure 23
3001
0000
1000
0100
1000
0000
0010
0000
0110
0000
0001
0000
1001
0000
0000
0000
,  // measure 24
0110
0000
0000
0000
,  // measure 25
0000
0000
0000
0000
,  // measure 26
0000
0000
1000
0000
0001
0010
0100
0000
0000
0000
0001
0000
1000
0010
0100
0000
,  // measure 27
0000
0000
1000
0010
0100
0001
0010
0100
1000
0000
0010
0000
0001
0010
1000
0000
,  // measure 28
0000
0000
0001
0000
1000
0010
0100
0000
0000
0000
1000
0000
0001
0010
0100
0000
,  // measure 29
0000
0000
0001
0010
0100
1000
0010
0100
0001
0000
0010
0000
1000
0010
0001
0000
,  // measure 30
0000
0000
1000
0000
0010
1000
0010
0000
0000
0000
0100
0000
0001
0100
0001
0000
,  // measure 31
0000
0000
0010
0100
0010
0100
1000
0001
1000
0000
0010
0000
0100
0001
1000
0000
,  // measure 32
0000
0000
0001
0000
0010
0001
0010
0000
0000
0000
0100
0000
1000
0100
1000
0000
,  // measure 33
0000
0000
0010
0100
0010
0100
0001
1000
0001
0000
0010
0000
0100
2000
0002
0000
,  // measure 34
0000
0000
0000
0000
,  // measure 35
0000
0000
0000
3003
,  // measure 36
2000
0010
3002
0010
0203
0010
0302
0010
,  // measure 37
1003
0000
0010
0100
0001
0000
0010
0000
0110
0000
1000
0000
1010
0000
0100
0000
,  // measure 38
0001
0000
1000
0100
1000
0000
0001
0100
0001
0000
1000
0010
1000
0000
0001
0010
,  // measure 39
0001
0000
1000
0100
1000
0000
0010
0000
0110
0000
0001
0000
1001
0000
0000
0000
,  // measure 40
0002
0010
2003
0010
3200
0010
2300
0010
,  // measure 41
3001
0000
0010
0100
1000
0000
0010
0000
0110
0000
0001
0000
0011
0000
0100
0000
,  // measure 42
1000
0000
0001
0100
0001
0000
1000
0100
1000
0000
0001
0010
0001
0000
1000
0010
,  // measure 43
1000
0000
0001
0100
0001
0000
0010
0000
0110
0000
1000
0000
1001
0000
0000
0000
,  // measure 44
0101
0000
0000
0010
1000
0000
0100
0000
0110
0000
0000
0000
1001
0000
0000
1000
,  // measure 45
0010
0000
0100
0001
0100
0000
0001
0000
0011
0000
0100
0000
1010
0000
0000
0000
,  // measure 46
1100
0000
0000
0010
0001
0000
0100
0000
0110
0000
0000
0000
1001
0000
0000
0001
,  // measure 47
0010
0000
0100
1000
0100
0000
1000
0000
1010
0000
0100
0000
0011
0000
0000
0000
,  // measure 48
0002
0010
2003
0010
3200
0010
2300
0010
,  // measure 49
3001
0000
1000
0010
1000
0000
0100
0000
0110
0000
0001
0000
1001
0000
0000
0000
,  // measure 50
2000
0010
3002
0010
0203
0010
0302
0010
,  // measure 51
1003
0000
0001
0010
0001
0000
0100
0000
0110
0000
1000
0000
1001
0000
0000
0000
,  // measure 52
0001
0000
1000
0100
1000
0000
0001
0010
0001
0000
1000
0010
0100
0000
0001
0000
,  // measure 53
0010
1000
0010
0001
0101
0010
1100
0000
,  // measure 54
1000
0000
0001
0100
0001
0000
1000
0010
1000
0000
0001
0010
0100
0000
1000
0000
,  // measure 55
0010
0001
0010
1000
1100
0010
0101
0000
,  // measure 56
0001
0100
0001
0000
1000
0010
1000
0000
0001
0010
0001
0000
1000
0100
1000
0000
,  // measure 57
0010
0100
0010
0000
1000
0001
1000
0000
0110
0000
0010
0000
1001
0000
0001
0000
,  // measure 58
1000
0100
1000
0000
0001
0010
0001
0000
1000
0010
1000
0000
0001
0100
0001
0000
,  // measure 59
0010
0100
0010
0100
1000
0001
1000
0000
0110
0000
0000
0000
2002
0000
0000
0000
,  // measure 60
0000
0000
0000
0000
,  // measure 61
0000
0000
0000
0000
,  // measure 62
0000
0000
3003
0000
;
