#TITLE:Run Run;
#SUBTITLE:;
#ARTIST:Ryu☆;
#TITLETRANSLIT:;
#SUBTITLETRANSLIT:;
#ARTISTTRANSLIT:;
#GENRE:;
#CREDIT:;
#MUSIC:Run Run.ogg;
#BANNER:Run Run.png;
#BACKGROUND:Run Run-bg.png;
#CDTITLE:;
#SAMPLESTART:31.823;
#SAMPLELENGTH:15.000;
#SELECTABLE:YES;
#OFFSET:0.000;
#BPMS:0.000=181.000;
#STOPS:;
#BGCHANGES:;
#FGCHANGES:;

//--------------- dance-single - Chrononical ----------------
#NOTES:
     dance-single:
     Chrononical:
     Beginner:
     4:
     0,0,0,0,0:
0000
0000
0000
0000
,
0000
0000
0000
0000
,
1001
0000
0001
0000
,
1000
0000
0010
0000
,
0100
0000
0010
0000
,
1000
0000
0001
0000
,
1001
0000
1000
0000
,
0100
0000
0010
0000
,
0001
0000
1000
0000
,
0001
0000
1000
0000
,
1001
0000
1000
0000
,
0100
0000
0001
0000
,
0010
0000
1000
0000
,
0001
0000
1000
1000
,
2000
0000
0000
0000
,
3002
0000
0000
0000
,
1003
0000
0010
0000
,
1000
0010
1000
0000
,
0001
0000
0010
0000
,
0001
0010
0002
0000
,
1003
0000
0100
0000
,
0010
0000
0001
0000
,
1000
0000
0010
0000
,
0100
0000
0002
0000
,
1003
0010
1000
0000
,
0001
0010
0001
0000
,
1000
0001
1000
0000
,
0100
0010
0200
0000
,
1300
0000
1000
0000
,
0001
0001
0001
0000
,
0100
0000
0100
0000
,
0100
0100
0200
0000
,
0310
0000
1000
0000
,
0001
0000
1000
0000
,
0001
0000
0100
0000
,
0010
0000
0100
0000
,
1001
0000
0001
0000
,
1000
0000
0001
0000
,
0010
0000
0100
0000
,
1000
0000
0001
0001
,
0001
0000
0000
0000
,
1000
0000
0000
0000
,
0001
0000
0000
0000
,
0100
0000
0010
0000
,
0110
0000
0100
0000
,
0001
0000
1000
0000
,
1001
0000
1000
0000
,
0001
0000
1000
0000
,
0001
0001
0001
0000
,
1000
0000
0001
0000
,
1000
1000
1000
0000
,
0001
0000
1000
0000
,
0001
0001
0001
0000
,
0100
0000
0100
0000
,
0100
0100
0100
0000
,
0010
0000
0010
0000
,
0010
0010
0020
0000
,
0130
0010
0100
0000
,
0001
1000
0001
0000
,
1000
0001
1000
0000
,
0100
0100
0200
0000
,
1300
1000
1000
0000
,
0001
0001
0001
0000
,
0001
0100
0001
0000
,
1000
0100
2000
0000
,
3001
0000
1000
0000
,
0001
0000
1000
0000
,
0010
0000
0100
0000
,
0110
0000
0110
0000
,
0110
0000
0100
0000
,
0001
0010
0001
0000
,
1000
1000
1000
0000
,
0100
0100
0100
0000
,
1000
0000
0001
0000
,
1000
0000
0100
0000
,
1000
0000
0010
0000
,
1000
0000
0001
0200
,
0000
0000
0000
0000
,
0000
0000
0000
0000
,
0300
0000
0000
0000
;

//--------------- dance-single - Chrononical ----------------
#NOTES:
     dance-single:
     Chrononical:
     Easy:
     7:
     0,0,0,0,0:
0000
0000
0000
0000
,
0000
0000
0000
0000
,
1002
0000
0000
0000
0000
0000
0000
2003
,
0000
0000
3001
0000
0000
1000
0001
1000
,
0000
0000
0001
0010
,
0000
0001
0000
0010
0000
0100
0000
1000
,
0002
0000
0000
0000
0000
0000
0000
0203
,
0000
0000
0000
0000
0000
0000
0000
0320
,
0000
0000
0000
0000
0000
0000
0000
2030
,
0000
0000
0001
0001
,
3001
0100
0000
0100
0000
0100
0000
0100
,
0000
0100
0000
0100
0000
0100
0000
0100
,
0000
0010
0000
0010
0000
0010
0000
0010
,
0000
0010
0000
0010
0000
0010
0000
0010
,
2000
0000
0000
0000
,
3002
0000
0000
0000
,
1003
0010
0100
0001
,
1000
0100
0010
0001
,
1000
0010
1000
0010
,
0001
0010
2000
0000
,
3001
0010
0100
1000
,
0001
0100
0010
1000
,
0001
0100
1000
0100
,
0001
0100
0002
0000
,
1003
0100
1000
0010
,
1000
0001
0100
0010
,
1000
0010
0100
0010
,
0100
0001
2000
0000
,
3001
0100
0010
0100
,
0001
0010
0100
1000
,
0001
0100
1000
0100
,
0001
0010
0002
0000
,
1003
0010
1000
0010
,
0100
0001
0010
0001
,
0010
0100
1000
0010
,
0100
0010
0100
0010
,
0100
0001
0010
0001
,
1000
0100
1000
0001
,
1001
0000
1001
0000
,
1001
1000
0001
0100
,
0020
0000
0000
0000
0000
0000
0000
2030
,
0000
0000
0000
0000
,
3000
0000
0001
1000
,
0000
0001
0000
1000
0000
0100
0000
0010
,
0002
0000
0000
0000
0000
0000
0000
2003
,
0000
0000
0000
0000
0000
0000
0000
3200
,
0000
0000
0000
0000
0000
0000
0000
2300
,
0000
0000
0000
0000
,
3001
0100
0010
2000
,
3001
0010
0100
1000
,
0100
1000
0100
1000
,
0001
0100
0010
1000
,
0010
1000
2000
0000
,
3001
0100
0001
0010
,
0001
0010
0100
0010
,
0001
1000
0010
0100
,
0010
1000
0002
0000
,
1003
0010
0100
0010
,
1000
0001
0010
0001
,
1000
0100
0010
0001
,
1000
0010
0200
0000
,
0301
0010
0100
1000
,
0010
0100
0010
0100
,
0001
0010
0001
0100
,
0010
1000
0002
0000
,
2003
0000
0000
0000
0000
0000
0000
3200
,
0000
0000
0000
0000
,
0300
1000
0010
0000
0100
0000
0100
0000
,
0001
1000
0001
1001
,
0001
0100
0010
1000
,
0010
0100
0010
0100
,
0010
1000
0100
0010
,
0001
0100
0001
0010
,
0002
0000
0000
0000
0000
0000
0000
0203
,
0000
0000
0000
0000
0000
0000
0000
0302
,
0000
0000
0000
0000
0000
0000
0000
0003
,
0100
0010
0100
0020
,
0000
0000
0000
0000
,
0000
0000
0000
0000
,
0030
0000
0000
0000
;

//--------------- dance-single - Chrononical ----------------
#NOTES:
     dance-single:
     Chrononical:
     Medium:
     11:
     0,0,0,0,0:
0000
0000
0000
0000
,
0000
0000
0000
0000
,
1001
0000
1000
0000
0001
0000
0000
1001
,
0000
1000
0010
0000
0100
0001
0100
0001
,
0000
1000
0100
0000
0010
0100
1000
0010
,
0000
0100
0000
0100
0000
0100
0000
0010
,
2000
0000
0000
0000
0000
0000
0000
3002
,
0000
0000
0000
0000
0000
0000
0000
2003
,
0000
0010
0000
0000
0010
0000
0000
3001
,
0000
0100
0010
0000
1000
0000
0001
0000
,
1000
0010
0000
0010
0000
0010
0000
0010
,
0000
0100
0000
0100
0000
0100
0000
0100
,
0000
0001
0000
0001
0000
0001
0000
0001
,
0000
1000
0000
1000
0000
1000
0000
1000
,
0001
1000
1001
0001
,
0200
0000
0000
0310
,
0010
0100
0001
0000
0001
0010
0100
0000
,
1000
0010
0100
0001
1000
0100
0010
0001
,
1000
0100
1000
0000
0001
0100
0001
0000
,
1000
0010
0001
0010
2000
0000
0001
0000
,
3001
0010
0100
0000
1000
0010
0100
0000
,
0010
1000
0010
0100
0010
0001
0010
0100
,
0010
1000
0100
0000
1000
0010
1000
0000
,
0001
1000
0001
1000
0002
0000
1000
0000
,
1003
0010
0000
0010
0000
0010
0000
1010
,
0000
1000
0000
1000
0000
1000
0000
1100
,
0000
0100
0000
0100
0000
0100
0000
0110
,
0000
0010
0000
0010
0002
0000
1000
0000
,
1003
0010
0000
0010
0000
0010
0000
0110
,
0000
0100
0000
0100
0000
0100
0000
0101
,
0000
0001
0000
0001
0000
0001
0000
0001
,
0100
0100
0020
0000
,
1030
0010
0100
0110
,
0010
1000
0001
0011
,
0010
0100
1000
1100
,
1000
0010
0100
0110
,
0010
0100
0001
0101
,
0100
0010
1000
1010
,
1000
0100
1000
1001
,
0001
1000
0001
1000
,
0002
0000
0100
0000
0100
0000
0000
2003
,
0000
0000
0000
0100
0000
0010
0000
0000
,
3020
0000
0000
0000
0000
0000
0000
0230
,
0000
0010
0000
0010
0000
0001
0000
0000
,
0302
0000
0000
0000
0000
0000
0000
0020
,
0003
0000
0000
0000
0000
0000
0000
0230
,
0000
1000
0000
0000
1000
0000
0000
2300
,
0000
0001
0000
0000
0010
0000
0010
0000
,
3001
1000
0001
1000
0001
0000
2000
0000
,
3001
0100
0010
0000
1000
0100
0010
0000
,
0001
0100
0010
1000
0001
0010
0100
1000
,
0010
0100
0010
0000
1000
0100
1000
0000
,
0001
0100
1000
0100
0002
0000
1000
0000
,
1003
0100
0010
0000
0001
0100
0010
0000
,
1000
0010
0100
0001
0010
1000
0010
0001
,
1000
0100
1000
0000
0001
0100
0001
0000
,
1000
0001
1000
0001
2000
0000
0000
0000
,
3001
1000
0000
0010
0000
0100
0000
0101
,
0000
0100
0000
0010
0000
0100
0000
0101
,
0000
0001
0000
1000
0000
1001
0000
1000
,
0000
0100
0000
0100
2000
0000
0001
0000
,
3001
0100
0000
0010
0000
0100
0000
0110
,
0000
0010
0000
1000
0000
0100
0000
1100
,
0000
1000
0000
0100
0000
0010
0000
0001
,
1000
1000
0002
1000
,
1003
0010
0100
0000
0001
0010
0001
0000
,
1000
0100
1000
0000
0001
0100
0010
0000
,
1000
0100
1000
0000
0010
0100
0010
0000
,
1000
0001
1000
0002
,
1003
0100
0000
0110
0000
0110
0000
0110
,
0000
1100
0000
1010
0000
1100
0000
1010
,
0000
1001
0000
1001
0000
0110
0000
0101
,
0000
1001
0000
0110
0000
1001
0000
0001
,
2000
0000
0010
0000
0001
0000
0000
3002
,
0000
0010
0000
0000
0100
0000
0000
0203
,
0000
0010
0000
1000
0000
0001
0000
0310
,
0000
0000
1000
0000
0001
0000
0000
0000
0001
0000
0000
0200
0000
0000
0000
0000
,
0000
0000
0000
0000
,
0000
0000
0000
0000
,
0300
0000
0000
0000
;

//--------------- dance-single - Chrononical ----------------
#NOTES:
     dance-single:
     Chrononical:
     Hard:
     15:
     0,0,0,0,0:
0000
0000
0000
0000
,
0000
0000
0000
0000
,
1001
0000
0000
0000
0000
0000
0000
1001
,
0000
0000
1000
0000
0000
0010
0100
0001
,
0000
0000
0000
0000
0001
0010
0001
0010
,
0000
0001
0000
0100
0000
0001
0000
0010
,
0011
0000
0000
0000
0000
0000
0000
1010
,
0000
0000
0000
0000
0000
0000
0001
0101
,
0000
0000
0100
0000
0010
0000
0000
0000
1000
0000
0100
1000
0100
0000
0010
0000
,
0000
0001
0000
0000
1000
0100
0001
0100
,
1000
1100
0000
0110
0000
0011
0000
1010
,
0000
0110
0000
0101
0000
1001
0000
0110
,
0000
1010
0000
1100
0000
0101
0000
0011
,
0000
0000
0010
0000
0001
0000
0100
0000
0100
0000
1000
0010
0100
0000
0001
0000
,
0002
0000
0010
0000
0100
0000
1000
1000
,
2003
0000
0000
0000
3000
0100
0010
0001
,
0100
1000
0100
0001
0010
0100
1000
0010
,
0001
1000
0100
0001
0100
0010
1000
0001
,
0010
1000
0010
0001
0100
0010
1000
0100
,
0001
1000
0010
0001
2000
0000
0010
0000
,
3001
0100
1000
0100
0001
0010
1000
0010
,
0001
0100
1000
0100
0002
0100
0203
0010
,
0310
1000
0100
0010
0001
1000
0100
0010
,
0001
1000
1002
0000
,
1003
1010
0010
0110
0100
0101
0001
1001
,
1000
1100
0100
0110
0010
0011
0001
1001
,
1000
1100
1000
1010
0010
0110
0100
0101
,
0001
0010
0100
1000
2001
0000
0010
0000
,
3001
0101
0100
0110
0010
1010
1000
1001
,
0001
0011
0010
0110
0100
1100
1000
1001
,
0001
0101
0001
0011
0010
0110
0100
1100
,
1000
0010
0100
0001
1002
0000
0010
0000
,
1003
0000
0100
0000
0010
0000
0100
1000
,
0010
0000
0100
0000
0001
0000
0010
0001
,
0100
1000
0010
0001
,
0010
1000
0100
0001
,
1000
0000
0010
0000
0100
0000
0010
0010
,
0001
0000
1000
0000
0010
0000
0100
0100
,
1000
0000
0001
0000
0010
0100
1000
0001
,
0000
1000
0001
0000
0100
0010
1000
0000
,
1001
0000
0000
0000
0000
0000
0000
1001
,
0000
1000
0001
0010
0000
0010
0100
1000
,
0000
0000
0000
0000
1000
0010
1000
0010
,
0000
1000
0000
0100
0000
1000
0000
0010
,
1010
0000
0000
0000
0000
0000
0000
0011
,
0000
0000
0000
0000
0000
0000
1000
1010
,
0000
0000
0010
0000
0100
0000
0000
0000
0001
0000
0100
0001
0100
0000
0010
0000
,
0000
0000
0100
0000
0000
0000
0001
0010
0100
0000
1000
0010
0100
0000
0001
0000
,
1000
0001
1000
0001
1000
0001
1000
0001
1000
0000
0000
0000
1002
0000
0000
0000
,
1003
1000
0001
0100
0010
1000
0001
0010
,
1000
0001
0100
1000
0010
0100
0001
1000
,
0001
0100
0010
1000
0100
0010
0001
0100
,
1000
0001
0010
1000
0002
0000
0010
0000
,
1003
0010
0001
0010
1000
0100
0001
0100
,
1000
0010
0001
0010
2000
0100
3200
0010
,
0310
0001
0100
0010
1000
0001
0100
0010
,
1000
0001
2001
0000
,
3001
0101
0100
0110
0100
0101
0001
1001
,
1000
1100
0100
0110
0100
1100
1000
1001
,
0001
0011
0010
0110
0100
1100
1000
1001
,
0001
0100
0010
1000
2001
0000
0010
0000
,
3001
0011
0010
0110
0010
0011
0001
1001
,
1000
1010
0010
0110
0010
1010
1000
1001
,
0001
0101
0100
0110
0010
1010
1000
1001
,
1000
0100
0010
0001
1002
0000
0100
0000
,
1003
0010
0100
0001
1000
0100
0010
0001
,
1000
0100
1000
0010
0000
0100
0001
0010
,
0000
0000
0001
0000
0100
0000
0000
0000
0010
0000
0100
0010
1000
0000
0001
0000
,
1000
0100
0010
0002
,
1003
1010
0010
0110
0100
0101
0001
0011
,
0010
0011
0010
0110
0100
1100
1000
1010
,
0010
1010
0010
0110
0100
0101
0001
1001
,
1000
0000
1001
0000
0001
0000
1000
0000
0001
1000
0001
1000
0001
0000
0000
0000
,
1000
0000
0010
0000
0100
0000
0001
1000
,
0000
0000
1000
0000
0001
0000
0000
0000
1000
0000
0010
0100
0001
0000
0100
0000
,
0000
0000
0001
0000
1000
0000
0100
0010
0001
0000
1000
0100
0010
0000
0001
0000
,
0000
0000
0001
0000
1000
0000
0000
0000
0010
0000
0000
0200
0000
0000
0000
0000
,
0000
0000
0000
0000
,
0000
0000
0000
0000
,
0300
0000
0000
0000
;
