#TITLE:Rizamyn;
#SUBTITLE:;
#ARTIST:KeshYOU;
#TITLETRANSLIT:;
#SUBTITLETRANSLIT:;
#ARTISTTRANSLIT:;
#GENRE:;
#CREDIT:;
#BANNER:Rizamyn.png;
#BACKGROUND:Rizamyn-bg.png;
#LYRICSPATH:;
#CDTITLE:;
#MUSIC:Rizamyn.ogg;
#OFFSET:1.920000;
#SAMPLESTART:59.520000;
#SAMPLELENGTH:15.000000;
#LASTBEATHINT:1.916667;
#SELECTABLE:YES;
#BPMS:0.000000=124.999992
;
#STOPS:
;
#BGCHANGES:;
#KEYSOUNDS:;
#ATTACKS:;

//---------------dance-single - ----------------
#NOTES:
     dance-single:
     :
     Challenge:
     13:
     0.473957,0.644302,0.152455,0.232312,0.402916,457.000000,436.000000,21.000000,32.000000,0.000000,9.000000,0.473957,0.644302,0.152455,0.232312,0.402916,457.000000,436.000000,21.000000,32.000000,0.000000,9.000000:
// measure 0
0000
0000
0000
0000
,  // measure 1
0000
0000
0000
0000
,  // measure 2
0000
0000
0000
0000
,  // measure 3
0000
0000
0000
0000
,  // measure 4
0000
0000
0000
0000
,  // measure 5
0000
0000
0000
0000
,  // measure 6
0000
0000
0000
0000
,  // measure 7
1000
0000
0000
1000
0000
0100
1000
0000
,  // measure 8
0001
0000
0000
0001
0000
0100
0001
0010
,  // measure 9
0100
0000
0000
0100
0000
1000
0100
0000
,  // measure 10
0010
0000
0000
0000
0000
0000
0010
0000
0000
0000
0001
0000
0100
0001
1000
0100
,  // measure 11
1000
0000
0000
0000
0000
0000
1000
0000
0000
0000
0100
0000
1000
0010
0100
0001
,  // measure 12
0010
0000
0000
0000
0000
0000
0010
0000
0000
0000
0001
0000
0100
0001
0010
0100
,  // measure 13
1000
0000
0010
0000
0020
0000
0000
0130
0010
0000
1000
0000
0001
0000
0020
0000
,  // measure 14
0000
0130
0100
2000
0002
0000
3003
0000
,  // measure 15
0002
0000
0000
0000
0000
0000
0013
0000
0001
0100
0000
0000
1000
0000
0000
0000
,  // measure 16
0100
0000
0000
0000
0001
1000
0001
0000
1000
0000
0100
0000
0010
0000
0000
0000
,  // measure 17
0002
0100
2003
0100
3002
0000
0023
0000
,  // measure 18
0130
0000
0000
0000
1000
0001
1000
0000
0001
0000
0100
0000
0010
0000
0000
0000
,  // measure 19
2000
0100
3002
0100
0000
0103
0000
0000
,  // measure 20
1001
0000
0000
0000
1000
0100
0001
0000
0100
0000
0010
0000
0001
0000
0000
0000
,  // measure 21
1001
0000
0000
0000
0001
0100
1000
0000
0100
0000
0010
0000
1000
0000
0000
0000
,  // measure 22
0002
0100
2003
0100
3002
0000
0020
0000
,  // measure 23
0000
0000
0033
0000
,  // measure 24
0110
0000
1000
0001
0000
0001
0000
0001
0000
0001
1000
0000
0010
0000
0100
0000
,  // measure 25
0100
0000
0001
1000
0000
1000
0000
1000
0000
1000
0001
0000
0010
0000
0100
0000
,  // measure 26
0110
0000
0100
1000
0000
1000
0000
1000
0000
1000
0001
0000
0100
0000
0010
0000
,  // measure 27
0010
0000
0100
0001
0000
0001
0000
0001
0000
0001
0010
0000
0100
0000
1000
0000
,  // measure 28
1001
0000
0001
0100
0000
0100
0000
0100
0000
0100
0010
0000
1000
0000
0001
0000
,  // measure 29
1001
0000
1000
0100
0000
0100
0000
0100
0000
0100
0010
0000
0001
0000
1000
0000
,  // measure 30
1001
0000
0001
1000
0000
1000
0000
1000
0000
1000
0001
0000
0100
0000
0010
0000
,  // measure 31
0110
0000
1000
0010
1000
0010
0100
0001
0100
0001
0010
0001
0010
0000
0010
0000
,  // measure 32
0100
0000
1000
0000
0010
0100
0010
0000
1000
0000
0100
0000
0010
0001
0000
0001
,  // measure 33
0100
0010
2000
0002
0000
0000
3013
0000
,  // measure 34
0100
0000
0001
0000
0010
0100
0010
0000
0001
0000
0100
0000
0010
1000
0000
1000
,  // measure 35
0100
0010
0002
2000
0000
0010
3013
0000
,  // measure 36
1000
0000
0100
0010
0000
0010
0100
0000
1000
0000
0001
0000
0100
0000
0000
0000
,  // measure 37
0001
0000
0010
0100
0000
0100
0010
0000
0011
0000
0000
0000
1100
0000
0000
0000
,  // measure 38
1000
0000
0010
0100
0000
0100
0010
0000
1000
0000
0001
0000
0010
0000
0000
0000
,  // measure 39
0001
0000
0100
0010
0000
0010
0100
0000
0101
0000
0000
0000
1010
0000
0000
0000
,  // measure 40
0002
0000
0000
0000
,  // measure 41
0023
0000
0000
0000
,  // measure 42
0130
0000
1000
0000
0010
0100
0010
0000
1000
0000
0100
0000
0010
0001
0000
0001
,  // measure 43
0000
0000
0100
0010
0100
0010
0100
0000
0001
0000
1000
0000
0000
0000
0100
0000
,  // measure 44
1000
0000
0000
1000
0000
0000
1000
0000
0000
0000
0100
0000
0100
0000
0010
0000
,  // measure 45
0001
0000
0000
0001
0000
0000
0001
0000
0000
0000
0100
0000
0001
0010
0100
1000
,  // measure 46
0010
0000
0000
0100
0010
0000
1000
0000
0000
0100
1000
0000
0010
0000
0010
0000
,  // measure 47
0100
0000
0000
0010
0100
0000
0001
0000
0000
0010
0001
1000
0010
1000
0001
0010
,  // measure 48
2000
0000
0000
0000
0000
0000
0000
0000
0000
0000
3010
0001
0100
1000
0100
0001
,  // measure 49
0010
0000
0001
0000
0100
0010
0100
0000
0001
0000
0010
0000
0100
1000
0000
1000
,  // measure 50
0010
0100
0002
2000
0000
0000
3013
0000
,  // measure 51
0010
0000
1000
0000
0100
0010
0100
0000
1000
0000
0010
0000
0100
0001
0000
0001
,  // measure 52
0010
0100
2000
0002
0000
0010
3013
0000
,  // measure 53
0001
0000
0010
0100
0000
0100
0010
0000
0001
0000
1000
0000
0010
0000
0000
0000
,  // measure 54
1000
0000
0100
0010
0000
0010
0100
0000
1100
0000
0000
0000
0011
0000
0000
0000
,  // measure 55
0001
0000
0100
0010
0000
0010
0100
0000
0001
0000
1000
0000
0100
0000
0000
0000
,  // measure 56
1000
0000
0010
0100
0000
0100
0010
0000
1010
0000
0000
0000
0101
0000
0000
0000
,  // measure 57
0100
0000
0001
0000
0010
0100
0010
0000
0001
0000
0100
0000
0010
1000
0000
1000
,  // measure 58
0100
0010
0002
2000
0000
0000
3013
0000
,  // measure 59
0100
0000
1000
0000
0010
0100
0010
0000
1000
0000
0100
0000
0010
0001
0000
0001
,  // measure 60
0100
0010
2000
0002
0000
0010
3013
0000
,  // measure 61
0001
0000
0100
0010
0000
0010
0100
0000
0001
0000
1000
0000
0100
0000
0000
0000
,  // measure 62
1000
0000
0010
0100
0000
0100
0010
0000
1010
0000
0000
0000
0101
0000
0000
0000
,  // measure 63
0001
0000
0010
0100
0000
0100
0010
0000
0001
0000
1000
0000
0010
0000
0000
0000
,  // measure 64
1000
0000
0100
0010
0000
0010
0100
0000
1100
0000
0000
0000
0011
0000
0000
0000
,  // measure 65
1000
0000
0000
1000
0000
1000
0010
0000
,  // measure 66
0100
0000
0000
0000
0000
0000
0100
0000
0000
0000
0100
0000
0001
1000
0000
0000
,  // measure 67
0100
0000
0000
0000
0000
0000
0100
0000
0000
0000
0100
0000
1000
0001
0000
0000
,  // measure 68
0010
0000
0000
0010
0000
0000
0010
0000
0000
0001
0000
0000
1000
0010
0000
0000
,  // measure 69
0220
0000
0000
0000
,  // measure 70
0000
0000
0000
0000
,  // measure 71
0330
0000
0000
0000
;
