#TITLE:Repentance;
#SUBTITLE:;
#ARTIST:Abel;
#TITLETRANSLIT:;
#SUBTITLETRANSLIT:;
#ARTISTTRANSLIT:;
#CREDIT:;
#BANNER:Repentance BN.png;
#BACKGROUND:Repentance BG.png;
#LYRICSPATH:;
#CDTITLE:CDTITLE.png;
#MUSIC:Repentance.ogg;
#OFFSET:0.140;
#SAMPLESTART:13.320;
#SAMPLELENGTH:15.000;
#SELECTABLE:YES;
#BPMS:0.000=240.001;
#STOPS:;
#BGCHANGES:;

//---------------dance-single - ----------------
#NOTES:
     dance-single:
     :
     Hard:
     14:
     0.854,0.881,0.477,0.840,0.000:
0000
0000
0000
0000
,
0000
0000
0000
0000
,
0000
0000
0000
0000
,
0000
0000
0000
0000
,
0000
0000
0000
0000
,
0000
0000
0000
0000
,
0000
0000
0000
0000
,
0000
0000
0000
0000
0010
0100
0010
0000
,
0100
0000
0001
0100
0001
0000
0100
0000
,
1000
0010
1000
0000
0100
0000
0001
0100
,
0001
0000
0010
0000
1000
0010
1000
0000
,
0100
0000
0001
0100
0001
0000
0010
0000
,
1000
0010
1000
0000
0100
0000
0010
0100
,
0010
0000
0010
0000
1000
0001
1000
0000
,
0010
0000
0001
0000
0010
0000
0100
0010
,
0100
0000
0001
0000
1000
0010
1000
0000
,
0100
0000
0001
0100
0001
0010
0100
0000
,
0001
0000
0001
0100
0001
0000
1010
0000
,
0110
0000
0101
0000
0000
0001
0010
0100
,
1000
0000
0000
0100
0010
0001
0010
1000
,
0010
0100
0001
0010
0100
0010
0001
0100
,
0010
0100
0001
0100
0010
0100
1000
0010
,
0001
0100
0010
0100
0001
0100
0010
0001
,
1001
0110
0101
1010
,
0110
0011
0110
0101
,
1001
0000
0000
0001
0010
0100
1000
0000
,
0010
0000
0001
0000
1000
0010
1000
0010
,
1000
0000
0010
0000
1000
0000
0001
0010
,
0100
1000
0010
0000
0100
0010
0100
0000
,
0010
0001
0010
0100
1000
0000
0001
0000
,
0010
0000
0100
0000
0000
1000
0100
0010
,
0001
0000
0000
0001
0010
0100
1000
0010
,
1000
0010
1000
0010
0001
0010
0100
0001
,
0100
0001
0010
1000
0010
0100
0010
0001
,
0100
0010
0100
0010
0001
0100
1001
0000
,
0101
1010
0110
1001
,
0101
0000
1001
0000
0002
0000
1003
0010
,
1000
0001
1000
0001
1000
0010
2000
0000
,
0000
0000
3100
0010
0001
0000
1001
0000
,
0110
0000
0101
0000
1000
0001
1000
0001
,
0010
0100
1000
0100
0010
0000
0101
0000
,
0110
1001
1010
0110
,
0101
0000
0200
0000
0000
0000
0301
1000
,
0001
1000
0001
0000
0100
0000
0010
0000
,
1000
0001
1000
0000
1000
0000
1010
0000
,
0010
1010
0110
0101
,
1010
0000
0000
0000
0010
1000
0010
0000
,
0020
0031
0001
0002
,
0000
2003
3020
0032
,
0203
0000
0300
0010
0100
0001
0200
0000
,
0000
0001
0301
2000
,
3200
0000
0302
0000
1003
0100
0010
0001
,
1000
0100
0010
0001
1000
0100
0020
0000
,
0000
1000
1030
2000
,
3002
0000
0203
0000
1300
0001
0100
0010
,
1000
0001
0100
0010
1000
0000
1010
0000
,
0110
0101
1001
0101
,
0110
1010
0101
0110
,
1001
0000
0101
0000
0100
0010
0100
0000
,
0100
0000
0001
0000
0100
0001
0100
0000
,
0010
0000
1000
0000
0010
0100
0010
0000
,
1000
0000
0001
0000
1000
0001
1000
0000
,
2000
0000
0001
3002
,
0000
0100
0203
0000
,
0301
0000
0001
0000
0010
0100
0010
0000
,
1000
0010
1000
0000
1010
0000
0110
0000
,
0011
1010
2000
3002
,
0203
0000
0302
0000
0013
0100
0010
0000
,
0020
0000
1000
2030
,
0000
0001
3002
0000
,
0010
0023
0000
2030
,
3002
0203
0320
0230
,
2300
3002
0100
0100
,
0203
0010
0010
0320
,
1000
1000
2030
0001
,
3001
0000
1000
0001
1000
0001
2000
0000
,
3001
0100
0001
0100
0002
0000
0103
0010
,
0100
0010
0200
0000
0301
1000
0001
1000
,
0002
0000
0013
1000
0010
1000
0010
0100
,
0001
0100
0001
0100
0001
0010
0200
0000
,
0320
0032
0203
0320
,
0230
0000
1300
0010
1000
0010
2000
0000
,
3001
0100
0001
0100
0002
0000
0103
0010
,
0100
0010
0200
0000
0310
1000
0010
1000
,
0020
0230
0320
0032
,
2003
3020
0230
0302
,
0023
0230
2300
3020
,
0032
0000
1003
0100
0010
0100
2000
0000
,
3001
0010
0100
0010
0002
0000
1003
0100
,
0010
0100
2000
0000
3001
0010
0100
0010
,
0002
0000
1003
0100
0010
0100
2000
0000
,
3001
0010
0100
0010
0002
0000
1003
0100
,
0010
0100
2000
0000
3001
0010
0100
0010
,
0001
0100
0002
0000
2003
0000
3020
0000
,
0230
0302
2003
3200
,
0320
0230
0320
0032
,
0203
0000
0320
0000
1030
0010
1000
0010
,
1000
0001
1000
0001
1000
0001
1000
0100
,
1000
0100
1000
0001
1000
0001
1000
0001
,
1000
0010
1000
0000
0000
0000
0000
0000
,
2020
0000
3030
0000
,
2002
0000
0000
0000
,
0000
0000
3003
0000
;

//---------------dance-single - ----------------
#NOTES:
     dance-single:
     :
     Medium:
     10:
     0.576,0.587,0.210,0.201,0.000: // measure 1
0000
0000
0000
0000
,  // measure 2
0000
0000
0000
0000
,  // measure 3
0000
0000
0000
0000
,  // measure 4
0000
0000
0000
0000
,  // measure 5
0000
0000
0000
0000
,  // measure 6
0000
0000
0000
0000
,  // measure 7
0000
0000
0000
0000
,  // measure 8
0000
1000
0010
1000
,  // measure 9
0010
0100
0001
0100
,  // measure 10
0001
0100
0001
0010
,  // measure 11
0100
1000
0100
0001
,  // measure 12
0010
1000
0010
1000
,  // measure 13
0001
0100
0001
0100
,  // measure 14
1000
0010
0010
0020
,  // measure 15
0130
1000
0100
0010
,  // measure 16
0001
0010
0100
1000
,  // measure 17
0100
0000
0000
0000
0001
0100
0001
0000
,  // measure 18
0010
0000
1000
0000
0100
0010
0100
0000
,  // measure 19
0001
0000
1000
0000
0001
0100
0001
0000
,  // measure 20
1000
0000
0010
0000
1000
0001
1000
0000
,  // measure 21
0100
0000
0001
0000
1000
0010
1000
0000
,  // measure 22
0100
0000
0001
0000
0100
0001
0100
0000
,  // measure 23
0010
0000
1000
0000
0100
0010
0100
0000
,  // measure 24
0001
0010
0100
1000
,  // measure 25
0100
0010
0001
1000
,  // measure 26
0001
0000
1000
0000
0001
1000
0001
0000
,  // measure 27
0100
0000
0010
0000
1000
0010
1000
0000
,  // measure 28
0100
0000
0001
0000
0100
0001
0100
0000
,  // measure 29
0010
0000
1000
0000
0100
0010
0100
0000
,  // measure 30
0001
0000
0100
0000
0001
0100
0001
0000
,  // measure 31
1000
0000
0010
0000
1000
0010
1000
0000
,  // measure 32
0001
0000
0100
0000
0100
0001
0100
0000
,  // measure 33
0010
0000
1000
0000
0001
0100
0001
0000
,  // measure 34
1000
0000
0001
0000
0100
0001
0100
0000
,  // measure 35
0010
0000
1000
0000
0100
0010
0100
0000
,  // measure 36
0001
0000
0100
0000
0010
0001
0010
0000
,  // measure 37
1000
0000
0010
0000
1000
0001
1000
0000
,  // measure 38
0001
1000
0001
0100
,  // measure 39
0010
0100
0010
0000
0100
0000
0001
0000
,  // measure 40
1000
0000
0001
0000
0001
0100
0001
0000
,  // measure 41
0010
0100
0010
1000
,  // measure 42
0100
0010
0100
0000
0001
0000
0100
0000
,  // measure 43
0010
0000
1000
0000
0001
0000
0100
0010
,  // measure 44
0100
0001
1000
0010
,  // measure 45
0100
0000
0001
0000
0100
0000
1000
0100
,  // measure 46
0010
0001
0100
0001
,  // measure 47
1000
0000
0100
0001
0010
0000
0001
0000
,  // measure 48
0100
0001
1000
0010
,  // measure 49
0100
0001
1000
0100
,  // measure 50
0001
1000
0001
0200
,  // measure 51
0000
0001
0302
0000
,  // measure 52
1000
1003
1000
0100
,  // measure 53
0010
0001
0010
0100
,  // measure 54
1000
0010
1000
0001
,  // measure 55
0100
0010
0001
0010
,  // measure 56
1000
0001
0100
0010
,  // measure 57
1000
0010
0100
0001
,  // measure 58
0010
0100
1000
0001
,  // measure 59
0100
0001
0100
0010
,  // measure 60
0100
0010
1000
0001
,  // measure 61
1000
0001
0010
0100
,  // measure 62
1000
0000
0000
0000
0001
0010
1000
0000
,  // measure 63
2000
0000
0001
3002
,  // measure 64
0000
1000
2003
0000
,  // measure 65
0001
3002
0000
1000
,  // measure 66
1003
0010
0100
0001
,  // measure 67
0010
0100
1000
0100
,  // measure 68
0010
0001
0010
0100
,  // measure 69
0200
0000
0010
0320
,  // measure 70
0000
0100
0230
0000
,  // measure 71
0010
0320
0000
0100
,  // measure 72
0130
0001
0010
0100
,  // measure 73
1000
0100
0001
1000
,  // measure 74
0001
1000
0001
1000
,  // measure 75
0010
1000
0010
1000
,  // measure 76
0100
1000
0100
0010
,  // measure 77
0110
1000
0010
1010
,  // measure 78
0100
0001
0101
0001
,  // measure 79
0100
0101
1000
0010
,  // measure 80
0001
0010
1000
0010
,  // measure 81
0001
0010
1000
0010
,  // measure 82
0001
0100
0001
0101
,  // measure 83
0010
1000
1010
0100
,  // measure 84
0010
0110
0001
0010
,  // measure 85
0011
1000
0010
0001
,  // measure 86
0010
1000
0010
0001
,  // measure 87
0010
1000
0010
0001
,  // measure 88
0010
1000
0010
1010
,  // measure 89
0010
0001
0011
1000
,  // measure 90
0010
1010
0100
0010
,  // measure 91
0110
0010
0001
0011
,  // measure 92
1000
0010
1010
0100
,  // measure 93
0010
0110
0001
0100
,  // measure 94
0101
0001
0100
0101
,  // measure 95
1000
0010
1010
0100
,  // measure 96
0010
0110
0001
0100
,  // measure 97
0101
0100
2000
0000
,  // measure 98
3020
0000
0230
0000
,  // measure 99
0302
0000
0203
0000
,  // measure 100
2300
0000
0000
3000
0000
0000
0000
0000
,  // measure 101
2002
0000
0000
3003
,  // measure 102
0220
0000
0000
0000
,  // measure 103
0000
0000
0330
0000
;

//---------------dance-single - ----------------
#NOTES:
     dance-single:
     :
     Easy:
     8:
     0.423,0.434,0.181,0.019,0.000:
0000
0000
0000
0000
,
0000
0000
0000
0000
,
0000
0000
0000
0000
,
0000
0000
0000
0000
,
0000
0000
0000
0000
,
0000
0000
0000
0000
,
0000
0000
0000
0000
,
0000
0000
0000
1000
,
0010
1000
0000
0100
,
0001
0100
0000
0010
,
1000
0010
0000
0100
,
0010
0100
0000
0001
,
0100
0001
0010
0010
,
0000
0100
0000
1000
,
0001
1000
0001
0000
,
0010
0100
0010
0100
,
0010
0000
1000
0100
,
0010
0001
0000
0110
,
0000
1001
0000
0001
,
0100
0010
0000
1000
,
0100
0010
0001
0010
,
0000
0100
1000
0100
,
0010
0001
0000
0100
,
1000
0100
0010
0001
,
0000
0100
1000
0100
,
0010
0001
1000
0001
,
0100
0010
0100
0010
,
1000
0100
0000
0010
,
0001
0010
0000
0100
,
0010
1000
0010
0100
,
0001
0100
0010
0000
,
0100
0010
0000
1000
,
0100
0010
0001
0010
,
0000
0100
1000
0100
,
0010
0001
0000
0001
,
0010
0100
1000
0100
,
0000
0010
0001
0010
,
0100
1000
0000
0100
,
0100
0100
0010
0010
,
0010
0010
1000
1000
,
1000
1000
1000
0001
,
0001
0001
0001
0001
,
0001
1000
1000
1000
,
1000
1000
1000
0010
,
0010
0010
0010
0010
,
0000
0100
0100
0100
,
0100
0100
0000
0001
,
0001
0001
0001
0001
,
0000
1000
1000
1000
,
1000
1000
1000
0010
,
0000
1000
0010
0010
,
1000
0001
0100
0100
,
0001
0010
1000
1000
,
0010
0000
0100
0000
,
0001
0000
1000
0000
,
0001
0000
0100
1000
,
0010
1000
0000
0001
,
0100
0001
0000
0010
,
1000
0010
0000
0001
,
1000
0001
0000
1000
,
0010
1000
0001
0100
,
0001
0000
0000
1000
,
1001
0000
0001
0101
,
0000
0100
1100
0000
,
0010
0110
0000
1000
,
1010
0000
0001
0101
,
0000
0010
0110
0000
,
1000
1010
0000
0001
,
0101
0000
1000
1010
,
0000
0010
0110
0000
,
0010
0011
0000
1000
,
1010
0000
0100
0110
,
0000
0010
0100
0010
,
0000
1000
0001
1000
,
0000
0001
0100
0001
,
0000
1000
0010
1000
,
0100
0010
0001
0010
,
1000
0010
0001
0010
,
0100
1000
0001
1000
,
0100
0010
0001
0100
,
1000
0001
0010
0100
,
1000
0001
1000
0100
,
0001
0100
0000
0010
,
1000
0010
0000
0100
,
0001
0100
0000
0010
,
0100
0010
0000
1000
,
0001
1000
0000
0100
,
0001
0100
0000
0001
,
1000
0001
0000
0100
,
0010
0100
0000
1000
,
0001
1000
0000
0100
,
0001
0100
0000
0010
,
1000
0010
0000
1000
,
0001
1000
0000
0010
,
1000
0010
0000
0001
,
0100
0001
0000
1000
,
0010
1000
2020
0000
,
0000
0000
0000
0000
,
0000
0000
0000
0000
,
0000
3030
0000
0000
,
1010
0000
0000
0000
,
0110
0000
0000
0000
;

//---------------dance-single - ----------------
#NOTES:
     dance-single:
     :
     Beginner:
     4:
     0.218,0.289,0.038,0.019,0.000:
0000
0000
0000
0000
,
0000
0000
0000
0000
,
0000
0000
0000
0000
,
0000
0000
0000
0000
,
0000
0000
0000
0000
,
0000
0000
0000
0000
,
0000
0000
0000
0000
,
0000
0000
0000
0010
,
0000
0000
0010
0000
,
0000
0010
0000
0000
,
0010
0000
0000
0010
,
0000
0000
0010
0000
,
0000
0010
0000
0000
,
0010
0000
0000
1000
,
0000
0000
0001
0000
,
0000
1000
0000
0000
,
0001
0000
0000
1000
,
0000
0000
0001
0000
,
0000
1000
0000
0000
,
0001
0000
0000
0100
,
0100
0000
0010
0010
,
0000
0100
0100
0000
,
0010
0010
0000
0100
,
0100
0000
0010
0010
,
0000
0100
0100
0000
,
0010
0010
0000
0010
,
0000
0000
0100
0000
,
0000
0010
0000
0000
,
0100
0000
0000
0010
,
0000
0000
0100
0000
,
0000
0010
0000
0000
,
0100
0000
0000
1000
,
1000
0000
0001
0001
,
0000
1000
1000
0000
,
0001
0001
0000
1000
,
1000
0000
0001
0001
,
0000
1000
1000
0000
,
0001
0001
0000
1000
,
0000
0000
1000
0000
,
0000
1000
0000
0000
,
0000
0000
0000
0001
,
0000
0000
0001
0000
,
0000
0001
0000
0000
,
0000
0000
0000
0100
,
0000
0000
0100
0000
,
0000
0100
0000
0000
,
0100
0000
0000
0100
,
0000
0000
0010
0000
,
0000
0010
0000
0000
,
0010
0000
0000
1000
,
0000
0000
1000
0000
,
0000
0001
0000
0000
,
0000
0000
0000
1000
,
1001
0000
1000
0000
,
0000
1000
0000
0000
,
0001
0000
0000
0001
,
0000
0000
0010
0000
,
0000
0100
0000
0000
,
1000
0000
0000
0001
,
0000
0000
0100
0000
,
0000
0010
0000
0000
,
1000
0000
0000
0010
,
0000
0000
1000
0000
,
0000
0001
0000
0000
,
0100
0000
0000
0010
,
0000
0000
1000
0000
,
0000
0001
0000
0000
,
0100
0000
0000
0010
,
0000
0000
1000
0000
,
0000
0010
0000
0000
,
0100
0000
0000
0001
,
0000
0000
1000
0000
,
0000
0010
0010
0010
,
0000
0100
0100
0000
,
0001
0001
0000
1000
,
1000
0010
0000
0010
,
0000
0010
0000
0010
,
0000
0100
0000
0100
,
0000
0100
0000
0100
,
0000
0001
0000
0001
,
0000
0001
0000
0001
,
0000
1000
0000
1000
,
0000
1000
0000
1000
,
0000
0010
0000
0010
,
0000
0010
0000
0010
,
0000
0001
0000
0001
,
0000
0001
0000
0001
,
0000
1000
0000
1000
,
0000
1000
0000
1000
,
0000
0001
0000
0001
,
0000
0001
0000
0001
,
0000
0100
0000
0100
,
0000
0100
0000
0100
,
0000
0010
0000
0010
,
0000
0010
0000
1000
,
0000
1000
0000
1000
,
0000
2002
0000
0000
,
0000
0000
0000
0000
,
0000
0000
0000
0000
,
0000
3003
0000
0000
,
0110
0000
0000
0000
,
1001
0000
0000
0000
;
