#TITLE:Remember Summer Days;
#SUBTITLE:(Night Tempo Showa Groove Mix);
#ARTIST:Night Tempo & Anri;
#TITLETRANSLIT:;
#SUBTITLETRANSLIT:;
#ARTISTTRANSLIT:;
#GENRE:;
#CREDIT:;
#MUSIC:Remember Summer Days (Night Tempo Showa Groove Mix).ogg;
#BANNER:Remember Summer Days (Night Tempo Showa Groove Mix).png;
#BACKGROUND:Remember Summer Days (Night Tempo Showa Groove Mix)-bg.png;
#CDTITLE:;
#SAMPLESTART:67.640;
#SAMPLELENGTH:15.216;
#SELECTABLE:YES;
#OFFSET:-0.006;
#BPMS:0.000=110.000;
#STOPS:;
#BGCHANGES:;
#FGCHANGES:;

//--------------- dance-single - mikeintyo ----------------
#NOTES:
     dance-single:
     mikeintyo:
     Beginner:
     4:
     0,0,0,0,0:
0000
0000
0000
0000
,
0000
0000
0000
0000
,
0000
0000
0000
0000
,
0000
0000
0000
0000
,
0000
0000
0000
0000
,
0000
0000
0000
0000
,
0000
0000
0000
0000
,
0000
0000
0001
0000
,
1000
0000
0100
0000
,
0010
0000
0001
0000
,
0020
0000
0000
0130
,
0000
0100
0010
0100
,
1000
0000
0001
0000
,
1000
0000
0010
0000
,
2000
0000
0000
0000
,
3010
0010
0010
0000
,
0100
0000
0001
0000
,
1000
0000
0010
0000
,
0001
0001
0001
0000
,
1000
1000
1000
0000
,
0010
0000
0100
0000
,
0010
0000
0110
0000
,
1000
0000
0001
0000
,
1000
0000
0000
0000
0000
0000
0000
0000
1002
0000
0000
0000
0000
0000
0000
0003
,
0000
0000
0000
0010
,
0100
0000
0000
0000
0020
0000
0000
0030
0000
0000
0000
0000
1000
0000
0000
0000
,
0001
1000
0000
1000
,
0000
0000
0000
0000
0100
0000
0000
0000
0000
0000
0000
0000
2000
0000
0000
3000
,
0000
0000
0000
0000
0200
0000
0000
0300
0000
0000
0000
0000
0010
0000
0000
0000
,
0100
0000
0000
0000
0020
0000
0000
0030
0000
0000
0000
0000
0100
0000
0000
0000
,
0010
0100
0000
0010
,
0110
0020
0000
0030
,
1001
1000
0000
1000
,
1001
0001
0000
0001
,
0010
0000
0100
0000
,
1000
0000
0100
0000
,
1000
1000
1000
0000
,
0100
0100
0100
0000
,
0010
0000
0010
0010
,
0020
0030
0000
0000
0110
0000
0110
0000
,
0220
0000
0000
0000
0000
0330
0000
0000
,
0001
0000
1000
0000
,
0001
0000
0010
0000
,
0200
0000
0000
0300
0000
0000
0000
0000
1000
0000
0000
0000
0100
0000
0000
0000
,
1000
0100
0000
1100
,
1000
0100
0010
0001
,
0010
0001
0000
0001
,
0010
0000
0000
0000
0000
0000
0000
0000
2002
0000
0000
0000
0000
0000
0000
3003
,
0000
0110
0000
1001
,
0000
0110
0000
1001
,
0000
1000
0000
0100
,
0000
0010
0000
0001
,
0000
0011
0000
0001
,
0000
1100
0000
1000
,
0000
1010
0000
0010
,
0000
0101
0000
0001
,
1000
0000
1000
0000
,
0001
0000
0001
0000
,
1000
0000
0001
0000
,
2002
0000
0000
0000
0000
0000
0000
3003
,
1001
0000
0000
0000
;

//--------------- dance-single - mikeintyo ----------------
#NOTES:
     dance-single:
     mikeintyo:
     Easy:
     7:
     0,0,0,0,0:
0000
0000
0000
0000
,
0000
0000
0000
0000
,
0000
0000
0000
0000
,
0000
0000
0000
0000
,
0000
0000
0000
0000
,
0000
0000
0000
0000
,
0000
0000
0000
0000
,
0000
0000
1001
0000
,
1000
0100
1000
0100
,
0010
0001
0010
0001
,
0002
0000
0000
0003
0200
0000
0000
0300
,
0010
0100
1000
0100
,
0010
0100
0010
1001
,
0001
0010
0100
1000
,
1000
0100
0010
0001
,
0010
0001
0000
2002
0000
0000
0000
3003
,
0001
0100
1000
0100
,
0001
0010
1000
0010
,
0100
0010
0100
0000
0100
1000
0100
0000
,
1000
0001
1000
0000
1000
0010
1000
0000
,
0100
0010
0100
0000
0110
0000
0000
0000
,
1000
0001
1000
0000
1001
0000
1001
0000
,
2000
0100
0010
3001
,
0010
0000
0100
0000
0010
0000
0001
0000
0000
0000
2002
0000
0000
0000
0000
3003
,
0000
0000
0010
0000
0000
0000
0020
0030
0000
0000
0100
0000
0000
0000
0100
0000
,
0010
0000
0100
0000
0000
0000
0200
0300
0000
0000
0001
0000
0000
0000
1000
0000
,
0010
0100
0110
1001
,
0210
0000
0000
0000
0010
0000
0000
0000
0010
0000
0000
0000
0310
0000
0020
0030
,
0000
0000
1000
0000
0000
0000
0020
0030
0000
0000
0100
0000
0000
0000
0010
0000
,
1000
0000
0100
0000
0000
0000
0200
0300
0000
0000
0010
0000
0000
0000
0001
0000
,
0010
0100
1100
1001
,
1000
0100
0010
0001
,
0001
0100
0001
0000
0101
0000
0101
0000
,
1000
0100
1000
0000
1100
0000
1100
0000
,
2010
0010
0001
3001
,
1001
0000
0010
1000
0000
0001
0100
0000
,
0010
0100
0010
0100
0001
0000
0010
0000
,
0100
1000
0100
1000
0001
0000
0100
0000
,
0010
0000
1000
0100
0000
0010
0100
0000
,
1000
1000
1100
1100
,
2002
0000
0000
0000
0000
3003
1001
0000
,
1000
0000
1000
0000
1000
0100
1000
0000
,
0001
0001
0100
0100
,
0010
1000
0010
0000
0100
0001
0100
0000
,
0001
0010
0100
1000
,
1001
1001
0110
0110
,
0001
0001
1000
1000
,
1000
0010
1000
0000
0010
0100
0010
0000
,
0002
0000
0013
0100
1000
0000
1100
0000
,
2000
0000
3100
0010
0001
0000
0011
0000
,
1000
0000
1000
0001
0000
0010
0000
0100
,
0010
0011
0001
0101
,
2002
0000
0000
0000
0000
3003
0010
0100
,
0010
0010
0010
0010
0100
0000
0100
0000
,
0001
0010
0000
0100
0000
0010
0000
0100
,
1000
0100
0000
0010
0001
0010
0100
0000
,
1001
1000
1001
0001
,
1000
0100
0010
0001
,
1000
0100
1000
0000
0001
0010
0001
0000
,
0110
1000
1000
0001
,
1001
0000
0000
0000
;

//--------------- dance-single - mikeintyo ----------------
#NOTES:
     dance-single:
     mikeintyo:
     Medium:
     12:
     0,0,0,0,0:
0000
0000
0000
0000
,
0000
0000
0000
0000
,
0000
0000
0000
0000
,
0000
0000
0000
0000
,
0000
0000
0000
0000
,
0000
0000
0000
0000
,
0000
0000
0000
0000
,
0000
0000
1001
0000
,
1000
0000
0000
0100
0000
0000
1000
0000
0000
0001
0000
0010
0100
0000
0000
0010
0000
0000
0001
0000
0000
2000
0000
0000
,
3100
0000
0000
0010
0000
0000
0001
0000
0000
0010
0000
0010
0001
0000
0000
0001
0000
0000
1000
0000
0000
1000
0000
0000
,
0020
0100
0000
1000
0000
0100
0000
0031
,
0010
0000
0000
0100
0000
0000
0001
0000
0000
0010
0000
0000
0100
0000
0000
1000
0000
0100
0000
0000
0100
0020
0000
0030
,
0001
0000
0000
1000
0000
0000
0100
0000
0000
0010
0000
0010
0100
0000
0000
1000
0000
0000
0100
0000
0000
0010
0000
0000
,
0100
0000
0000
0010
0000
0000
0001
0000
0000
1000
0000
1000
0002
0000
0000
0000
0000
0000
0010
0000
0000
0100
0000
0003
,
0100
0200
0310
0200
0301
0020
0130
2000
,
3100
0000
0100
0010
0000
0001
0000
0000
0000
2002
0000
0000
0000
0000
0003
0010
0000
0000
0000
0000
0100
0000
0000
3000
,
1000
0000
0000
1000
0000
0100
0000
0000
0000
0000
0000
0000
0100
0000
0000
0100
0000
0010
0000
0000
0000
0000
0000
0000
,
0001
0000
0000
0001
0000
0010
0000
0000
0000
0000
0000
0010
0001
0000
0000
0010
0000
0000
0100
0000
0000
1000
0000
0000
,
0200
0000
0000
1000
0000
0000
0000
0000
0000
0010
0000
0000
0000
0000
0000
0001
0000
0300
0100
0000
0000
0010
0000
0000
,
0001
0000
0000
0010
0000
0000
0200
0000
0000
0000
0000
0000
0000
0000
0000
0000
0000
0300
0110
0000
0000
0002
0000
0003
,
1000
0000
0000
0001
0000
0000
0100
0000
0000
0001
0000
1000
0100
0000
0000
1000
0000
0000
1100
0000
0000
0200
0000
0000
,
0310
0000
0000
0001
0000
0000
0100
0000
0000
0010
0000
0010
1000
0000
0000
0000
0000
1100
0000
0000
0000
1010
0000
0000
,
2000
0100
3001
0002
0100
1003
0010
0100
,
0001
0000
0200
0000
1300
0000
0200
0000
0310
0000
1000
0001
0000
0000
0000
2002
,
0000
0000
0000
0000
0000
0000
3003
0000
0000
0000
0000
0000
0001
0000
0000
0000
0100
0000
0000
0000
0000
0220
0000
0000
0000
0000
0000
0330
0000
0000
1000
0000
0000
0000
0000
0000
0100
0000
0000
0000
0000
0000
0010
0000
0000
0000
0000
0000
,
0100
0000
0000
0000
0000
0000
0010
0000
0000
0000
0000
0000
0001
0000
0000
0000
0100
0000
0000
0000
0000
0202
0000
0000
0000
0000
0000
0000
0303
0000
0010
0000
0000
0000
0000
0000
1000
0000
0000
0000
0000
0000
0020
0000
0000
0000
0000
0000
,
1030
0100
0001
0100
1000
0010
0001
0010
,
0100
0000
0000
0000
0100
0000
0010
0000
0000
0000
1000
0000
0000
0000
0000
0000
0001
0000
0000
0000
0000
0000
0010
0000
0100
0000
0000
0000
0000
0000
0010
0000
0000
0000
0000
0000
0001
0000
0000
0100
0000
0000
0000
0000
0000
0101
0000
0000
,
0000
0000
0000
0000
0000
0000
0001
0000
0000
0000
0000
0000
1000
0000
0000
0000
0001
0000
0000
0000
0000
0110
0000
0000
0000
0000
0000
0000
0000
0000
0001
0000
0000
0000
0000
0000
0110
0000
0000
0000
0000
0000
1000
0000
0000
0000
0010
0000
,
0100
0000
0000
0000
0000
0000
0001
0000
0000
0000
0000
0000
0100
0000
0000
0000
0010
0000
0000
0000
0000
1010
0000
0000
0000
0000
0000
0000
0000
0000
0100
0000
0000
0000
0000
0000
1000
0000
0000
0000
0000
0000
0100
0000
0000
0000
0000
0000
,
1000
0000
0000
0001
0000
0000
0010
0000
0000
0001
0000
0100
0001
0000
0000
1000
0000
0000
0000
0000
1010
0000
0000
0000
,
1100
1000
0100
0010
,
0001
0000
0000
0010
0000
0000
0100
0000
0000
0010
0000
0000
0001
0000
0000
0000
0000
1000
0010
0000
0000
0100
0000
0000
,
0010
0100
0001
0100
0010
1000
0100
0010
,
0001
0110
0000
1001
0000
0110
0000
1001
,
0100
0000
0010
0001
0010
0000
0100
1000
0100
0000
1000
0000
2020
0000
0000
3030
,
1000
0000
0000
0100
0000
0000
0010
0000
0000
0100
0000
0000
1000
0000
0000
0000
0000
0001
1000
0000
0000
0100
0000
0000
,
0010
0100
1000
0100
0010
0001
0010
0100
,
1100
0000
0000
0000
0000
1001
0000
0000
0000
0102
0000
0000
0000
0000
0000
0010
0000
0000
0000
0000
0000
1003
0000
0000
,
0100
0000
1100
0000
1000
0010
0000
0100
0002
0000
0013
0000
0020
0000
0130
0000
,
2000
0001
0000
3100
0020
0001
0000
0130
,
1000
0000
0000
0010
0000
0000
0100
0000
0001
0000
0000
0010
0100
0000
0000
1000
0000
0000
0001
0000
0000
1000
0000
0000
,
0020
1000
0000
2030
3200
0010
0000
0320
,
0031
0000
0010
0100
0010
0000
0001
1000
0001
0000
0100
0010
0100
0000
0002
0003
,
0010
0000
0000
0100
0000
0000
0100
0000
0000
1000
0000
0100
1000
0000
0000
0001
0000
0000
0010
0000
0000
0001
0000
0000
,
0101
0000
0000
0000
0000
0000
1001
0000
0000
0000
0000
0000
1010
0000
0000
0000
0000
0000
1100
0000
1000
0100
0000
1000
,
0100
0010
0100
1000
0001
0100
0010
0100
,
0001
0000
0000
0010
0000
0000
0100
0000
0000
1000
0000
0000
0001
0000
1000
0010
0000
0100
0010
0000
0100
0001
0000
0010
,
0100
0000
1000
0000
0100
0000
0010
0000
0000
0001
0000
0000
0010
0000
0000
0100
0000
0000
0010
0000
0000
0001
0000
0100
,
0010
0000
1000
0000
0010
0000
0100
0000
0001
0000
0100
0000
0010
0000
0000
0100
0000
0000
0001
0000
0000
1000
0000
1000
,
0020
0000
0100
0000
0000
0000
0130
0000
0200
0000
0010
0000
0000
0000
0310
0100
,
0010
0000
1000
0000
0100
0000
0010
0000
0001
0000
0100
0000
0010
0000
0000
1000
0000
0000
0100
0000
0000
0010
0100
0010
,
0002
0000
0000
1000
0000
0000
0000
0000
0000
0100
0000
0000
0000
0000
0000
0010
0000
0000
0000
0000
0000
0103
0000
0001
,
0020
0000
0000
0230
0000
0000
0310
0000
0100
0000
0010
0000
0001
0000
0010
0000
0100
0000
0010
0000
0100
0000
1000
0000
,
1001
0000
0000
0010
0000
0000
0110
0000
0000
0001
0000
0000
0110
0000
0000
1000
0000
0000
0110
0000
0000
0001
0000
0010
,
0100
0000
2000
0000
3000
0000
0002
0000
1003
0010
0000
0100
0001
0010
0000
0100
,
2000
0000
3100
1000
0010
0100
0001
0010
0100
0000
0010
0100
0000
0000
0000
0000
,
1000
0100
0010
0001
0010
0100
0000
2000
0000
0000
3000
0000
0000
0000
0000
0000
,
1000
0000
0100
0000
0000
1000
0000
0000
0000
0001
0000
0100
0000
0000
0001
0000
0000
0000
0010
0000
0100
1000
0000
0000
,
1001
1000
0100
0010
,
1001
0000
0000
0000
;

//--------------- dance-single - mikeintyo ----------------
#NOTES:
     dance-single:
     mikeintyo:
     Hard:
     14:
     0,0,0,0,0:
0000
0000
0000
0000
,
0000
0000
0000
0000
,
0000
0000
0000
0000
,
0000
0000
0000
0000
,
0000
0000
0000
0000
,
0000
0000
0000
0000
,
0000
0000
0000
0000
,
0000
0000
0000
0000
0000
0000
0000
0000
0001
1000
0000
0000
0000
0000
0000
0000
,
0001
0000
0000
0010
0000
0100
1000
0000
0000
0001
0000
0000
1000
0000
0000
0100
0000
0010
0000
0000
0000
0001
0000
0000
,
0010
0000
0000
0100
0000
1000
0000
0000
0000
0100
0000
1000
0001
0000
0000
0010
0000
0000
0001
0000
0000
0200
0000
0300
,
0001
0000
0000
1000
0000
0000
0010
0000
0000
1000
0000
0100
1000
0000
0000
0010
0000
0010
1000
0000
0000
1000
0000
1000
,
0100
0000
0000
0010
0000
0000
0100
0000
0000
1000
0000
0100
1000
0000
0000
0010
0000
0100
0010
0000
0000
0200
0000
0300
,
0001
0000
0000
0110
0000
0000
1000
0000
0000
0100
0000
0010
0100
0000
0000
0010
0000
0000
0001
0000
0000
0010
0000
0100
,
1000
0000
0000
0001
0000
0100
0001
0000
0000
1000
0000
0010
0100
0000
0000
0100
0000
0010
1000
0000
0000
0200
0000
0310
,
0001
0000
0000
0100
0000
0100
0001
0000
0000
1000
0000
0010
0100
0000
0000
0010
0000
0000
0001
0000
0000
0010
0000
0000
,
0100
0000
0001
0100
0000
0010
0000
0000
0000
2002
0000
0000
0000
0000
3003
0110
0000
0000
0001
0000
0100
0020
0000
1030
,
0001
0000
0000
0010
0000
0100
1000
0000
0000
0100
0000
0100
0010
0000
0000
0100
0000
0010
0001
0000
0000
0001
0000
0010
,
0100
0000
0000
0010
0000
0100
1000
0000
0000
0010
0000
0010
2000
0000
3000
0020
0000
0030
0200
0000
0300
0002
0000
0003
,
0010
0000
0000
0010
0000
0100
1000
0000
0000
0010
0000
0100
0001
0000
0000
0010
0000
0100
1000
0000
0000
0010
0000
1000
,
0001
0000
0000
0010
0000
0000
0100
0000
0000
0100
0000
0010
0001
0000
0100
0010
0000
0000
1000
0000
0000
0200
0000
1300
,
0100
0000
0000
0010
0000
0000
0100
0000
0000
0010
0000
0010
0001
0000
0000
0010
0000
0000
0100
0000
0000
2000
0000
3010
,
0100
0000
0000
0010
0000
0000
1000
0000
0000
0010
0000
0010
0100
0000
0001
0000
0000
0101
0000
0000
0000
0200
0000
0300
,
0001
0000
0000
1000
0000
0100
0010
0000
0000
0001
0000
1000
0100
0000
0000
1000
0000
0100
0010
0000
0000
0100
0000
1000
,
0100
0000
0000
0000
0000
0000
0010
0000
0000
0000
0000
0000
0001
0000
0000
0000
0000
0000
0010
0000
0000
0000
0200
0000
0310
0000
0000
0000
0000
0000
0001
0000
0000
0000
1000
0000
0000
0000
0000
0000
0000
0000
0010
0000
0000
0120
0000
0000
,
0000
0000
0000
0000
0000
0000
0130
0000
0000
0000
0000
0000
0010
0000
0000
0000
1000
0000
0000
0000
0000
1020
0000
0000
0000
0000
0000
0000
0000
0000
2030
0000
0000
0000
0000
0000
3100
0000
0000
0000
0000
0000
0020
0000
0000
0000
0031
0000
,
0100
0000
0000
0000
0000
0000
0010
0000
0000
0000
0000
0000
1000
0000
0000
0000
0100
0000
0000
0000
0000
1200
0000
0000
0000
0000
0000
0000
0000
0000
0310
0000
0000
0000
0002
0000
0100
0000
0000
0000
0000
0000
0203
0000
0000
0000
0301
0000
,
0010
0000
0000
0100
0000
0000
1000
0000
0000
1000
0000
0000
0100
0000
0000
0010
0000
0100
1000
0000
0000
1000
0000
0100
,
0010
0000
0000
0000
0000
0000
0001
0000
0010
0000
0001
0000
0010
0000
0100
0000
0010
0000
0100
0000
0000
0000
1000
0000
0100
0000
0000
0000
1000
0000
0100
0000
0000
0000
0001
0000
0100
0000
0000
0000
1000
0000
0010
0000
0000
1020
0000
0000
,
0000
0000
0000
0000
0000
0000
0130
0000
0000
0000
0000
0000
0010
0000
0000
0000
0100
0000
0000
0000
0000
0201
0000
0000
0000
0000
0000
0000
0000
0000
0301
0000
0000
0000
0000
0000
0100
0000
0000
0000
0000
0000
0010
0000
0000
0000
0000
0000
,
0100
0000
0000
0000
0000
0000
0010
0000
0000
0000
0000
0000
0001
0000
0000
0000
0010
0000
0000
0000
0000
1001
0000
0000
0000
0000
0000
0000
0000
0000
0110
0000
0000
0000
0000
0000
0001
0000
0000
0000
0000
0000
0200
0000
0000
0000
0300
0000
,
0010
0000
0000
0000
0000
0000
0010
0000
0000
0000
1000
0000
0100
0000
0000
0000
0000
0000
0010
0000
0000
0000
0001
0000
0000
0000
0000
0000
0001
0000
1000
0000
0000
0000
0000
0000
0000
0000
0000
1100
0000
0000
0000
0000
0000
0000
0001
0000
,
2000
0000
0200
0300
0020
0030
0002
3003
,
1001
0000
0000
0100
0000
0000
1000
0000
0000
0010
0000
0000
0100
0000
0000
0010
0000
1000
0000
0000
0100
1000
0000
0100
,
0010
0000
0000
0001
0000
0001
0100
0000
0000
0010
0000
0010
1000
0000
0000
0001
0000
0000
1000
0000
0001
0100
0000
0001
,
1000
0000
0000
0100
0000
0000
1000
0000
0000
0010
0000
0000
0100
0000
0000
0010
0000
0000
1000
0000
1000
0001
0000
0010
,
0100
0000
0001
0100
0010
0000
0001
0010
0100
1000
0100
0000
1002
0000
0000
0013
,
0100
0000
0000
0010
0000
0000
0001
0000
0010
0000
0000
0100
0010
0000
0000
0001
0000
0000
0010
0000
0000
0001
0000
0001
,
0100
0000
0000
0010
0000
0000
1000
0000
0000
0100
0000
0000
0100
0000
0010
0200
0000
1000
0300
0000
0010
0200
0000
0000
,
0302
0000
0000
0000
0000
0203
0000
0000
0000
0320
0000
0000
0000
0000
0000
1030
0000
0000
0100
0000
0000
0010
0000
0000
,
0001
0000
0100
1000
0000
0100
0001
0000
0000
0001
0000
0010
0100
0000
0000
1000
0000
0010
0100
0000
0000
0001
0000
0010
,
0100
0000
0000
1000
0000
0100
0010
0000
0001
0000
0000
1000
0100
0000
0100
0010
0000
0001
0000
0000
0010
0000
0000
0001
,
0010
0000
0000
0100
0000
0000
1000
0000
0000
0001
0000
0000
0100
0000
0000
1000
0000
0000
0100
0000
0001
0010
0000
0001
,
0200
0000
0000
0020
0000
0000
0030
0000
0000
2000
0000
0000
3000
0000
0000
0002
0300
0000
0013
0000
0100
0000
0000
0010
,
0100
0000
0000
1000
0000
0000
0100
0000
0000
1000
0000
0000
1100
0000
0000
0000
0000
0000
0001
0000
0000
0010
0000
0000
0100
0000
0000
0010
0000
0000
0001
0000
0000
0000
1000
0000
0002
0000
0000
0000
0000
0000
0200
0000
0000
0000
0303
0000
,
0010
0000
1000
0200
0000
0310
0001
0000
0001
0200
0000
0310
0100
0000
0001
0200
0000
0310
1000
0000
0100
2000
0000
3000
,
1100
0000
0000
0000
0000
0000
1001
0000
0000
0000
0000
0000
0102
0000
0000
0010
0000
0000
0003
0000
0010
0001
0000
0200
,
0310
0000
0000
1000
0000
0010
1000
0000
0000
0001
0000
0010
0100
0000
0000
0001
0000
0100
0010
0000
0000
0100
0000
1000
,
0010
0000
0000
1000
0000
0010
0100
0000
0000
0110
0000
0020
0130
0000
0010
0100
0000
0100
0001
0000
0001
0010
0000
0010
,
0100
0000
1000
0000
0100
0000
0020
0030
0100
0020
0000
0000
0000
0000
0000
0002
0000
0000
0003
0000
0000
0031
0000
0001
,
0010
0000
0100
0000
0000
1000
0001
0000
0001
0000
0010
0000
0200
0000
0000
0010
0000
0000
1300
0000
0100
0000
0010
0002
,
0023
0000
0000
0000
0000
0000
0031
0000
0010
0000
0001
0000
0100
0000
0000
0000
0001
0000
0000
0000
1000
0000
0000
0000
1000
0000
0000
0000
0010
0000
0000
0000
1000
0000
0000
0000
0200
0000
0000
0000
0000
0000
1300
0000
0000
0100
0000
0000
,
1000
0000
0001
0000
0000
1000
0000
0000
0010
0000
0000
0100
0010
0000
0200
0000
0300
0001
0010
0000
0100
1000
0100
0010
,
0002
0000
0000
0000
0000
0000
0013
0000
0000
0001
0000
0100
0001
0000
1000
0001
0000
1000
0010
0000
0010
0100
0000
0001
,
0100
0000
0100
0010
0000
0010
1000
0010
0100
0010
0000
1000
0002
0000
0000
0000
0000
0003
0001
0000
0010
0100
0000
0000
,
2000
0000
0000
0000
0000
0000
0000
0000
0000
0000
3000
0000
0010
0000
0000
0000
0100
0000
0000
0000
0000
0000
0001
0000
0000
0000
0000
0000
0000
0000
0000
0000
0001
0000
0100
0000
0010
0000
0000
0100
0000
0000
0001
0000
0000
1000
0000
0000
,
0002
0000
0000
0000
0000
0000
0000
0000
0000
0000
0013
0000
0100
0000
0000
0000
0010
0000
0000
0000
0000
0000
0001
0000
1000
0000
0000
1001
0000
0000
0000
0000
0000
0001
0000
0000
1000
0000
0000
0000
0110
0000
0000
0000
0000
2001
0000
0000
,
0000
3000
0100
0001
1000
0010
0001
0010
1000
0000
0001
1000
0000
0000
0110
0000
,
1000
0100
1000
0001
0020
0031
0000
0100
0000
0000
0110
0000
0010
0000
0110
0000
,
1000
0000
0100
0000
0000
0110
0000
0000
0000
0001
0000
0010
0000
0000
0110
0000
0000
0100
1000
0000
0001
1000
0000
0000
,
2002
0000
3003
0000
0000
0000
1200
0000
0000
0000
0000
0300
0120
0000
0000
0000
0000
0030
0012
0000
0000
0000
0000
0003
,
1001
0000
0000
0000
;
