#VERSION:0.83;
#TITLE:Reflection Into the EDEN (JAKAZiD Trance Mix);
#SUBTITLE:;
#ARTIST:Nekomata Master;
#TITLETRANSLIT:;
#SUBTITLETRANSLIT:;
#ARTISTTRANSLIT:;
#GENRE:;
#CREDIT:;
#MUSIC:Reflection Into the EDEN (JAKAZiD Trance Mix).ogg;
#BANNER:Reflection Into the EDEN (JAKAZiD's Trance Mix) banner.png;
#BACKGROUND:Reflection Into the EDEN (JAKAZiD's Trance Mix) bg.png;
#PREVIEWVID:;
#JACKET:Reflection Into the EDEN (JAKAZiD's Trance Mix) jacket.png;
#CDTITLE:;
#SAMPLESTART:70.022;
#SAMPLELENGTH:13.333;
#SELECTABLE:YES;
#OFFSET:-0.022;
#BPMS:0.000=144.000;
#STOPS:;
#BGCHANGES:;
#FGCHANGES:;

//--------------- dance-single - ----------------
#NOTEDATA:;
#STEPSTYPE:dance-single;
#DESCRIPTION:;
#DIFFICULTY:Hard;
#METER:14;
#RADARVALUES:0,0,0,0,0;
#NOTES:
0000
0000
0000
0000
,
0000
0000
0000
0000
,
0000
0000
0000
0000
,
0000
0000
0000
0000
,
0000
0000
0000
0000
,
0000
0000
0000
0000
,
0000
0000
0000
0000
,
0000
0000
0000
0000
,
1000
0100
0000
0100
0000
0000
0001
0000
0100
0000
2000
0000
0000
0000
3100
0000
,
0001
0010
0000
0010
0000
0000
1000
0000
0100
0000
1000
0000
0010
0100
0010
0000
,
1000
0010
0000
0010
0000
0000
0001
0000
0010
0000
2000
0000
0000
0000
3010
0000
,
0001
0010
0000
0010
0000
0000
1000
0000
0010
0000
0100
0000
0001
0010
0001
0000
,
1000
0010
0000
0010
0000
0000
0001
0000
0010
0000
2000
0000
0000
0000
3010
0000
,
0001
0100
0000
0100
0000
0000
1000
0000
0010
0000
0100
0000
0001
1000
0001
0000
,
1000
0100
0000
0100
0000
0000
0001
0000
0100
0000
2000
0000
0000
0000
3100
0000
,
0001
0100
0000
0100
0000
0000
1000
0000
1100
0000
0110
0000
0011
0000
1001
0000
,
0001
0100
0000
0100
0000
0000
1000
0000
0001
0000
0100
0000
0001
0010
0001
1000
,
0000
0100
0000
0100
0000
0001
1000
0000
0010
0000
0100
0000
0010
1000
0010
0000
,
1000
0100
0000
0100
0000
0000
0001
0000
1000
0000
0010
0000
0100
0010
0100
0001
,
0000
0100
0000
0100
0000
1000
0001
0000
0010
0000
0100
0000
0010
0100
0010
0000
,
0002
0000
0000
0103
0120
0000
0000
1030
,
1200
0000
0000
1300
1002
0000
0000
0013
,
0110
0000
0000
0100
1000
0000
0000
0010
0100
0000
0000
0001
1000
0000
0000
0000
,
0220
0000
0000
0000
,
0000
0000
0000
0000
0000
0000
0330
0001
,
1000
0000
0000
0002
0000
0000
0000
0000
0000
0103
0001
0000
1000
0000
0001
0000
,
0010
0000
0000
0200
0000
0000
0000
0000
0000
1300
0010
0000
0100
0000
0010
0000
,
0200
0000
0000
0001
0000
0000
0301
0000
0020
0000
0000
0100
0000
0000
0130
0000
,
2000
0000
0000
0001
0000
0000
3001
0000
0200
0000
0000
0010
0000
0000
0310
0000
,
1000
0000
0000
0002
0000
0000
0000
0000
0000
0013
0001
0000
0100
0000
0010
0000
,
1000
0000
0000
0020
0000
0000
0000
0000
0000
1030
0100
0000
1000
0000
0010
0000
,
0200
0000
0000
0001
0000
0000
0301
0000
2000
0000
0000
0100
0000
0000
3100
0000
,
0020
0000
0000
0001
0000
0000
0031
0000
2000
0000
0000
0001
0000
0000
3001
0000
,
1002
0000
0023
0000
,
0230
0000
0000
0000
2300
0000
0000
3010
,
0220
0000
0030
0310
,
0110
0000
0000
0000
1001
0000
0000
0000
1100
0000
0000
1000
0001
0000
0100
0000
,
0001
0010
2000
0000
3100
0001
0200
0000
,
1300
0010
0002
0000
0013
1000
0100
0001
,
0010
0001
0010
0100
0010
0100
1000
0100
,
2000
0000
0000
0000
,
0000
0000
0000
0000
3000
0000
0000
0000
0001
0000
0000
0100
0010
0000
1000
0000
,
0001
0000
0000
1000
0001
0000
0000
0100
1000
0000
0000
0100
0001
0000
0000
0010
,
0100
0000
0000
1000
0100
0000
0000
0001
0100
0000
0000
1000
0100
0000
0000
0010
,
0001
0000
0000
0100
0010
0000
0000
1000
0001
0000
0000
0100
0001
0000
0000
1000
,
0100
0000
0000
0100
0010
0000
0000
0010
0001
0000
0000
0001
0100
0000
0000
0010
,
1000
0000
0000
0001
0010
0000
0000
1000
0010
0000
0000
0001
0100
0000
0000
0010
,
1000
0000
0000
0010
0001
0000
0000
0010
1000
0000
0000
0010
0100
0000
0000
0001
,
1000
0000
0000
0100
0010
0000
0000
0001
0010
0000
0000
0000
0001
0000
0000
0000
,
0100
0010
0000
0010
0000
0000
1000
0000
0001
0000
1000
0010
0100
0010
0100
0000
,
0010
0000
0000
1000
0001
0000
0000
0100
1000
0000
0000
0100
0001
0000
0000
0010
,
0100
0000
0000
1000
0100
0000
0000
0001
0100
0000
0000
1000
0100
0000
0000
0010
,
0001
0000
0000
0100
0010
0000
0000
1000
0100
0000
0000
0010
0001
0000
0000
1000
,
0010
0000
0000
0010
0100
0000
0000
0100
0001
0000
0000
0001
1000
0000
0000
0001
,
0100
0000
0000
0010
0100
0000
0000
0001
0010
0000
0000
0100
0010
0000
0000
0001
,
1000
0000
0000
0100
1000
0000
0000
0010
1000
0000
0000
0001
0100
0000
0000
0000
,
2010
0000
3010
0100
,
0220
0000
0000
0330
,
2002
0000
0000
0000
,
3003
0000
0000
0000
;
