#TITLE:Reaching Dreams;
#SUBTITLE:;
#ARTIST:Pont Aeri;
#TITLETRANSLIT:;
#SUBTITLETRANSLIT:;
#ARTISTTRANSLIT:;
#GENRE:;
#CREDIT:;
#MUSIC:Reaching Dreams.ogg;
#BANNER:;
#BACKGROUND:;
#CDTITLE:;
#SAMPLESTART:66.073;
#SAMPLELENGTH:15.000;
#SELECTABLE:YES;
#OFFSET:1.504;
#BPMS:0.000=158.042
,84.000=79.021
,116.000=158.042
,144.000=79.021
,146.000=158.042
;
#STOPS:238.000=1.139;
#LASTBEATHINT:1.327553;
#BGCHANGES:4.000=Reaching Dreams.avi=1.000=0=0=1,
99999.000=-nosongbg-=1.000=0=0=0=StretchNoLoop====
;
#FGCHANGES:;

//--------------- dance-single - RaverAce ----------------
#NOTES:
     dance-single:
     RaverAce:
     Beginner:
     4:
     0.111773,0.19756,0.111773,0,0,105,90,15,0,0,0,0.111773,0.19756,0.111773,0,0,105,90,15,0,0,0:
0000
0000
0000
0000
,
0000
0000
0000
0000
,
0000
0000
0000
0000
,
0000
0000
0000
0000
,
0000
0000
0000
0000
,
0000
0000
0000
0000
,
0000
0000
0000
0000
,
0000
0000
0000
0000
,
0000
0000
0000
0000
,
1001
0000
0000
0000
,
0000
0000
0000
0000
,
0010
0000
0000
0000
,
0000
0000
0000
0000
,
0100
0000
0000
0000
,
0000
0000
0000
0000
,
0010
0000
0000
0000
,
0000
0000
0000
0000
,
1001
0000
0000
0000
,
0000
0000
0000
0000
,
0001
0000
0000
0000
,
0000
0000
0000
0000
,
1001
0000
0000
0000
,
1000
0000
0000
0000
,
0001
0000
0000
0000
,
1000
0000
0000
0000
,
0010
0000
0100
0000
,
0010
0000
0100
0000
,
0001
0000
1000
0000
,
0001
0000
1000
0000
,
1001
0000
0000
0000
,
1001
0000
0000
0000
,
1001
0000
0000
0000
,
1001
0000
0000
0000
,
1000
0000
0001
0000
,
1000
0000
0001
0000
,
0100
0000
0010
0000
,
0110
0000
1001
0000
,
0000
0000
1000
0000
,
0000
0000
0001
0000
,
0000
0000
0010
0000
,
0000
0000
0100
0000
,
0000
0000
1000
0000
,
0000
0000
0001
0000
,
0000
0000
0100
0000
,
0100
0000
0010
0000
,
0000
0000
0010
0000
,
0000
0000
1000
0000
,
0000
0000
1000
0000
,
0000
0000
0001
0000
,
0000
0000
0001
0000
,
0000
0000
0010
0000
,
0000
0000
0100
0000
,
0000
0000
1001
0000
,
0000
0000
0001
0000
,
0000
0000
1000
0000
,
0000
0000
0001
0000
,
0000
0000
1001
0000
,
1000
0000
0001
0000
,
1000
0000
0010
0000
,
0100
0000
0110
1001
,
0000
0001
0000
1000
,
0000
0001
0000
0010
,
0000
0100
0000
0010
,
0000
0100
0000
1000
,
0000
0001
0000
1000
,
0000
0001
0000
0100
,
0000
0010
0000
0100
,
0000
0010
0000
0110
,
0000
0100
0000
0001
,
0000
1000
0000
0100
,
0000
0010
0000
0100
,
0000
1000
0000
0001
,
0000
0100
0000
0010
,
0000
1000
0000
0010
,
0000
0100
0000
0001
,
0000
1000
0000
1001
;

//--------------- dance-single - RaverAce ----------------
#NOTES:
     dance-single:
     RaverAce:
     Easy:
     8:
     0.326804,0.395119,0.298063,0.327869,0.018629,307,267,40,44,0,0,0.326804,0.395119,0.298063,0.327869,0.018629,307,267,40,44,0,0:
0000
0000
0000
0000
,
0000
0000
0000
0000
,
0000
0000
0000
0000
,
0000
0000
0000
0000
,
0000
0000
0000
0000
,
1000
0010
1000
0100
,
1000
0010
0100
0001
,
0010
0100
0010
0001
,
0100
0000
0000
0000
0010
0000
0000
0000
0100
0000
0000
0001
0000
0000
1000
0000
,
1001
0001
0010
1000
,
0010
0000
0000
0000
0001
0000
0000
0000
0200
0000
0000
0320
0000
0000
1030
0000
,
0001
0100
1000
0100
,
0001
0000
0000
0000
0010
0000
0100
0000
0020
0000
0000
0032
0000
0000
0103
0000
,
0001
1000
0010
0001
,
0010
0000
0000
0000
1000
0000
0000
0000
0200
0000
0000
0320
0000
0000
0031
0000
,
1000
0100
0001
0100
,
2002
0000
0000
3003
,
0011
0010
0100
1000
,
0100
0001
0100
1000
,
1010
0010
0100
0001
,
2002
0000
0000
3003
,
0120
0000
2030
0000
,
3002
0000
0023
0000
,
0230
0000
2300
0000
,
3002
0000
0200
0303
,
2010
0000
3200
0000
,
0320
0000
0230
0000
,
2300
0000
3002
0000
,
0203
0000
0020
0330
,
0102
0100
0100
0103
,
1020
1000
1000
1030
,
2100
0100
0100
3100
,
0021
0001
0001
0031
,
1001
1000
1010
0010
,
0110
0100
0101
0001
,
1001
1000
0100
0010
,
2002
3003
0110
0010
,
1000
0010
0100
0001
,
0100
0010
1000
0100
,
0001
0100
1000
0001
,
1000
0100
0110
0010
,
0001
0010
0100
1000
,
0100
0010
0001
0100
,
1000
0100
0101
0001
,
1001
1000
1010
0010
,
0100
0001
1000
0100
,
0001
0100
1000
0001
,
0100
0010
1000
0010
,
0100
0001
0011
0010
,
0100
1000
0001
0100
,
1000
0100
0001
1000
,
0100
0010
0012
2003
,
0020
3030
1001
0001
,
0100
1000
0100
0001
,
0010
0100
1001
1000
,
0100
0001
0100
1000
,
0010
0000
0100
0010
0110
0000
0010
0000
,
1010
1000
1001
0001
,
0011
0010
0110
0100
,
1000
0000
0001
0000
2002
3003
0210
0000
,
0010
0010
0320
1030
,
1000
1000
1000
0001
,
0001
0001
0001
0010
,
0010
0010
0010
0120
,
0100
0100
0230
1000
,
1000
1000
1300
0001
,
0001
0001
0001
1001
,
1001
1001
1001
1000
,
0010
0001
0010
1000
,
0001
0010
0100
1000
,
0001
0100
0010
1000
,
0010
0100
0100
0001
,
0010
1000
0010
0001
,
1000
0010
0100
0001
,
1000
0100
0010
0012
,
1000
0000
0000
0000
0203
0000
0000
0320
0000
0000
1030
0000
1001
0000
0000
0000
;

//--------------- dance-single - RaverAce ----------------
#NOTES:
     dance-single:
     RaverAce:
     Medium:
     12:
     0.483287,0.592679,0.305514,0.678092,0.253353,454,413,41,91,0,0,0.483287,0.592679,0.305514,0.678092,0.253353,454,413,41,91,0,0:
0000
0000
0000
0000
,
0000
0000
0000
0000
,
0000
0000
0000
0000
,
0000
0000
0000
0000
,
0000
0000
0000
0000
,
0001
0000
0000
0010
0000
0000
0100
0000
0010
0000
0000
0001
0000
0000
1000
0000
,
0010
0000
0000
0100
0000
0000
0010
0000
1000
0000
0000
0001
0000
0000
1000
0000
,
0100
0000
0000
0001
0000
0000
0100
0000
1000
0000
0000
0010
0000
0000
0100
0000
,
0010
0000
0000
1000
0000
0000
0001
0000
0020
0000
0000
0230
0000
0000
1300
0000
,
1001
0001
0100
0010
1000
0010
0100
0001
,
1000
0000
0100
0000
0010
0000
0001
0000
2000
0000
0000
3020
0000
0000
0130
0000
,
0110
0010
1000
0010
0100
0001
1000
0100
,
0001
0000
0100
0000
1000
0000
0100
0000
0020
0000
0000
0032
0000
0000
1003
0000
,
1010
0010
0100
0001
0100
0010
0100
0001
,
1000
0000
0100
0000
0010
0000
0001
0000
2000
0000
0000
3002
0000
0000
0013
0000
,
0011
0001
0010
0100
1000
0001
0100
0010
,
2002
0000
0000
3003
,
2100
0000
0000
0100
0000
0000
3200
0000
0000
0000
1300
0000
0100
0000
0001
0000
,
0100
0000
0000
1000
0000
0000
0010
0000
0100
0000
0010
0000
1000
0000
0001
0000
,
0102
0000
0000
0100
0000
0000
0203
0000
0000
0000
0301
0000
0010
0000
0100
0000
,
0010
0100
0010
0100
0010
0100
1000
0001
1000
0001
0100
0010
,
2002
0003
0200
3000
,
0320
0000
0032
0000
,
0203
0000
0320
0000
,
2030
0000
0002
3003
,
0012
0000
0203
0000
,
0320
0000
2000
0030
,
3200
0000
0320
0000
,
0002
0000
0033
0000
0011
0001
1000
0001
,
1002
0100
0100
0103
,
2001
0100
0100
3100
,
1002
0010
0010
0013
,
2001
0010
0010
3010
,
1010
0010
0110
0100
,
0101
0001
0011
0010
,
0100
0010
0100
0010
0001
0100
0010
1000
,
1002
0000
0000
0000
0000
0000
0103
0000
0020
0000
0000
2030
0000
0000
3001
0000
2001
0000
0000
0000
0000
0000
0000
0000
3001
0000
0000
0000
0010
0000
0000
0000
,
0200
0000
0000
0320
0000
0000
0031
0000
2000
0000
0000
0000
3001
0000
1000
0000
,
0010
0000
0000
1000
0000
0000
0010
0000
0200
0000
0000
0000
0301
0000
0020
0000
,
0000
0000
0230
0000
0000
0000
1300
0000
0001
0000
0000
0100
0000
0000
1000
0000
,
0100
0000
0000
0001
0000
0000
0010
0000
0002
0000
0000
0000
1003
0000
0010
0000
,
0200
0000
0000
0320
0000
0000
1030
0000
0002
0000
0000
0000
1003
0000
0001
0000
,
0010
0000
0000
0001
0000
0000
0010
0000
0200
0000
0000
0000
1300
0000
0020
0000
,
0000
0000
0230
0000
0000
0000
0301
0000
2001
0000
0000
3200
0000
0000
0301
0000
,
0200
0000
0000
1300
0000
0000
0010
0000
2010
0000
0000
0000
3001
0000
0020
0000
,
0000
0032
0000
0203
0000
2300
0000
3100
,
0002
0000
0000
2003
0000
0000
3100
0000
0010
0000
0200
0000
0000
0000
2300
0000
,
0000
3002
0000
0203
0000
2300
0000
3200
,
0000
0302
0000
0013
0110
0200
0000
2300
,
0000
3200
0000
0302
0000
0203
0000
1300
,
0020
0000
0000
2030
0000
0000
3001
0000
0010
0000
0200
0000
0000
0000
2300
0000
,
0000
0000
3020
0000
0000
0000
0031
0000
0020
0000
0000
0000
1030
0000
0001
1000
,
0002
0000
0000
0203
0000
0000
0310
0000
1010
0000
1000
0000
0002
0000
0000
0000
,
0013
0100
1000
0001
0100
0010
0110
0000
,
0100
0001
0001
0010
0011
0001
2000
0000
,
3010
0100
0001
1000
0100
0010
0110
0000
,
0100
1000
1000
0100
1100
0000
1000
0010
,
1010
0000
0010
0100
0110
0000
0100
0001
,
0101
0000
0001
0010
0011
0001
0010
1000
,
0010
0000
0001
0000
0100
0000
0010
0000
2002
0000
3003
0000
1010
0000
0000
0010
,
1000
0000
0000
1000
0001
0000
0000
0001
0010
0000
0000
0010
0100
0000
0000
0100
,
1000
0000
0000
1000
0001
0000
0000
0001
0100
0000
0000
0100
0010
0000
0000
0010
,
1000
0000
0000
1000
0010
0000
0000
0010
0100
0000
0000
0100
0001
0000
0000
0001
,
1000
0000
0000
1000
0100
0000
0000
0100
1000
0000
0001
0000
0011
0000
0000
0010
,
0001
0000
0000
0001
1000
0000
0000
1000
0010
0000
0000
0010
0100
0000
0000
0100
,
0001
0000
0000
0001
1000
0000
0000
1000
0100
0000
0000
0100
0010
0000
0000
0010
,
0001
0000
0000
0001
0010
0000
0000
0010
0100
0000
0000
0100
2000
0000
0000
3002
,
0000
0000
0103
0000
0020
0000
0000
2000
0030
0000
3001
0000
1001
0000
1000
0000
,
0001
0100
0010
0100
0001
0100
1000
0100
,
0001
0000
0010
0000
0100
0000
0000
0210
0000
0000
0310
0000
0001
0000
1000
0000
,
0010
0000
0100
0000
0010
0000
0001
0000
0010
0000
1000
0000
0002
0000
0000
0023
,
0000
0000
0130
0000
2000
0000
0000
3020
0000
0000
0130
0000
0110
0000
0010
0000
,
1000
0100
0010
0100
1000
0100
0001
0100
,
1000
0000
0010
0000
0100
0000
0000
0210
0000
0000
0310
0000
1000
0000
0001
0000
,
0010
0000
0100
0000
0010
0000
1000
0000
0010
0000
0001
1000
0020
0000
0000
0000
,
1030
0000
0010
0100
0002
0000
0000
0023
0000
0000
0031
0000
1001
0000
0000
0000
;

//--------------- dance-single - RaverAce ----------------
#NOTES:
     dance-single:
     RaverAce:
     Hard:
     15:
     0.739834,0.846684,0.424739,0.678092,0.838301,695,638,57,91,0,0,0.739834,0.846684,0.424739,0.678092,0.838301,695,638,57,91,0,0:
0000
0000
0000
0000
,
0000
0000
0000
0000
,
0000
0000
0000
0000
,
0000
0000
0000
0000
,
0000
0000
0000
0000
,
1000
0000
0010
1000
0000
0010
0100
0000
0010
0000
0100
0001
0000
1000
0001
0000
,
1000
0000
0100
0010
0000
0100
1000
0000
0001
0000
0100
0010
0000
0010
1000
0000
,
0001
0000
0010
0001
0000
0010
0100
0000
0010
0000
0100
1000
0000
0001
1000
0000
,
1001
0000
0001
0100
0000
0100
0001
0000
1000
0000
0000
1200
0000
0000
0310
0000
,
0110
0000
0100
1000
0000
0001
0100
0000
0010
0000
1000
0010
0000
0100
0001
0000
,
0010
0000
0100
1000
0000
0001
0100
0000
0010
0000
0000
1020
0000
0000
1030
0000
,
0001
0000
0010
0001
0000
0010
0100
0000
1000
0000
0001
0100
0000
0010
1000
0000
,
0001
0000
0010
0100
0000
0100
1000
0000
0001
0000
0000
2001
0000
0000
3010
0000
,
0110
0000
0100
0001
0000
1000
0100
0000
0010
0000
0001
0010
0000
0100
1000
0000
,
0010
0000
0100
0001
0000
1000
0100
0000
0010
0000
0000
0021
0000
0000
0031
0000
,
1000
0000
0100
0001
0000
0100
1000
0000
0001
0000
0100
1000
0000
0100
0001
0000
,
2002
0000
0000
3003
,
0101
0000
0001
1000
0000
1000
0020
0000
0000
1030
0010
0100
0001
0000
0010
0000
,
0110
0000
0100
1000
0001
0000
0100
0000
0010
1000
0001
0010
0100
0000
1000
0100
,
0010
0000
0100
1000
0000
1000
0002
0000
0000
0103
0010
1000
0001
0000
1000
0000
,
1001
0001
0100
0010
1000
0010
0100
0001
1000
0100
0010
0001
,
1001
0000
1000
0002
0000
0023
0000
2030
0000
0000
0000
0000
0000
0000
0000
0000
,
3010
0000
0001
2000
0000
3020
0000
0032
0000
0000
0000
0000
0000
0000
0000
0000
,
0013
0000
0000
0000
0000
0000
0000
0000
0000
0000
0000
0000
1000
0000
0000
0000
0000
0000
0002
0000
0000
0000
0000
0000
0000
0000
0000
0000
0000
0000
0203
0000
0000
0000
0000
0000
0000
0000
0000
0000
0000
0000
2300
0000
0000
0000
0000
0000
0000
0000
0000
0000
0000
0000
0000
0000
0000
0000
0000
0000
0000
0000
0000
0200
3000
0000
0000
0000
0000
0000
0000
0000
0000
0000
0000
0000
0000
0000
0000
0000
0000
0000
0000
0000
0301
0000
0000
0000
0000
0000
1000
0000
0000
0000
0000
0000
,
0100
0000
0002
0000
0000
0000
0203
0000
0000
0000
2300
0000
0000
0000
3001
0000
0200
0000
0000
0320
0000
0000
1030
0000
0200
0000
0000
0320
0000
0000
0031
0000
,
0101
0200
0000
0302
0000
2003
0000
3100
0001
0200
0000
2300
0000
0000
3020
0000
,
0130
0200
0000
0302
0000
0023
0000
2030
0000
3020
0000
0032
0000
0203
0000
0310
,
1000
0002
0000
0203
0000
2300
0000
3200
0000
0302
0000
2003
0000
3010
0100
0001
,
0010
0020
0000
0032
0000
1003
0010
1000
1002
0000
0203
0000
0301
2000
0000
3100
,
1200
0000
0000
0000
1000
0000
0000
0000
1300
0000
0000
2001
0000
0000
3001
0000
,
0012
0000
0000
0000
0010
0000
0000
0000
0013
0000
0000
1002
0000
0000
0103
0000
,
0201
0000
0000
0000
0001
0000
0000
0000
0301
0000
0000
1002
0000
0000
1003
0000
,
2010
0000
0000
0000
0010
0000
0000
0000
3010
0000
1000
0001
0000
1000
0100
0000
,
0110
0010
0001
0100
0110
0010
1000
0001
,
0011
0010
0100
1000
1010
0010
0100
0001
,
0010
0100
0010
0100
1000
0100
1000
0100
0010
0001
1000
0010
0100
0001
0010
0100
,
0020
0000
0000
0000
0000
0000
0031
0000
0200
0000
0000
0302
0000
0000
1003
0000
2010
0000
0000
0000
0000
0000
0000
0000
3001
0000
0000
0000
1000
0000
0010
0000
,
0200
0000
0000
0302
0000
0000
1003
0100
0020
0000
0000
0000
0130
0000
1000
0000
,
0002
0000
0000
2003
0000
0000
3100
0000
1100
0000
1000
0000
0001
0000
0100
0000
,
2000
0000
0000
3200
0000
0000
0301
0000
0010
0000
0001
0010
0000
0100
1000
0000
,
0010
0000
0000
0210
0000
0000
0301
0000
0011
0000
0000
0000
0010
0000
0001
0010
,
0200
0000
0000
2300
0000
0000
3001
0100
0020
0000
0000
0000
0130
0000
0001
0000
,
2000
0000
0000
3002
0000
0000
0103
0000
0101
0000
0001
0000
1000
0000
0100
0000
,
0002
0000
0000
0203
0000
0000
1300
0000
1010
0000
0010
0100
0000
0100
0001
0000
,
0011
0000
0010
0100
0000
0100
1000
0000
1001
0000
0001
0000
0100
0000
0010
0000
,
1000
0010
0001
0010
0100
0010
1000
0010
,
0200
0000
0000
0302
0000
0000
1003
0000
0100
0000
0001
0000
0100
0000
1000
0000
,
0001
1000
0100
0110
0000
0011
0000
2100
,
0000
3020
0000
0130
0001
1000
0100
0010
,
0001
0010
1000
0010
0100
0010
0001
0010
,
0200
0000
0000
2300
0000
0000
3001
0000
0100
0000
1000
0000
0100
0000
0001
0000
,
0010
0000
0100
0000
1000
0000
0001
0000
0012
0000
0000
0000
0103
0000
0001
1000
,
0200
0000
0000
0320
0000
0000
0031
0000
1001
0000
1000
0000
0001
0100
0010
1000
,
0000
0000
1020
0000
0000
0000
1030
0000
0001
0000
0010
0000
0100
1000
0001
0100
,
0000
0000
0110
0000
0010
0000
1000
0000
1001
0000
0001
0000
1000
0100
0010
0001
,
0000
0000
0021
0000
0000
0000
0031
0000
1000
0000
0010
0000
0100
0001
1000
0100
,
0000
0000
0110
0000
0010
0000
0001
0000
1001
0000
1000
0010
0000
0010
0100
0000
,
0110
0000
0010
1000
0000
0001
0100
0000
0101
0000
0001
0010
0000
0100
1000
0000
,
1100
0000
0100
0010
0000
0010
0001
0000
1000
0010
1000
0010
0100
0001
0100
0001
,
1000
0010
0100
0001
0010
0100
1000
0001
0100
0000
0000
0000
1001
0000
0001
0010
,
0001
0000
1000
0010
1000
0000
0001
0010
0001
0000
1000
0100
1000
0000
0001
0100
,
0001
0000
1000
0100
1000
0000
0001
0100
0001
0000
1000
0100
0010
0000
0001
0010
,
0100
0000
1000
0010
0100
0000
0001
1000
0010
0000
1000
0001
0010
0000
0001
0100
,
0000
0100
0010
0000
1000
0000
0010
0100
0000
0001
0010
0000
0001
0000
1000
0010
,
1000
0000
0001
0010
0001
0000
1000
0010
1000
0000
0001
0100
0001
0000
1000
0100
,
1000
0000
0001
0100
0001
0000
1000
0100
1000
0000
0001
0100
0010
0000
1000
0010
,
0100
0000
0001
0010
0100
0000
1000
0001
0010
0000
0001
0000
0101
0000
0100
0010
,
0000
0010
1000
0000
1100
0000
0100
0010
0000
0010
0001
0000
0101
0000
0100
0000
,
1000
0000
0100
0001
1000
0000
0001
1000
0100
0000
0010
0001
1000
0000
0010
1000
,
0001
0000
0100
0010
1000
0000
0010
0100
0000
0001
0100
0000
0010
0000
1010
0000
,
1000
0000
0001
1000
0100
0000
1000
0001
0100
0000
0010
0100
0001
0000
1000
0100
,
0000
0010
0001
0000
1000
0000
0001
0100
0000
0010
1000
0000
1100
0000
0100
0000
,
0001
0000
0100
1000
0001
0000
1000
0001
0100
0000
0010
1000
0001
0000
0010
0001
,
1000
0000
0100
0010
0001
0000
0010
0100
0000
1000
0100
0000
0010
0000
0011
0000
,
0001
0000
1000
0010
0100
0000
0001
0010
0100
0000
1000
0001
0200
0000
0000
0000
,
0310
0000
1000
0001
0020
0000
0000
0032
0000
0000
1003
0000
1001
0000
0000
0000
;
