#VERSION:0.83;
#TITLE:Random Scaternal Melmordy;
#SUBTITLE:;
#ARTIST:Karl with a K;
#TITLETRANSLIT:;
#SUBTITLETRANSLIT:;
#ARTISTTRANSLIT:;
#GENRE:;
#ORIGIN:;
#CREDIT:;
#BANNER:Random Scaternal Melmordy banner.png;
#BACKGROUND:Random Scaternal Melmordy bg.png;
#PREVIEWVID:;
#JACKET:;
#CDIMAGE:;
#DISCIMAGE:;
#LYRICSPATH:;
#CDTITLE:;
#MUSIC:Random Scaternal Melmordy.ogg;
#OFFSET:0.000000;
#SAMPLESTART:21.787998;
#SAMPLELENGTH:11.000000;
#SELECTABLE:YES;
#BPMS:0.000=150.000;
#STOPS:;
#DELAYS:;
#WARPS:;
#TIMESIGNATURES:0.000=4=4;
#TICKCOUNTS:0.000=4;
#COMBOS:0.000=1;
#SPEEDS:0.000=1.000=0.000=0;
#SCROLLS:0.000=1.000;
#FAKES:;
#LABELS:0.000=Song Start;
#BGCHANGES:;
#KEYSOUNDS:;
#ATTACKS:
;

//---------------dance-single - ----------------
#NOTEDATA:;
#CHARTNAME:;
#STEPSTYPE:dance-single;
#DESCRIPTION:;
#CHARTSTYLE:;
#DIFFICULTY:Challenge;
#METER:18;
#RADARVALUES:0.886225,1.039062,0.552424,0.373260,1.395991,831.000000,757.000000,74.000000,50.000000,0.000000,0.000000,0.000000,0.000000,0.000000,0.886225,1.039062,0.552424,0.373260,1.395991,831.000000,757.000000,74.000000,50.000000,0.000000,0.000000,0.000000,0.000000,0.000000;
#CREDIT:;
#NOTES:
0000
0000
0000
0000
,
0000
0000
0000
0000
,
0000
0000
0000
0000
,
0000
0000
0000
0000
,
0000
0000
0000
0000
,
0000
0000
0000
0000
,
0000
0000
0000
1001
,
0000
0000
0011
0000
0000
1100
0000
0000
,
0000
0000
1001
0000
0000
1010
0000
0000
,
0011
0000
0000
0101
0000
0000
1100
0000
,
0000
0000
1001
0000
0000
0000
1000
0010
1000
0010
1000
0000
0000
0001
0000
0000
,
0101
0000
0000
0001
0000
0000
1000
0000
0000
0000
1001
0000
0000
1000
0000
0000
,
1100
0000
0000
0100
0000
0000
0110
0000
0000
0010
0000
0000
0011
0000
0000
0001
,
0000
0000
0101
0000
0000
0000
0110
0000
0000
0000
1001
0000
0000
0000
1000
0010
,
0100
0001
2000
0000
0000
3001
0010
0000
0210
0000
0000
1300
0001
0000
1001
0000
,
0000
0000
1002
0000
0000
0103
0000
0000
1002
0000
0000
0013
0000
0000
2001
0000
,
0000
3100
0000
0000
1002
0000
0000
0103
0000
0000
2100
0000
0000
3002
0000
0003
,
1001
0000
0000
0000
0001
0010
0100
1000
0002
0000
0000
1003
0100
0000
1200
0000
,
0300
1000
0001
0000
1001
0000
0000
0000
2001
0000
3001
0100
0000
0000
2001
0000
,
3001
0010
0000
0000
1002
0000
1003
0100
0000
0000
1200
0000
1300
0001
0000
0000
,
0101
0000
0000
0120
0000
0000
0000
0000
1030
0000
0000
0010
0000
0000
0001
0000
,
0010
0000
0000
1000
0000
0001
0000
0000
0010
0000
0000
0001
0000
0100
0000
1000
,
0000
0100
0000
0000
1000
0000
0000
0100
0000
0000
0001
0000
0010
0000
1000
0000
,
0001
0000
0100
0000
0000
1000
0000
0000
0001
0000
0000
0100
0000
0001
0000
1000
,
0000
0001
0000
0002
0000
0000
2003
0000
0000
3002
0000
2003
0000
3200
0000
2300
,
0000
3002
0000
0000
0203
0000
0000
0302
0000
0000
2003
0000
3020
0000
0230
0000
,
0302
0000
0000
1003
0010
1000
0001
0010
0001
0100
0001
1000
0010
0100
0001
1000
,
0001
0000
0000
0100
0000
0000
0001
0000
0000
1000
0000
0000
0100
0000
0000
1000
0000
0000
0001
0000
0000
0010
0000
0000
1000
0000
0000
0010
0000
0000
0001
0000
0000
0000
0000
0000
1000
0000
0010
0000
1000
0000
0010
0000
0000
1000
0000
0000
,
0000
0000
1000
0000
0100
0000
0000
0000
0010
0000
0000
0000
0010
0000
0000
0000
2002
0000
0000
0000
0000
0000
0000
0000
3003
0000
0000
0000
0000
0000
0000
1000
,
0002
0013
0100
2000
0000
3001
1000
0100
,
1000
0001
1000
0001
0020
0000
0000
0031
0100
0000
0020
0000
0130
0001
0000
0000
,
2000
0000
0001
0000
0000
0000
3000
0000
0011
0000
0001
1000
0100
1000
0010
1000
,
0001
0010
1000
0010
0001
0100
1000
0100
0001
0100
0010
1000
0010
0000
0100
0000
,
0001
0010
0001
0000
1000
0000
0000
0000
0011
0000
0000
0000
1010
0000
0010
1000
,
0001
0000
0011
0000
0001
0010
0000
0000
1001
0000
0000
0000
0001
0010
1000
0010
,
0001
0100
1000
0100
0010
1000
0100
1000
1002
0000
0000
0000
0000
0000
0003
0000
,
0101
0000
0000
0000
2000
0000
0100
0000
0000
0000
3001
0000
1000
0001
0000
0000
,
1000
0020
1000
0000
0000
0000
0100
0030
,
0010
0000
0001
0000
0000
0000
0020
0000
1030
0010
1000
0000
0001
1000
0001
1000
,
0010
0000
1000
0001
1000
0000
0011
0000
0001
1000
0001
0000
0101
0000
0000
0100
,
0001
0000
0100
0000
1000
0000
1000
0100
0010
1000
0100
0000
1100
0000
1000
0100
,
1000
0000
0101
0000
0001
0100
0001
0000
0001
1000
0001
1000
0001
0010
0001
0010
,
0001
0100
0010
1000
0001
0010
0100
0000
0010
0001
0100
0001
0010
0000
0010
1000
,
0100
1000
0010
0000
1000
0100
1000
0001
0100
0001
1000
0000
1000
0100
0000
0001
,
0000
0001
0100
0000
1000
0000
1000
0010
0000
0001
0000
0001
0010
0000
0010
0000
,
0010
1000
0000
0100
0000
0100
1000
0000
0010
0000
0010
0001
0000
0100
0000
0100
,
0001
0000
0001
1000
0001
1000
0001
0000
0001
0010
0000
0010
0000
0010
1000
0000
,
0001
0000
0001
0100
0000
0100
0000
0100
1000
0000
0010
0000
0010
0001
0000
1000
,
0000
1000
0100
0000
1000
0000
1000
0010
0000
0100
0000
0100
0001
0000
0010
0100
,
0010
0100
1000
0100
0001
0100
0000
0001
0100
1000
0100
0000
1000
0010
0001
0010
,
1000
0100
0010
0001
0100
0001
0010
0000
0010
1000
0100
1000
0000
0001
0010
0001
,
0100
0000
0000
0010
0000
0000
1000
0000
0000
0000
0000
0000
0001
0000
0000
0010
0000
0000
0001
0000
0000
0100
0000
0000
0000
0000
0000
0010
0000
0000
1000
0000
0000
0100
0000
0000
1000
0000
0000
0010
0000
0000
0100
0000
0001
0000
0100
0000
,
0001
0100
0001
1000
0100
1000
0010
1000
0010
0001
0010
1000
,
0001
0010
0100
0001
0100
1000
0010
1000
0010
0100
0001
0100
,
1000
0100
0001
0010
0100
0010
1000
0010
0100
1000
0001
0010
,
0100
1000
0010
0001
0010
0100
0001
1000
0100
0001
0100
0001
,
0100
1000
0010
1000
0100
0001
0100
1000
0010
0001
0010
0100
,
1000
0100
0010
1000
0010
0100
0001
0010
0100
0001
0100
0010
,
0001
0100
0010
0001
0010
1000
0100
1000
0001
0100
0001
0100
,
1000
0100
0010
1000
0100
0010
1000
0010
0001
0100
0010
1000
,
0100
0000
1000
0000
0010
0000
0001
0000
0010
0000
0100
0000
0001
0000
0010
0000
0100
0000
0001
0000
0100
0010
0100
0010
,
0100
0000
0010
0000
0100
0000
0000
0000
0010
0000
0000
0000
0100
0000
1000
0000
0100
0000
0000
0000
1000
0000
0000
0000
0001
0000
0100
0000
0001
0000
0100
0000
0001
0000
0100
0000
0010
0000
0000
1000
0000
0000
0001
0000
0000
0100
0000
0000
,
0002
0000
0000
0000
1003
0100
0010
0001
2000
0000
0000
3001
0010
0000
1200
0000
,
1300
0001
0000
0000
0110
0000
0000
0000
1002
0000
1003
0010
0000
0000
2001
0000
,
3001
0100
0000
0000
0210
0000
0310
1000
0000
0000
1002
0000
1003
0100
0000
0000
,
0120
0000
0130
1000
0000
0000
1001
0000
0000
0000
1000
0010
0100
0001
2000
0000
,
3010
1000
0001
0000
0012
0000
0013
0100
0000
0000
0110
0000
0000
0000
2001
0000
,
0000
3010
0000
0000
1000
0100
1000
0001
0100
0001
1000
0010
1000
0001
0010
0001
,
1000
0000
0000
0100
0000
0000
0001
0000
0000
0100
0000
0000
1000
0000
0000
0010
0000
0000
1000
0000
0010
0000
1000
0000
0001
0000
0100
0000
0001
0000
0010
0000
0000
0001
0000
0000
0010
0000
0000
0001
0000
0000
0000
0000
0000
0000
0000
0000
,
0000
1000
0010
1000
0010
0100
0001
0100
0001
0010
0001
0010
0001
1000
0100
1000
,
0100
1000
0100
1000
0100
1000
0010
1000
0010
1000
0010
0100
0001
0100
0001
0100
,
0001
1000
0001
1000
0001
1000
0001
0010
0100
0010
0100
0010
0100
1000
0001
1000
,
0001
1000
0001
1000
0000
0011
0000
0011
0000
0011
0000
1010
0000
1010
0000
1010
,
0000
0000
0000
0110
0000
0000
0000
0000
0000
0100
0000
0010
0000
0100
0000
0010
0000
0100
0000
0010
0000
1000
0000
0000
0100
0000
0000
1000
0000
0000
0100
0000
0000
0000
0000
0000
0001
0000
0000
0100
0000
0000
0001
0000
0000
0100
0000
0000
,
0000
1000
0010
1000
0010
0000
0001
0010
0001
0010
1000
0010
1000
0100
1000
0100
,
0000
0001
0100
0001
0100
0000
1000
0010
1000
0010
0000
0001
0010
0001
0010
0000
,
1000
0010
1000
0010
0000
0001
0010
0001
0010
1000
0010
1000
0001
0100
0001
0100
,
0000
1000
0100
1000
0100
0001
0100
0001
0100
0001
0100
0000
0010
1000
0010
0001
,
0000
0001
0100
0001
0100
0000
0010
1000
0010
1000
0001
0100
0001
1000
0000
0001
,
0010
0001
0000
0011
0000
0110
0000
1100
0000
1001
0000
1000
0010
1000
0000
1010
,
0000
0110
0000
0101
0000
0110
0000
0010
1000
0010
0000
1010
0000
1000
0000
1100
,
0000
0110
0000
0010
0001
0010
0000
0010
0001
0100
0010
1000
0100
1000
0010
0000
;

//---------------dance-single - ----------------
#NOTEDATA:;
#CHARTNAME:;
#STEPSTYPE:dance-single;
#DESCRIPTION:;
#CHARTSTYLE:;
#DIFFICULTY:Hard;
#METER:15;
#RADARVALUES:0.599348,0.855698,0.343399,0.343399,0.880893,562.000000,516.000000,46.000000,46.000000,0.000000,0.000000,0.000000,0.000000,0.000000,0.599348,0.855698,0.343399,0.343399,0.880893,562.000000,516.000000,46.000000,46.000000,0.000000,0.000000,0.000000,0.000000,0.000000;
#CREDIT:;
#NOTES:
0000
0000
0000
0000
,
0000
0000
0000
0000
,
0000
0000
0000
0000
,
0000
0000
0000
0000
,
0000
0000
0000
0000
,
0000
0000
0000
0000
,
0000
0000
0000
1001
,
0000
0000
0100
0000
0000
0011
0000
0000
,
0000
0000
1000
0000
0000
1010
0000
0000
,
0100
0000
0000
0101
0000
0000
1001
0000
,
0000
0000
1001
0000
0000
0000
0100
0000
0000
0000
0010
0000
0000
0001
0000
0000
,
1000
0000
0000
0001
0000
0000
1000
0000
0000
0000
0001
0000
0000
1000
0000
0000
,
0001
0000
0000
0010
0000
0000
0100
0000
0000
1000
0000
0000
0001
0000
0000
0100
,
0000
0000
0101
0000
0000
0000
0110
0000
0000
0000
1001
0000
0000
0000
1000
0010
,
1000
0010
2000
0000
0000
3001
0000
0000
0200
0000
0000
0301
0000
0000
1000
0000
,
0000
0000
0002
0000
0000
1003
0000
0000
0002
0000
0000
0013
0000
0000
0002
0000
,
0000
0103
0000
0000
0020
0000
0000
0130
0000
0000
0020
0000
0000
1030
0000
0000
,
1001
0000
0000
0000
0001
0010
0001
0010
0002
0000
0000
1003
0000
0000
0200
0000
,
0000
1300
0000
0000
0100
0000
0000
0000
2000
0000
0000
3001
0000
0000
0200
0000
,
0000
0310
0000
0000
2000
0000
0000
3100
0000
0000
2000
0000
0000
3001
0000
0000
,
0100
0000
0000
0110
0000
0000
0000
0000
2002
0000
0000
0000
0000
0000
0000
0000
,
0000
0000
0000
0000
,
0000
0000
0000
0000
,
0000
0000
0000
0000
,
3003
0000
0000
1000
0000
0000
0100
0000
0000
1000
0000
0100
0000
1000
0000
0001
,
0000
0100
0000
0000
0001
0000
0000
0100
0000
0000
0001
0000
0100
0000
0010
0000
,
1000
0000
0000
0100
0000
0000
1000
0000
0000
0001
0000
0100
0000
0001
0000
0000
,
0010
0001
0000
0010
1000
0000
0010
0000
0100
0000
1000
0000
2000
0000
3001
1000
,
0000
1000
0100
0000
0010
0000
0010
0000
0110
0000
0000
0000
0000
0000
0000
0000
,
0010
0001
1000
0200
0000
1300
0001
0100
,
0001
0100
0001
0000
2000
0000
0000
3100
0000
0000
0020
0000
0000
0031
0000
0000
,
2000
0000
0000
0000
0000
0000
3000
0000
0001
0000
1000
0001
0100
0001
0100
0000
,
0001
0010
0000
1000
0010
0000
0001
0010
0000
1000
0010
0000
0110
0000
0000
0001
,
1000
0001
0000
0000
0101
0000
0000
0000
1001
0000
0000
0000
0001
0100
0000
1000
,
0100
0000
0001
0100
0000
1000
0100
0000
0020
0000
0000
0000
1000
0000
0000
0000
,
1000
0130
2002
0000
,
3003
0000
0000
0000
0002
0000
0000
0000
0000
0000
1003
0000
0000
0010
0000
0000
,
1000
0002
1000
0000
0000
0000
1003
0000
,
1000
0000
0100
0000
0000
0000
0010
0000
0000
0001
0000
0000
0001
0000
1000
0000
,
1010
0000
0000
1001
0000
0000
1010
0000
0000
1001
0000
0000
0101
0000
0000
0001
,
1000
0000
0100
0000
1000
0000
0001
0000
0010
0000
0001
0000
0101
0000
0000
1100
,
0000
0000
0101
0000
1000
0100
0000
0000
1001
0000
0000
0000
0110
0000
0000
0000
,
1000
0010
1000
0000
0001
0010
0001
0000
0010
0001
0010
0001
0010
0000
0001
1000
,
0001
1000
0001
0000
1000
0100
1000
0100
1000
0001
1000
0000
0100
0000
0000
0010
,
0000
0001
0000
0000
0001
0000
0100
0000
0000
0010
0000
1000
0000
0000
1000
0000
,
0100
0000
0000
0001
0000
0100
0000
0000
1000
0000
0001
0000
0000
0010
0000
1000
,
0000
0000
0010
0000
0001
0000
1000
0000
0010
0000
0000
0100
0000
0001
0000
0000
,
0001
0000
0010
0000
0000
0100
0000
1000
0000
0000
1000
0000
0010
0000
0000
0001
,
0000
0010
0000
0000
0100
0000
0001
0000
0000
1000
0000
0010
0000
0000
1000
0000
,
0001
0000
0010
0001
0010
0000
0000
0001
1000
0001
0000
0000
0010
0001
1000
0001
,
0100
0000
0010
1000
0010
0000
0000
1000
0001
1000
0000
0000
1000
0010
1000
0001
,
1000
0100
0000
0000
0010
0001
1000
0000
0000
0010
1000
0001
0100
0001
1000
0000
,
1001
0000
0001
0010
0001
1000
0100
0000
0000
0120
0000
0000
,
0031
0000
0000
1001
0000
1000
0010
1000
0001
0100
0000
0000
,
0210
0000
0000
0302
0000
0000
1003
0100
0010
0001
0010
0100
,
1000
0000
0000
1020
0000
0000
0130
0000
0000
1000
0100
0001
,
0100
1000
0001
0100
0001
1000
0010
0001
0010
1000
0001
1000
,
1001
0000
0001
0100
1000
0100
0001
0000
0000
0210
0000
0000
,
0301
0000
0000
1001
0000
1000
0100
0001
0100
0020
0000
0000
,
0032
0000
0000
0203
0000
0000
0301
0100
0001
0010
1000
0010
,
0001
0000
0000
0021
0000
0000
0130
0000
0000
1000
0010
0001
,
0010
0000
0000
0000
1000
0000
0000
0000
0001
0000
0000
0000
1000
0000
0000
0000
0000
0000
0000
0000
0000
0000
0000
0000
0110
0000
0000
0000
0000
0000
0000
0000
0000
0000
0000
0000
0001
0000
0000
0010
0000
0000
0001
0000
0000
0010
0000
0000
,
0002
0000
0000
0000
1003
0100
1000
0100
2000
0000
0000
3001
0100
0000
0002
0000
,
0000
0023
0000
0000
0130
0000
0000
0000
0200
0000
1300
0001
0000
0000
2000
0000
,
0000
3010
0000
0000
2000
0000
3001
0100
0000
0000
0020
0000
0000
0130
0000
0000
,
0101
0000
0000
1010
0000
0000
1001
0000
0000
0000
0001
0100
0001
0100
0002
0000
,
0000
1003
0001
0000
0200
0000
0301
0010
0000
0000
0100
0000
0000
0000
1100
0000
,
0000
1000
0000
0000
1000
0100
0000
0100
0001
0000
0001
0100
0000
0100
1000
0000
,
1000
0100
1000
0001
0010
0001
1000
0100
0010
0001
0100
0010
1000
0001
0000
0001
,
1000
0001
0000
1000
0010
1000
0000
0001
0100
0001
0000
1000
0100
1000
0000
0001
,
0010
0001
0000
1000
0001
1000
0000
0010
1000
0010
1000
0010
0000
0100
0010
0100
,
0000
0001
0100
0001
0000
1000
0100
1000
0000
0100
0010
0100
0000
0010
0001
0010
,
0001
0010
0000
0011
0000
0001
0000
0001
0000
0001
0000
1000
0000
1000
0000
1000
,
0000
1000
0000
0020
0000
0230
0000
0301
0000
0001
0000
0000
1000
0000
1000
0000
,
0000
0010
0000
0010
0000
0000
0100
0000
0000
0100
0000
0000
0001
0000
1000
0000
,
0000
1000
0000
0001
0000
0000
0010
0000
0100
0000
0000
0100
0000
0010
0000
0000
,
1000
0000
0010
0000
0000
0001
0000
0010
0000
0100
0000
0000
1000
0000
0010
0000
,
0000
0001
0000
0000
0010
0000
0000
1000
0000
0100
0000
0000
0001
0000
0100
0000
,
0000
1000
0000
0010
0000
0000
0001
0000
0010
0000
1000
0000
0000
1001
0000
0001
,
0100
0000
0000
0010
0000
0100
0000
0001
0000
1001
0000
1000
0100
0000
0000
0010
,
0000
0100
0000
1000
0000
1001
0000
0001
0010
0000
0000
0100
0000
1000
0000
0001
,
0000
1001
0000
1000
0010
0000
0000
0100
0000
0001
0000
0010
0100
0010
0100
0000
;

//---------------dance-single - ----------------
#NOTEDATA:;
#CHARTNAME:;
#STEPSTYPE:dance-single;
#DESCRIPTION:;
#CHARTSTYLE:;
#DIFFICULTY:Medium;
#METER:12;
#RADARVALUES:0.425516,0.611213,0.418051,0.343399,0.503901,399.000000,343.000000,56.000000,46.000000,0.000000,0.000000,0.000000,0.000000,0.000000,0.425516,0.611213,0.418051,0.343399,0.503901,399.000000,343.000000,56.000000,46.000000,0.000000,0.000000,0.000000,0.000000,0.000000;
#CREDIT:;
#NOTES:
0000
0000
0000
0000
,
0000
0000
0000
0000
,
0000
0000
0000
0000
,
0000
0000
0000
0000
,
0000
0000
0000
0000
,
0000
0000
0000
0000
,
0000
0000
0000
1000
,
0000
0000
0100
0000
0000
0010
0000
0000
,
0000
0000
0001
0000
0000
0100
0000
0000
,
0010
0000
0000
1000
0000
0000
0002
0000
,
0000
1003
0000
0000
0000
0110
0000
0000
,
0011
0000
0000
0000
0000
1001
0000
0000
,
0101
0000
0000
0110
0000
0000
1010
0000
,
0000
1001
0000
0110
0000
1001
0000
1000
,
0100
0000
0010
0000
0000
0001
0000
0000
0100
0000
0000
0010
0000
0000
1000
0000
,
0000
0000
0100
0000
0000
1000
0000
0000
0100
0000
0000
0010
0000
0000
0001
0000
,
0000
1000
0000
0000
0001
0000
0000
0100
0000
0000
2000
0000
0000
3200
0000
0000
,
0301
0000
0000
0000
1000
0000
0010
0000
0100
0000
0000
0001
0000
0000
0010
0000
,
0000
0100
0000
0000
1000
0000
0000
0000
0001
0000
0000
1000
0000
0000
0001
0000
,
0000
0010
0000
0000
0001
0000
0000
1000
0000
0000
0010
0000
0000
1000
0000
0000
,
0100
0000
0000
0020
0000
0000
0000
0000
0000
0000
0000
0000
0000
0000
0000
0000
,
0000
0000
0000
0000
,
0000
0000
0000
0000
,
0000
0000
0000
0000
,
0000
0000
0000
0032
0000
0000
0000
0000
0000
0000
0000
0000
0000
0000
0000
0000
,
0000
2000
0000
0000
,
3003
0000
0000
1000
0000
0000
0010
0000
0000
0100
0000
0010
0000
0100
0000
0000
,
0010
0000
0000
0100
0000
0000
0010
0000
0100
0000
0010
0000
0200
0000
0310
0000
,
0000
0010
0100
0000
0001
0000
1000
0000
1001
0000
0000
0000
0000
0000
0000
0000
,
0010
0100
1000
0002
0000
1003
0001
0100
,
0001
0000
1000
0000
0001
0000
0000
0100
0000
0000
0010
0000
0000
1000
0000
0000
,
0002
0000
1003
0100
,
1000
0000
0000
0100
0000
0000
0010
0000
0000
0001
0000
0000
0200
0000
0000
0000
,
0001
0000
0000
0000
0301
0000
0000
0000
0011
0000
0000
0000
1000
0000
0000
0010
,
0000
0000
0100
0000
0000
0001
0000
0000
0020
0000
0000
0000
0100
0000
0000
0000
,
0130
1100
2002
0000
,
3003
0000
0000
0000
2000
0000
0000
0000
0000
0000
0001
0000
0000
3001
0000
0000
,
0100
0020
0000
0000
0000
0000
0130
0000
,
0010
0000
0100
0000
0000
0000
0010
0000
0000
1000
0000
0000
1000
0000
0100
0000
,
1000
0000
0000
0001
0000
0000
0010
0000
0000
0001
0000
0000
0200
0000
0000
0300
,
0000
0000
0001
0000
0010
0000
0100
0000
0010
0000
0001
0000
1000
0000
0000
0100
,
0000
0000
1000
0000
0000
0010
0000
0000
0200
0000
0000
0000
0300
0000
0000
0000
,
0001
1000
0001
0100
0010
1000
0010
1000
,
0001
0000
1000
0000
0001
0000
0100
0000
0001
0000
2000
0000
0000
0000
0000
0100
,
0000
0000
0000
0000
0100
0000
0000
0000
0000
0100
0000
0000
0000
0000
0100
0000
,
0000
0000
0000
0100
0000
0000
0000
0000
3001
0000
1000
0000
0000
0010
0000
1000
,
0000
0000
0001
0000
1000
0000
0002
0000
0000
0000
0000
0100
0000
0000
0000
0000
,
0100
0000
0000
0000
0000
0100
0000
0000
0000
0000
0100
0000
0000
0000
0000
0100
,
0000
0000
0000
0000
0103
0000
0001
0000
0000
1000
0000
0010
0000
0000
1000
0000
,
0100
0000
0010
0000
0001
0000
0000
1000
0000
0100
0000
0000
0010
0000
0001
0000
,
0100
0000
0010
0000
1000
0000
0000
0001
0000
1000
0000
0000
0000
0001
0000
1000
,
0000
0100
0000
0000
1000
0000
0001
0000
0000
1000
0000
0001
0000
0100
0000
0000
,
0200
0000
0000
0001
0000
0001
0000
0000
0000
0302
0000
0000
,
1000
0000
0000
1000
0000
0000
2003
0000
0100
0000
0000
0000
,
0010
0000
0000
3020
0000
0000
1000
0000
0000
1000
0000
1030
,
0002
0000
0000
0010
0000
0000
0100
0000
0000
0013
0000
0010
,
0000
0001
1000
0001
0000
0010
0000
0010
0000
0001
1000
0010
,
0100
0000
0000
0002
0000
1000
0000
0000
0000
0010
0000
0000
,
2003
0000
0000
0001
0000
0000
0001
0000
3001
0020
0000
0000
,
0001
0000
0000
0100
0000
0000
0230
0000
1000
0000
0000
0000
,
1000
0000
0000
2300
0000
0000
0001
0000
0000
3001
2000
0000
,
3001
0000
0000
0000
1000
0000
0000
0000
0100
0000
0000
0000
2000
0000
0000
0000
3001
0000
0000
0000
0100
0000
0000
0000
0020
0000
0000
0000
0000
0000
0000
0000
0000
0000
0000
0000
1030
0000
0000
0100
0000
0000
1000
0000
0000
0100
0000
0000
,
2000
0000
0000
0000
3001
0000
0010
0000
0002
0000
0000
1003
0000
0000
0200
0000
,
0000
1300
0000
0000
0100
0000
0000
0000
0200
0000
0000
1300
0000
0000
0002
0000
,
0000
0013
0000
0000
0002
0000
0000
0103
0000
0000
0020
0000
0000
0130
0000
0000
,
0101
0000
0000
1010
0000
0000
1001
0000
0000
0000
1000
0000
0010
0000
2000
0000
,
0000
3001
0000
0000
0200
0000
0000
0301
0000
0000
0100
0000
0000
0000
1001
0000
,
0000
1100
0000
0000
2000
0000
0000
3020
0000
0000
0230
0000
0000
0302
0000
0000
,
1003
0000
0000
1000
0000
0000
0001
0000
0201
0000
0301
0000
0000
1001
0000
0000
,
0000
0011
0000
0000
0000
1001
0000
0000
0000
1010
0000
0000
0000
0101
0000
0000
,
0000
1100
0000
0000
0000
0101
0000
0000
0000
1010
0000
1000
0000
0000
0000
1100
,
0000
0000
0000
1010
0000
0000
0000
0011
0000
0000
0000
0101
0000
0000
0000
0011
,
0000
0000
0000
1000
0000
0001
0000
1000
0000
0010
0000
1000
0000
0001
0000
0010
,
0000
0001
0000
0100
0000
0001
0000
0101
0000
0000
0000
0000
0101
0000
0000
0000
,
0000
0101
0000
0000
0000
0000
0101
0000
0000
0000
0000
0000
1010
0000
0000
0000
,
0000
1010
0000
0000
0000
0000
1010
0000
0000
0000
0000
1010
0000
0000
0000
0000
,
0011
0000
0000
0000
0000
0011
0000
0000
0000
0000
0000
0000
0011
0000
0000
0000
,
0000
0011
0000
0000
0000
0000
0000
1100
0000
0000
0000
0000
1100
0000
0000
0000
,
0000
1100
0000
0000
0000
0000
1100
0000
0000
0000
0000
0000
0000
1001
0000
0000
,
1001
0000
0000
1000
0000
0001
0000
1000
0000
0110
0000
0000
0110
0000
0000
0010
,
0000
0100
0000
0010
0000
1001
0000
0000
1001
0000
0000
0001
0000
1000
0000
0001
,
0000
0110
0000
0000
1001
0000
0000
0010
0000
0100
0000
0001
1000
0001
1000
0000
;

//---------------dance-single - ----------------
#NOTEDATA:;
#CHARTNAME:;
#STEPSTYPE:dance-single;
#DESCRIPTION:;
#CHARTSTYLE:;
#DIFFICULTY:Easy;
#METER:8;
#RADARVALUES:0.269813,0.427522,0.253817,0.246351,0.242619,253.000000,219.000000,34.000000,33.000000,0.000000,0.000000,0.000000,0.000000,0.000000,0.269813,0.427522,0.253817,0.246351,0.242619,253.000000,219.000000,34.000000,33.000000,0.000000,0.000000,0.000000,0.000000,0.000000;
#CREDIT:;
#NOTES:
// measure 0
0000
0000
0000
0000
,  // measure 1
0000
0000
0000
0000
,  // measure 2
0000
0000
0000
0000
,  // measure 3
0000
0000
0000
0000
,  // measure 4
0000
0000
0000
0000
,  // measure 5
0000
0000
0000
0000
,  // measure 6
0000
0000
0000
1000
,  // measure 7
0000
0000
0100
0000
0000
0010
0000
0000
,  // measure 8
0000
0000
0000
0000
0000
0001
0000
0000
,  // measure 9
0100
0000
0000
0010
0000
0000
0000
0000
,  // measure 10
0000
1000
0000
0000
0000
0001
0000
0000
,  // measure 11
0010
0000
0000
0000
,  // measure 12
0001
0000
0000
1000
0000
0000
0010
0000
,  // measure 13
0000
0100
0000
0110
0000
1001
0000
1000
,  // measure 14
0000
0100
0000
0000
0001
0000
0000
0100
,  // measure 15
0000
1000
0000
0000
0001
0000
0000
0100
,  // measure 16
0000
0000
0010
0000
0000
1000
0000
0000
,  // measure 17
0001
0000
0001
0000
0100
0000
0000
1000
,  // measure 18
0000
0000
0100
0000
0001
0000
0000
1000
,  // measure 19
0000
0000
0100
0000
0000
0010
0000
0000
,  // measure 20
0001
0000
2002
0000
,  // measure 21
0000
0000
0000
0000
,  // measure 22
0000
0000
0000
0000
,  // measure 23
0000
0000
0000
0000
,  // measure 24
0000
3003
0000
0200
0000
0000
0000
0000
0000
0000
0000
0000
0000
0000
0000
0000
,  // measure 25
0000
0000
0000
0000
,  // measure 26
0000
0000
0000
0000
0000
0000
0000
0000
0000
0000
0000
0000
0000
0300
0000
0000
,  // measure 27
0100
0000
0000
0010
0000
0000
0100
0000
0100
0000
0010
0000
0020
0000
0000
0130
,  // measure 28
0000
0100
0010
0000
1001
0000
0000
0000
,  // measure 29
1000
0000
0001
0200
0000
0001
0301
0000
,  // measure 30
1000
0000
0010
0000
0000
0010
0000
0000
,  // measure 31
0020
0000
1030
0100
,  // measure 32
1100
0000
0000
0011
0000
0000
1001
0000
,  // measure 33
0001
0100
0001
0101
,  // measure 34
0000
1010
0000
0000
0110
0000
0010
0000
,  // measure 35
1000
0001
2002
0000
,  // measure 36
3003
0000
0200
0000
0000
0301
0000
0000
,  // measure 37
1000
0020
0000
0000
0000
0000
0030
0000
,  // measure 38
0010
1000
0000
0010
0000
0000
1000
0000
,  // measure 39
1010
0000
0000
0101
0000
0000
1001
0000
,  // measure 40
1000
0100
1000
1100
,  // measure 41
0000
0011
0000
0000
0110
0000
1000
0000
,  // measure 42
0100
0000
0010
0000
0001
0000
0001
0100
,  // measure 43
0000
0000
0100
0000
1000
0000
0000
0000
1000
0000
0100
0000
0000
0000
0000
0100
,  // measure 44
0000
0000
0000
0000
0100
0000
0000
0000
0000
0100
0000
0000
0000
0000
0100
0000
,  // measure 45
0000
0000
0000
0100
0000
0000
0000
0000
1000
0000
0000
0000
0000
0010
0000
0000
,  // measure 46
0000
0000
1000
0000
0000
0000
0001
0000
0000
0000
0000
0100
0000
0000
0000
0000
,  // measure 47
0100
0000
0000
0000
0000
0100
0000
0000
0000
0000
0100
0000
0000
0000
0000
0100
,  // measure 48
0000
0000
0000
0000
0100
0000
0000
0000
0000
0001
0000
0000
0000
0000
1000
0000
,  // measure 49
0000
0000
0010
0000
0000
0000
0000
1000
0000
0000
0000
0000
0001
0000
0000
0000
,  // measure 50
0000
0000
1000
0000
0000
0000
0000
0000
0001
0000
0000
0000
0000
1000
0000
0000
,  // measure 51
0000
0000
0000
0000
0100
0000
0000
0000
0000
1000
0000
0000
0000
0000
0000
0000
,  // measure 52
0200
0000
0000
2300
,  // measure 53
0000
0001
3002
0000
,  // measure 54
0000
0023
0001
0000
,  // measure 55
0032
0000
0000
0000
0000
0000
0000
0000
0000
1003
0000
1000
,  // measure 56
0000
0000
1000
0000
0000
1000
0000
1000
0000
1000
0000
0000
,  // measure 57
0020
2030
0000
0000
,  // measure 58
3002
1000
0000
2003
,  // measure 59
0000
0000
3200
0000
,  // measure 60
0000
2300
0000
0001
,  // measure 61
3002
0000
0000
0000
0000
0000
1003
0001
,  // measure 62
2000
0000
3000
0000
0002
0000
0003
0020
,  // measure 63
0000
0000
0000
0000
0031
0000
0000
0000
2000
0000
0000
3000
0000
0000
0002
0000
,  // measure 64
0000
0013
0000
0000
0002
0000
0000
0003
0000
0000
2000
0000
0000
3001
0000
0000
,  // measure 65
1001
0000
0000
1001
0000
0000
0002
0000
0000
0000
0003
0000
0000
0000
2000
0000
,  // measure 66
0000
3000
0200
0000
0000
1300
0000
0001
,  // measure 67
0000
0000
0000
0000
1010
0000
0000
1010
0000
0000
0110
0000
0000
0110
0000
0000
,  // measure 68
0010
0000
0000
0100
0000
0000
0000
0000
1001
0000
0000
0000
0000
1000
0000
0000
,  // measure 69
0000
0010
0000
0000
0000
0001
0000
0000
0000
0010
0000
0000
0000
1000
0000
0000
,  // measure 70
0000
0100
0000
0000
0000
0010
0000
0000
0000
0000
0000
0001
0000
0000
0000
0100
,  // measure 71
0000
0000
0000
1000
0000
0000
0000
0100
0000
0000
0000
0001
0000
0000
0000
1000
,  // measure 72
0000
0000
0000
0001
0000
1000
0000
0001
0000
1000
0000
0001
0000
1000
0000
0001
,  // measure 73
0000
1000
0000
0001
0000
2000
0000
3001
0000
0000
0000
0000
1000
0000
0000
0000
,  // measure 74
0000
0001
0000
0000
0000
0000
1000
0000
0000
0000
0000
0000
0010
0000
0000
0000
,  // measure 75
0000
0100
0000
0000
0000
0000
0010
0000
0000
0000
0000
0100
0000
0000
0000
0000
,  // measure 76
0001
0000
0000
0000
0000
1000
0000
0000
0000
0000
0000
0000
0001
0000
0000
0000
,  // measure 77
0000
1000
0000
0000
0000
0000
0000
0100
0000
0000
0000
0000
0010
0000
0000
0000
,  // measure 78
0000
0100
0000
0000
0000
0000
0010
0000
0000
0000
0000
0000
0000
1001
0000
0000
,  // measure 79
0000
0000
0000
0110
0000
0000
0000
0000
0000
1001
0000
0000
0000
0000
0000
0110
,  // measure 80
0000
0000
0000
0000
0000
0011
0000
0000
0000
0000
0000
1100
0000
0000
0000
0000
,  // measure 81
0000
1010
0000
0000
0000
0000
0000
0101
0000
0000
0000
1001
0000
1001
0000
0000
;

//---------------dance-single - ----------------
#NOTEDATA:;
#CHARTNAME:;
#STEPSTYPE:dance-single;
#DESCRIPTION:;
#CHARTSTYLE:;
#DIFFICULTY:Beginner;
#METER:4;
#RADARVALUES:0.197294,0.458410,0.298608,0.059722,0.138106,185.000000,145.000000,40.000000,8.000000,0.000000,0.000000,0.000000,0.000000,0.000000,0.197294,0.458410,0.298608,0.059722,0.138106,185.000000,145.000000,40.000000,8.000000,0.000000,0.000000,0.000000,0.000000,0.000000;
#CREDIT:;
#NOTES:
// measure 0
0000
0000
0000
0000
,  // measure 1
0000
0000
0000
0000
,  // measure 2
0000
0000
0000
0000
,  // measure 3
0000
0000
0000
0000
,  // measure 4
0000
0000
0000
0000
,  // measure 5
0000
0000
0000
0000
,  // measure 6
0000
0000
0000
1000
,  // measure 7
0000
0000
0000
0000
0000
0001
0000
0000
,  // measure 8
0000
0000
0000
0000
0000
0010
0000
0000
,  // measure 9
0000
0000
0000
0100
0000
0000
0000
0000
,  // measure 10
0000
1000
0000
0000
0000
0000
0000
0000
,  // measure 11
0001
0000
0000
0000
,  // measure 12
0100
0000
0000
0010
,  // measure 13
0000
0000
0000
1001
0000
1001
0000
0000
,  // measure 14
0000
0001
0000
0000
1000
0000
0000
0000
,  // measure 15
0000
0000
0000
0000
0010
0000
0000
0100
,  // measure 16
0000
0010
0000
0000
,  // measure 17
0001
0000
0000
0000
1000
0000
0000
0001
,  // measure 18
0000
0000
0000
0000
1000
0000
0000
0100
,  // measure 19
0000
0000
0010
0000
0000
0100
0000
0000
,  // measure 20
0010
0000
0220
0000
,  // measure 21
0000
0000
0000
0000
,  // measure 22
0000
0000
0000
0000
,  // measure 23
0000
0000
0000
0000
,  // measure 24
0000
0000
0000
0000
,  // measure 25
0000
0000
0000
0000
,  // measure 26
0000
0000
0000
0000
,  // measure 27
0000
0000
0000
0000
,  // measure 28
0330
1001
1001
0000
,  // measure 29
0010
0000
0100
0000
,  // measure 30
1000
1000
0000
0100
,  // measure 31
0000
0010
0000
0001
,  // measure 32
0001
0000
0000
0110
,  // measure 33
0000
0010
0000
1001
,  // measure 34
0000
0000
0110
0110
,  // measure 35
0110
0110
0110
0000
,  // measure 36
1000
0000
0100
0000
,  // measure 37
1000
1000
0000
0001
,  // measure 38
0000
0100
0000
0001
,  // measure 39
0001
0000
0000
0110
,  // measure 40
0000
0100
0000
1001
,  // measure 41
0000
0000
0110
0110
,  // measure 42
0110
0000
0110
0000
0110
0000
0000
1000
,  // measure 43
0000
0000
0100
0000
0000
2000
0000
0000
,  // measure 44
0000
0000
0000
0000
,  // measure 45
0000
0000
0000
3000
0000
0000
0000
0000
0001
0000
0000
0000
0000
0010
0000
0000
,  // measure 46
0000
0001
0000
0002
0000
0000
0000
0000
,  // measure 47
0000
0000
0000
0000
0000
0000
0000
0000
0000
0000
0000
0000
0000
0000
0000
0003
,  // measure 48
0000
0000
0000
0000
1000
0000
0000
0000
0000
0010
0000
0000
0000
0000
0100
0000
,  // measure 49
0000
0000
0001
0000
0000
0000
0000
0001
0000
0000
0000
0000
0001
0000
0000
0000
,  // measure 50
0000
0000
1000
0000
0000
0000
0000
0000
1000
0000
0000
0000
0000
1000
0000
0000
,  // measure 51
0000
0000
0000
0000
0100
0000
0000
0000
0000
0100
0000
0000
0000
0000
0000
0000
,  // measure 52
0100
0000
0000
1000
,  // measure 53
0000
0000
0001
0000
,  // measure 54
0000
0010
0000
0000
,  // measure 55
0001
0000
0000
0020
,  // measure 56
0000
0030
0002
0000
,  // measure 57
0003
1000
0000
0000
,  // measure 58
0010
0000
0000
0100
,  // measure 59
0000
0000
0001
0000
,  // measure 60
0000
0010
0000
0000
,  // measure 61
0001
0000
0000
1001
,  // measure 62
1001
0000
0110
0000
,  // measure 63
1001
0000
0000
0000
0110
0000
0000
1000
,  // measure 64
0000
0000
0100
0000
0000
0010
0000
0000
,  // measure 65
0001
0000
0000
1001
0000
0000
0000
0110
,  // measure 66
0000
0000
0000
1001
0000
0000
0000
0110
,  // measure 67
0000
0000
0001
0000
0000
0100
0000
0000
,  // measure 68
0010
0000
0000
0000
0000
0000
0000
0000
0000
0000
0000
0000
0000
1000
0000
0000
,  // measure 69
0000
1000
0000
0000
0000
1000
0000
0000
0000
1000
0000
0000
0000
1000
0000
0000
,  // measure 70
0000
1000
0000
0000
0000
1000
0000
0000
0000
0000
0000
0001
0000
0000
0000
0001
,  // measure 71
0000
0000
0000
0001
0000
0000
0000
0001
0000
0000
0000
0001
0000
0000
0000
0001
,  // measure 72
0000
0000
0000
0110
0000
0000
0000
0110
0000
0000
0000
0110
0000
0000
0000
0110
,  // measure 73
0000
0000
0000
0110
0000
0000
0000
0110
0000
0000
0000
0000
0010
0000
0000
0000
,  // measure 74
0000
0010
0000
0000
0000
0000
0010
0000
0000
0000
0000
0000
0010
0000
0000
0000
,  // measure 75
0000
0010
0000
0000
0000
0000
0010
0000
0000
0000
0000
0010
0000
0000
0000
0000
,  // measure 76
0010
0000
0000
0000
0000
0010
0000
0000
0000
0000
0000
0000
0010
0000
0000
0000
,  // measure 77
0000
0010
0000
0000
0000
0000
0000
0010
0000
0000
0000
0000
0010
0000
0000
0000
,  // measure 78
0000
0010
0000
0000
0000
0000
0010
0000
0000
0000
0000
0000
0000
1001
0000
0000
,  // measure 79
0000
0000
0000
0000
0000
0000
0000
0000
0000
1001
0000
0000
0000
0000
0000
0000
,  // measure 80
0000
0000
0000
0000
0000
1001
0000
0000
0000
0000
0000
1001
0000
0000
0000
0000
,  // measure 81
0000
1001
0000
0000
0000
0000
0000
2002
0000
0000
0000
0000
0000
0000
3003
0000
;
