#TITLE:RED;
#SUBTITLE:;
#ARTIST:Croove;
#TITLETRANSLIT:;
#SUBTITLETRANSLIT:;
#ARTISTTRANSLIT:;
#CREDIT:;
#BANNER:RED BN.png;
#BACKGROUND:RED BG.png;
#LYRICSPATH:;
#CDTITLE:;
#MUSIC:RED.ogg;
#OFFSET:0.120;
#SAMPLESTART:20.520;
#SAMPLELENGTH:15.000;
#SELECTABLE:YES;
#BPMS:0.000=107.000;
#STOPS:;
#BGCHANGES:0.250=RED.avi=1.000=1=1=0,
99999=-nosongbg-=1.000=0=0=0 // don't automatically add -songbackground-
;

//---------------dance-single - ----------------
#NOTES:
     dance-single:
     :
     Medium:
     10:
     0.349,0.351,0.097,0.186,0.202:
0000
0000
0000
0000
,
0000
0000
0000
0000
,
0000
0000
0000
0000
,
0000
0000
0000
0000
,
0000
0000
0000
0000
,
0000
0000
0000
0000
1000
0000
0000
0001
0000
0000
1000
0000
0000
0000
0010
0000
,
0000
0100
0000
0000
0010
0000
0100
0000
0010
0000
0000
0000
0000
0000
0001
0000
,
0000
1000
0000
0000
0001
0000
0000
0010
0000
0000
0100
0000
0001
0000
0000
0010
,
0000
1000
0010
1000
0010
0000
0000
0100
,
0001
0100
0010
0100
0010
0100
0010
0000
,
0110
0000
1000
0001
1000
0001
1000
0000
,
1001
0000
0001
0100
0001
0100
0001
0000
,
0101
0000
1000
0010
1000
0010
1000
0000
,
1010
0000
0100
1000
0100
1000
0100
0000
,
1100
0000
0010
0001
0010
0001
0010
0000
,
0011
0000
0100
0001
0100
0001
0100
0000
,
0101
0000
0010
1000
0010
1000
0010
0000
,
1010
0000
0000
0000
0100
0000
0000
0010
0000
0000
0002
0000
0000
0000
0000
0000
,
1003
0020
0230
0320
,
0030
0000
0000
0000
0010
0000
0000
0100
0000
0000
0020
0000
0000
0000
0000
0000
,
0130
2000
3002
2003
,
3002
0000
0000
0000
1003
0000
0000
0100
0000
0000
0002
0000
0000
0000
0000
0000
,
0103
0200
0302
0203
,
0300
0000
0000
0000
0001
0000
0000
0100
0000
0000
2000
0000
0000
0000
0000
0000
,
3001
0002
0203
0302
,
0203
0000
0002
0000
0000
0000
0000
0303
,
0001
0000
1000
0000
0010
0000
0000
0100
0000
0000
0001
0000
1000
0000
0000
0010
,
0000
0000
0100
0000
0001
0000
0000
0100
0000
0000
0010
0000
1000
0000
0000
0000
,
1001
0000
0000
0000
0001
0000
0000
0100
0000
0000
0010
0000
1000
0000
0000
0001
,
0000
0000
0100
0000
0010
0000
0000
0100
0000
0000
0001
0000
1000
0000
0010
0000
,
0100
0000
0001
0000
0100
0000
0000
0010
0000
0000
1000
0000
0001
0000
0000
0100
,
0000
0000
0010
0000
0100
0000
0000
0010
0000
0000
0001
0000
1000
0000
0000
0000
,
1001
0000
0000
0000
0100
0000
0000
0001
0000
0000
1000
0000
0010
0000
0000
0100
,
0000
0000
0001
0000
0010
0000
0000
1000
0000
0000
0010
0000
0100
0000
0010
0000
,
0001
0000
1000
0000
0001
0000
0000
0100
0000
0000
0010
0000
1000
0000
0000
0001
,
0000
0000
0100
0000
0010
0000
0000
1000
0000
0000
0001
0000
0100
0000
0010
0000
,
0001
0000
0000
0000
1000
0000
0000
0010
0000
0000
0100
0000
0001
0000
0000
1000
,
0000
0000
0001
0000
0100
0000
0000
0010
0000
0000
1000
0000
0001
0000
0100
0000
,
0001
0000
0100
0000
0010
0000
0000
0100
0000
0000
0010
0000
1000
0000
0000
0001
,
0000
0000
0100
0000
0001
0000
0000
0100
0000
0000
0010
0000
1000
0000
0000
0000
,
1001
0000
0000
0000
0001
0000
0100
0000
0001
0000
0100
0000
0001
0000
0000
0010
,
0000
1000
0002
0000
2003
0000
3020
0000
,
0230
0000
0000
0000
0301
0000
0000
0001
0000
0000
0010
0000
0000
0100
0000
0000
,
0010
0000
0001
0000
0000
1000
0000
0000
0001
0000
0100
0000
0000
0001
0000
0000
,
1000
0000
0010
0000
0100
0000
0000
0001
0000
0000
0100
0000
0000
0010
0000
0000
,
1000
0000
0010
0000
0000
0100
0000
0000
0001
0000
0100
0000
0000
0010
0000
0000
,
1000
0000
0010
0000
0100
0000
0000
0010
0000
0000
0100
0000
0010
0000
0001
0000
,
0000
1000
0000
0000
0001
0000
0100
0000
0001
0000
0000
0000
0000
0000
0010
0000
,
0000
1000
0000
0000
0010
0000
0000
0100
0000
0000
0010
0000
0001
0000
0000
0010
,
0000
0100
1000
0100
1000
0000
0000
0010
,
0000
1000
0000
0000
0001
0000
0000
0100
0000
0000
0001
0000
0000
0000
0010
0000
,
0000
1000
0000
0000
0001
0000
0100
0000
0001
0000
0000
0000
0000
0000
0010
0000
,
0000
0001
0000
0000
1000
0000
0000
0010
0000
0000
1000
0000
0001
0000
0000
0100
,
0000
0001
1000
0001
1000
0000
0000
0001
,
0010
0100
0101
0000
0000
0000
0000
0000
;

//---------------dance-single - ----------------
#NOTES:
     dance-single:
     :
     Hard:
     13:
     0.474,0.461,0.024,0.138,0.437:
0000
0000
0000
0000
,
0000
0000
0000
0000
,
0000
0000
0000
0000
,
0000
0000
0000
0000
,
0000
0000
0000
0000
,
0000
0000
0000
0000
1000
0000
0000
0001
0000
0000
1000
0000
0001
0000
0100
0000
,
0000
0010
0000
0000
0100
0010
0100
0010
0100
0000
0001
0000
0010
0000
0100
0000
,
0000
1000
0000
0000
0001
0000
0000
0100
0000
0000
0001
0000
1000
0000
0000
0010
,
0000
0000
1000
0000
0010
1000
0010
1000
0010
0000
0100
0000
0010
0000
0100
0010
,
0100
0010
0100
0000
0001
0000
0100
0000
0001
0000
0100
0001
0000
0100
0001
0000
,
0100
0000
0010
0000
0100
0000
0010
0000
1000
0000
0010
1000
0000
0010
1000
0000
,
0100
0000
0010
0000
0001
0000
0100
0000
0001
0000
0100
0001
0000
0100
0001
0000
,
0010
0000
1000
0000
0001
0000
0100
0010
0000
0100
0010
0000
1000
0000
0010
1000
,
0000
0010
1000
0000
0100
0000
0001
0000
0100
0000
0010
0100
0000
0010
0100
0000
,
0010
0000
0100
0000
0001
0000
0100
0000
0001
0000
0100
0001
0000
0100
0001
0000
,
0010
0000
0100
0000
0001
0000
1000
0010
0000
1000
0010
0000
0100
0000
0001
0100
,
0000
0001
0100
0000
0001
0000
0100
0000
0010
0000
0100
0000
0001
0000
0010
0000
,
0100
0000
1000
0000
0001
0000
0000
0010
0000
0000
0200
0000
0000
0000
0010
0000
,
0310
0001
0201
0000
0320
0000
1030
0100
,
0010
0000
0001
0000
0100
0000
0000
0010
0000
0000
0002
0000
0000
0000
1000
0000
,
1003
0001
2000
0000
3020
0000
0230
0000
,
0302
0000
0000
0000
0013
0000
0000
0100
0000
0000
2000
0000
0000
0000
0001
0000
,
3001
0001
2001
0000
3020
0000
0130
0010
,
0001
0000
0010
0000
0100
0000
0000
0001
0000
0000
2000
0000
0000
0000
0001
0000
,
3001
0000
0002
0100
0203
0010
0320
1000
,
2030
0001
0002
0000
0000
0000
0000
3003
,
1000
0000
0001
0000
1000
0000
0010
1000
0000
0000
0100
0000
0001
0000
0100
0001
,
0000
0000
0010
0000
1000
0000
0100
0010
0000
0000
0001
0000
0100
0000
0001
0000
,
1000
0000
0010
0000
1000
0000
0100
0010
0000
0000
0001
0000
0100
0000
0010
0001
,
0000
0000
1000
0000
0010
0000
0100
0010
0000
0000
1000
0000
0001
0000
0100
0010
,
0000
0000
0001
0000
1000
0000
0100
0001
0000
0000
0010
0000
0100
0000
0010
1000
,
0000
0000
0100
0000
0001
0000
0100
0010
0000
0000
0001
0000
0100
0000
0010
0100
,
0000
0000
1000
0000
0010
0000
0100
0010
0000
0000
0001
0000
0100
0000
0010
1000
,
0000
0000
0100
0000
0001
0000
0100
0001
0000
0000
0010
0000
1000
0000
0100
0010
,
0000
0000
0001
0000
0100
0000
0010
0001
0000
0010
0001
0000
1000
0000
0100
0010
,
0000
0100
0010
0000
0001
0000
0001
0100
0000
0001
0100
0000
0010
0000
1000
0000
,
0010
0000
1000
0000
0010
0000
0100
0010
0000
0100
0010
0000
0001
0000
0100
0001
,
0000
0100
0001
0000
0010
0000
1000
0010
0000
1000
0010
0000
1000
0000
0001
0000
,
1000
0000
0001
0000
1000
0000
0001
0100
0000
0001
0100
0000
0010
0000
0100
0010
,
0000
0100
0010
0000
0001
0000
1000
0010
0000
1000
0010
0000
1000
0000
0010
0000
,
1000
0000
0010
0000
1000
0000
0100
0010
0000
0100
0010
0000
0001
0000
1000
0010
,
0000
1000
0010
0000
0100
0000
0001
0100
0000
0001
0100
0000
0010
0000
0100
0000
,
0001
0000
0100
0000
0010
0000
0000
0010
0000
0000
0100
0000
0000
0001
0000
0001
,
1000
0000
0100
0000
0000
0010
0000
1000
0010
0000
0100
0000
0000
0001
0000
1000
,
0001
0000
0100
0000
0000
0010
0000
0000
0010
0000
0100
0000
0000
1000
0000
0001
,
1000
0000
0000
0000
0000
0010
0000
1000
0010
0000
0001
0000
0000
0100
0000
0001
,
0100
0000
1000
0000
0010
0000
0000
0010
0000
0000
0010
0000
0000
0000
0100
0000
,
0000
0100
0000
0000
0100
0001
0100
0001
0100
0000
0010
0000
0000
0000
0010
0000
,
0000
1000
0000
0000
0010
0000
0000
0010
0000
0000
0001
0000
1000
0000
0000
1000
,
0000
0000
1000
0000
0001
1000
0001
1000
0001
0000
0010
0000
0100
0000
0010
0100
,
0010
0100
0010
0000
0100
0000
0000
0100
0000
0000
0100
0000
0001
0000
0010
0000
,
0000
0010
0000
0000
0010
0001
0010
0001
0010
0000
0100
0000
0010
0000
1000
0000
,
0000
1000
0000
0000
1000
0000
0000
0001
0000
0000
0100
0000
0010
0000
0000
0010
,
0000
0000
0100
0000
0001
0100
0001
0100
0001
0000
0010
0000
0100
0000
1000
0010
,
1000
0010
1000
0000
1010
0000
0000
0000
0000
0000
0000
0000
0000
0000
0000
0000
;

//---------------dance-single - ----------------
#NOTES:
     dance-single:
     :
     Easy:
     4:
     0.202,0.263,0.032,0.105,0.000: // measure 1
0000
0000
0000
0000
,  // measure 2
0000
0000
0000
0000
,  // measure 3
0000
0000
0000
0000
,  // measure 4
0000
0000
0000
0000
,  // measure 5
0000
0000
0000
0000
,  // measure 6
0000
1000
1000
0100
,  // measure 7
0100
0001
0001
0100
,  // measure 8
0100
0010
0010
0010
,  // measure 9
0010
0010
0000
0100
,  // measure 10
0001
1000
0001
1000
,  // measure 11
0000
0100
0001
0100
,  // measure 12
0000
0010
1000
0010
,  // measure 13
0000
0100
0001
0100
,  // measure 14
0000
0010
1000
0010
,  // measure 15
0000
0100
0010
0100
,  // measure 16
0000
0001
1000
0001
,  // measure 17
0000
1000
0100
1000
,  // measure 18
0000
0002
0000
0000
,  // measure 19
0003
2000
0000
0000
,  // measure 20
3000
0020
0000
0000
,  // measure 21
0030
0200
0000
0000
,  // measure 22
0300
0002
0000
0000
,  // measure 23
0003
2000
0000
0000
,  // measure 24
3000
0002
0000
0000
,  // measure 25
0003
1000
0001
1000
,  // measure 26
0001
2002
0000
0000
,  // measure 27
0003
3000
0000
0001
,  // measure 28
0000
1000
1000
1000
,  // measure 29
0000
0010
0100
0010
,  // measure 30
0000
0100
0100
0100
,  // measure 31
0100
0001
0100
0001
,  // measure 32
0100
0100
0100
0001
,  // measure 33
0000
1000
0010
1000
,  // measure 34
0010
1000
0001
1000
,  // measure 35
0001
0100
0010
0100
,  // measure 36
0010
0100
0001
0100
,  // measure 37
0010
1000
0010
1000
,  // measure 38
0010
1000
0001
1000
,  // measure 39
0001
1000
0010
1000
,  // measure 40
0010
1000
0001
1000
,  // measure 41
0001
0100
0001
1000
,  // measure 42
0010
2000
3020
0230
,  // measure 43
0302
0000
0013
0000
0110
0000
0000
0001
,  // measure 44
0001
0000
0000
1000
1000
0000
0000
0100
,  // measure 45
0100
0000
0100
0000
0101
0000
0000
1000
,  // measure 46
1000
0000
0000
0001
0001
0000
0000
0100
,  // measure 47
0100
0001
1000
0001
,  // measure 48
0100
0001
1000
0010
,  // measure 49
0100
0010
0100
0001
,  // measure 50
0100
0001
0100
0001
,  // measure 51
0100
1000
0010
0100
,  // measure 52
0001
0010
0100
1000
,  // measure 53
0001
0100
0010
0100
,  // measure 54
0001
0100
0010
1000
,  // measure 55
0100
0110
0000
0000
;

//---------------dance-single - Copied from----------------
#NOTES:
     dance-single:
     Copied from:
     Beginner:
     2:
     0.145,0.154,0.008,0.073,0.000:
0000
0000
0000
0000
,
0000
0000
0000
0000
,
0000
0000
0000
0000
,
0000
0000
0000
0000
,
0000
0000
0000
0000
,
0000
0100
0000
0100
,
0000
1000
0000
1000
,
0000
0001
0000
0001
,
0000
1000
0000
1000
,
0000
1000
1000
1000
,
0000
0001
0001
0001
,
0000
0100
0100
0100
,
0000
0010
0010
0010
,
0000
0001
0001
0001
,
0000
1000
1000
1000
,
0000
0010
0010
0010
,
0000
0100
0100
0100
,
0000
2000
0000
0000
,
3000
0002
0000
0000
,
0003
2000
0000
0000
,
3000
0002
0000
0000
,
0003
2000
0000
3000
,
0000
0002
0000
0000
,
0003
2000
0000
0000
,
3000
0002
0000
0000
,
0000
2000
0000
0000
,
3003
1000
1000
1000
,
0000
0001
0001
0001
,
0000
0010
0010
0010
,
0000
0100
0100
0100
,
0000
1000
1000
1000
,
0000
0001
0001
0001
,
0000
0010
0010
0010
,
0000
0100
0100
0100
,
0000
1000
1000
1000
,
0000
0001
0001
0001
,
0000
0100
0100
0100
,
0000
0010
0010
0010
,
0000
1000
1000
1000
,
0000
0001
0001
0001
,
0000
0100
0100
0100
,
0000
0010
0010
0010
,
0010
1000
0000
0001
,
0000
1000
0000
0001
,
0000
0010
0000
0100
,
0000
0010
0000
0000
,
0100
0010
0000
0010
,
0000
1000
0000
1000
,
0000
0001
0000
0001
,
0000
1000
0000
1000
,
0000
0010
0000
0010
,
0000
0100
0000
0100
,
0000
0001
0000
0001
,
0000
0100
0000
0100
,
0000
0110
0000
0000
;
