#TITLE:RED ZONE;
#SUBTITLE:NeoClassical Party Remix;
#ARTIST:YUUHEI SATELITE;
#TITLETRANSLIT:Yuuhei Satellite;
#SUBTITLETRANSLIT:;
#ARTISTTRANSLIT:;
#GENRE:;
#CREDIT:;
#BANNER:redzone-bn.png;
#BACKGROUND:redzone-bg.png;
#LYRICSPATH:;
#CDTITLE:cdtitle.png;
#MUSIC:redzone.ogg;
#OFFSET:-0.504060;
#SAMPLESTART:61.837002;
#SAMPLELENGTH:10.666667;
#SELECTABLE:YES;
#BPMS:0.000000=180.000000
;
#STOPS:
;
#BGCHANGES:;
#KEYSOUNDS:;
#ATTACKS:;

//---------------dance-single - ----------------
#NOTES:
     dance-single:
     :
     Hard:
     17:
     0.909875,1.213846,0.447457,0.209448,0.809231,669.000000,622.000000,47.000000,22.000000,0.000000,0.000000,0.909875,1.213846,0.447457,0.209448,0.809231,669.000000,622.000000,47.000000,22.000000,0.000000,0.000000:
// measure 0
0000
0000
0000
0000
,  // measure 1
0000
0000
0000
0000
,  // measure 2
0000
0000
0000
0000
,  // measure 3
0000
0000
0000
0000
,  // measure 4
1000
0010
1000
0010
0100
0000
0100
0000
1000
0000
0100
0000
0101
0000
0000
0000
,  // measure 5
0001
0010
0001
0000
0010
1000
0010
0000
0001
0000
0001
0000
1000
0010
0100
0001
,  // measure 6
2000
0000
0000
0010
0000
0000
0010
0000
0000
0010
0000
0000
3010
0000
0100
0000
,  // measure 7
0001
0010
1000
0010
0001
0010
0100
1000
,  // measure 8
0002
0000
0000
0100
0000
0000
0100
0000
0000
0100
0000
0000
0103
0000
0010
0000
,  // measure 9
1000
0010
0001
0010
1000
0001
0000
0000
,  // measure 10
1000
0000
1000
0100
0000
0100
0010
0000
0010
0001
0000
0001
1000
0010
0001
0000
,  // measure 11
0010
0100
0010
1000
0001
0010
0100
1000
0100
0010
0100
1000
0001
0000
1000
0000
,  // measure 12
0001
0000
0001
0010
0000
0010
0100
0000
0100
1000
0000
1000
0001
0100
1000
0000
,  // measure 13
0202
0303
2020
3030
,  // measure 14
0001
0010
1000
0010
0001
0010
0100
1000
,  // measure 15
0010
0001
0010
1000
0010
0100
0001
1000
,  // measure 16
0001
0000
0001
0010
0000
0010
0100
0000
0100
1000
0000
1000
0001
0100
1000
0000
,  // measure 17
0100
0010
0100
0001
1000
0100
0010
0001
0010
0100
1000
0001
0000
0000
0000
0000
,  // measure 18
1000
0100
0001
0100
1000
0100
0010
0001
,  // measure 19
0100
1000
0100
0001
0100
0010
1000
0001
,  // measure 20
1000
0000
1000
0100
0000
0100
0010
0000
0010
0001
0000
0001
1000
0010
0001
0000
,  // measure 21
1010
0000
1000
0001
0000
0010
0100
0000
,  // measure 22
1000
0000
0100
0000
0001
0000
0100
0000
1000
0100
1000
0100
0010
0001
0010
0001
,  // measure 23
1000
0000
0010
0000
0100
0000
0001
0000
0010
0100
0010
0100
1000
0001
1000
0001
,  // measure 24
1000
0000
0010
0000
0001
0000
0010
0000
1000
0010
1000
0010
0100
0001
0100
0001
,  // measure 25
1000
0100
0010
0000
0001
1000
0010
0000
1010
0000
1010
0000
0101
0000
0101
0000
,  // measure 26
0001
0000
0100
0000
1000
0000
0100
0000
0001
0100
0001
0100
0010
1000
0010
1000
,  // measure 27
0001
0000
0010
0000
0100
0000
1000
0000
0010
0100
0010
0100
0001
1000
0001
1000
,  // measure 28
0001
0000
0010
0000
1000
0000
0010
0000
0001
0010
0001
0010
0100
1000
0100
1000
,  // measure 29
0002
0000
0000
0000
1003
0010
0100
0001
,  // measure 30
0101
0000
1000
0000
1100
0000
1000
0100
0000
0100
0000
0010
0001
0000
0001
0000
,  // measure 31
1000
0010
0001
0010
1000
0100
0010
0001
,  // measure 32
0011
0000
1000
0000
1010
0000
0010
0100
0000
0100
0000
0001
1000
0000
1000
0000
,  // measure 33
0100
0001
0100
1000
0001
0100
0010
1000
,  // measure 34
1010
0000
0001
0000
0011
0000
0001
0010
0000
0010
0000
0100
1000
0000
1000
0000
,  // measure 35
0001
0100
1000
0100
0001
0010
0100
1000
,  // measure 36
1100
0000
0001
0000
1001
0000
0000
0000
1000
0010
0100
0001
0100
0000
0000
0000
,  // measure 37
0101
1000
1001
0000
0001
0010
1000
0010
,  // measure 38
0011
0000
1000
0000
0000
0010
0000
0000
0001
0000
0000
0100
0000
0000
1000
0000
,  // measure 39
1001
0000
0001
0000
0000
0010
0000
0000
1000
0000
0000
0100
0000
0000
0001
0000
,  // measure 40
0202
0000
0303
0000
2020
0000
3030
0001
,  // measure 41
0011
0000
0010
0000
0000
0100
0000
0000
1000
0000
0010
0000
0100
0000
0001
0000
,  // measure 42
1000
0100
0001
0100
0010
0001
1000
0001
,  // measure 43
0100
1000
0100
0001
1000
0001
0010
0100
,  // measure 44
1100
0001
1010
0001
0101
1000
0011
1000
,  // measure 45
0200
0000
0000
0300
,  // measure 46
1000
0000
0100
0000
0001
0000
0100
0000
1000
0000
0010
0100
0000
0100
0001
0000
,  // measure 47
0010
0000
1000
0000
0010
0000
0001
0000
0010
0000
0100
1000
0000
1000
0010
0000
,  // measure 48
0100
0000
1000
0000
0100
0000
0001
0000
1000
0000
0100
0010
0000
0010
0001
0000
,  // measure 49
1000
0001
0100
0000
0010
1000
0001
0000
1001
0000
1001
0000
0101
0000
0101
0000
,  // measure 50
0001
0000
0100
0000
1000
0000
0100
0000
0001
0000
0010
0100
0000
0100
1000
0000
,  // measure 51
0010
0000
0001
0000
0010
0000
1000
0000
0010
0000
0100
0001
0000
0001
0010
0000
,  // measure 52
0100
0000
0001
0000
0100
0000
1000
0000
0001
0000
0100
0010
0000
0010
1000
0000
,  // measure 53
0002
0000
0010
0000
0013
0100
0001
0100
,  // measure 54
1100
0000
0001
0000
0101
0000
0100
0010
0000
0010
0000
1000
0001
0000
0001
0000
,  // measure 55
0010
1000
0010
0001
1000
0010
0100
0001
,  // measure 56
0101
0000
1000
0000
1100
0000
0100
0010
0000
0010
0000
0001
1000
0000
1000
0000
,  // measure 57
0010
0001
0010
1000
0001
0010
0100
1000
,  // measure 58
1100
0000
0001
0000
0101
0000
0100
0010
0000
0010
0000
1000
0001
0000
0001
0000
,  // measure 59
0020
0030
0020
0030
0020
0030
0020
0030
,  // measure 60
1100
0000
0000
0000
0101
0000
0000
0100
0010
0000
0010
0000
1000
0000
1000
0000
,  // measure 61
0001
0000
0010
0000
0100
1000
0001
1000
0010
0000
0100
0000
0100
0000
0100
0000
,  // measure 62
0200
0000
0000
0300
,  // measure 63
0001
0100
0001
0100
0010
1000
0010
1000
0001
0010
0001
0010
1000
0010
1000
0010
,  // measure 64
0100
1000
0100
1000
0001
0100
0001
0100
0010
1000
0010
1000
0010
0100
0010
0100
,  // measure 65
0001
0100
0001
0100
1000
0100
1000
0100
0010
1000
0010
1000
0001
1000
0001
1000
,  // measure 66
0001
0010
0100
1000
0000
0100
0010
0001
1000
0000
1000
0000
0001
0000
0001
0000
,  // measure 67
0100
0010
0100
0001
1000
0100
0010
0001
0010
0100
0010
0001
1000
0010
0100
0001
,  // measure 68
1000
0010
1000
0001
0010
0100
1000
0001
1000
0100
1000
0001
0100
0010
1000
0001
,  // measure 69
0100
0010
0100
0001
1000
0100
0010
0001
0010
0100
0010
0001
1000
0010
0100
0001
,  // measure 70
0101
0000
0001
1000
0001
0000
1000
0100
0010
0001
1000
0010
0001
0000
0000
0000
,  // measure 71
1010
0000
0000
1001
0000
0000
0011
0000
0000
2000
0000
0000
0100
0000
3100
0000
,  // measure 72
1100
0000
0000
1001
0000
0000
0101
0000
0000
0200
0000
0000
0010
0000
0310
0000
,  // measure 73
2002
0000
0000
0000
,  // measure 74
0000
0000
0000
0000
,  // measure 75
3003
0000
0000
0000
;

//---------------dance-single - ----------------
#NOTES:
     dance-single:
     :
     Medium:
     12:
     0.643305,0.714027,0.142805,0.142805,0.323692,473.000000,458.000000,15.000000,15.000000,0.000000,0.000000,0.643305,0.714027,0.142805,0.142805,0.323692,473.000000,458.000000,15.000000,15.000000,0.000000,0.000000:
0000
0000
0000
0000
,
0000
0000
0000
0000
,
0000
0000
0000
0000
,
0000
0000
0000
0000
,
1000
0010
1000
0010
0100
0000
0100
0000
1000
0000
0100
0000
0101
0000
0000
0000
,
1000
0100
0000
0000
0001
0100
0000
0000
1000
0000
0001
0000
0100
0000
0010
0000
,
2000
0000
0000
0010
0000
0000
0010
0000
0000
0010
0000
0000
3010
0000
0100
0000
,
1000
0100
0001
0100
0010
1000
0001
0010
,
0200
0000
0000
1000
0000
0000
1000
0000
0000
1000
0000
0000
1300
0000
0001
0000
,
0100
1000
0100
0001
0100
0010
0000
0000
,
1000
0000
0000
0100
0000
0000
0010
0000
0000
0001
0000
0000
0100
0000
0010
0000
,
1000
0010
0001
0010
0100
0010
1000
0000
,
0001
0000
0000
0010
0000
0000
0100
0000
0000
1000
0000
0000
0001
0000
1000
0000
,
1001
0000
0110
0000
,
0001
0100
0001
0000
0100
1000
0100
0000
,
0010
0100
0010
1000
0001
0000
0110
0000
,
1000
0000
0000
0010
0000
0000
0100
0000
0000
0001
0000
0000
0010
0000
0100
0000
,
1000
0100
0001
0100
1000
0010
0000
0000
,
1000
0100
1000
0000
0100
0001
0100
0000
,
0010
0100
0010
0001
1000
0000
0110
0000
,
0001
0000
0000
0010
0000
0000
0100
0000
0000
1000
0000
0000
0001
0000
0100
0000
,
0020
0000
0000
0030
,
1000
0000
0010
0000
0001
0000
0010
0000
1000
0000
0000
0010
0000
0000
0100
0000
,
0001
0000
1000
0000
0001
0000
0010
0000
0100
0000
0000
1000
0000
0000
0001
0000
,
1000
0000
0100
0000
0001
0000
0100
0000
1000
0000
0000
0100
0000
0000
0010
0000
,
0001
1000
0000
0000
0010
0100
0000
0000
0001
0000
0001
0000
1000
0000
1000
0000
,
0001
0000
0010
0000
1000
0000
0010
0000
0001
0000
0000
0010
0000
0000
0100
0000
,
1000
0000
0001
0000
1000
0000
0010
0000
0100
0000
0000
0001
0000
0000
1000
0000
,
0001
0000
0100
0000
1000
0000
0100
0000
0001
0000
0000
0100
0000
0000
0010
0000
,
2000
0000
3000
0000
0001
0010
0100
1000
,
0001
0000
0100
0000
1000
0000
0100
0010
0000
0010
0000
1000
0001
0000
0001
0000
,
0010
0100
0010
1000
0010
0001
1000
0000
,
0010
0000
0100
0000
0010
0000
1000
0001
0000
0001
0000
0010
0100
0000
0100
0000
,
0001
0100
1000
0100
0010
0001
1000
0000
,
0001
0000
0100
0000
1000
0000
0100
0010
0000
0010
0000
1000
0001
0000
0001
0000
,
0010
0100
0010
1000
0010
0001
1000
0000
,
0001
0001
0011
0000
0010
0100
1100
0000
,
1000
1000
1010
0000
0010
0100
0101
0000
,
0000
0000
1000
0000
0000
0100
0000
0000
0001
0000
0000
0010
0000
0000
1000
0000
,
0000
0000
0001
0000
0000
0100
0000
0000
1000
0000
0000
0010
0000
0000
0001
0000
,
2000
0000
3000
0000
0002
0000
0003
0100
,
0100
0000
0100
0000
0000
0010
0000
0000
1000
0000
0000
0001
0000
0000
1000
0000
,
0100
0001
0100
1000
0001
1000
0010
0100
,
0001
0100
1000
0100
0001
1000
0001
0010
,
0100
0100
1000
1000
0001
0001
0100
0100
,
0020
0000
0000
0030
,
1000
0000
0010
0000
0001
0000
0010
0000
1000
0000
0000
0100
0000
0000
0010
0000
,
0001
0000
1000
0000
0001
0000
0100
0000
0000
0010
0000
0000
1000
0000
0001
0000
,
1000
0000
0100
0000
0001
0000
0100
0000
1000
0000
0000
0010
0000
0000
0100
0000
,
0001
1000
0000
0000
0100
0010
0000
0000
0001
0000
0001
0000
1000
0000
1000
0000
,
0001
0000
0010
0000
1000
0000
0010
0000
0001
0000
0000
0010
0000
0000
0100
0000
,
1000
0000
0001
0000
1000
0000
0010
0000
0100
0000
0000
0001
0000
0000
1000
0000
,
0001
0000
0100
0000
1000
0000
0100
0000
0001
0000
0000
0010
0000
0000
0100
0000
,
2000
0000
3000
0000
0001
0100
0010
0000
,
1000
0000
0010
0000
0001
0000
0010
0100
0000
0100
0000
0001
1000
0000
1000
0000
,
0100
0001
0100
1000
0100
0010
0001
0000
,
0010
0000
0100
0000
0010
0000
0001
1000
0000
1000
0000
0010
0100
0000
0100
0000
,
0001
0100
1000
0100
0010
1000
0001
0000
,
1000
0000
0010
0000
0001
0000
0010
0100
0000
0100
0000
0001
1000
0000
1000
0000
,
0200
0300
0200
0300
0200
0300
0200
0300
,
0010
0000
0000
0000
0010
0000
0000
0001
1000
0000
1000
0000
0001
0000
0001
0000
,
0100
0010
1000
0001
0010
0000
0000
0000
,
0200
0000
0000
0300
,
1000
0100
0010
0100
0001
0100
0010
0100
,
1000
0001
1000
0010
1000
0001
1000
0100
,
0010
0001
0010
0100
0010
1000
0010
0100
,
1000
0001
1000
0001
0000
0100
0010
0100
0010
0000
0010
0000
1000
0000
1000
0000
,
0001
0010
0100
0010
1000
0010
0100
0010
,
0001
1000
0001
0100
0001
1000
0001
0010
,
0100
1000
0100
0010
0100
0001
0100
0010
,
0011
0000
0000
0001
1000
0000
0000
0010
0100
0010
0100
0000
0100
0000
0000
0000
,
0101
0000
0000
1000
0000
0000
0011
0000
0000
1000
0000
0000
0100
0000
0100
0000
,
1100
0000
0000
0001
0000
0000
1010
0000
0000
0001
0000
0000
0100
0000
0010
0000
,
0220
0000
0000
0000
,
0000
0000
0000
0000
,
0330
0000
0000
0000
;

//---------------dance-single - ----------------
#NOTES:
     dance-single:
     :
     Easy:
     8:
     0.413456,0.464118,0.133285,0.133285,0.114244,304.000000,290.000000,14.000000,14.000000,0.000000,0.000000,0.413456,0.464118,0.133285,0.133285,0.114244,304.000000,290.000000,14.000000,14.000000,0.000000,0.000000:
0000
0000
0000
0000
,
0000
0000
0000
0000
,
0000
0000
0000
0000
,
0000
0000
0000
0000
,
1000
0010
1000
0010
0200
0000
0300
0000
,
1100
0000
0101
0000
0001
0010
0100
0000
,
2000
0000
0000
0010
0000
0000
3010
0000
,
0010
0100
0001
1000
,
0002
0000
0000
0010
0000
0000
0013
0000
,
0010
0100
1001
0000
,
0000
1000
0000
0010
0000
0001
0000
0010
,
0000
0100
0000
0010
0000
1000
0001
1000
,
0000
0001
0000
0010
0000
1000
0000
0010
,
0002
0003
2000
3000
,
0001
0100
1000
0100
,
0010
0100
0001
1000
,
0000
0001
0000
0011
0000
1000
0000
1010
,
0000
0010
0000
0100
0000
0001
1000
0000
,
1000
0100
0001
0100
,
0010
0100
1000
0001
,
0000
1000
0000
1010
0000
0001
0000
0011
,
0000
0010
0000
0010
,
0001
0000
1000
0000
0001
0000
0000
0000
0100
0000
0000
0010
0000
0000
0000
0000
,
1000
0000
0010
0000
1000
0000
0000
0000
0001
0000
0000
0010
0000
0000
0000
0000
,
0100
0000
0010
0000
0100
0000
0000
0000
1000
0000
0000
0010
0000
0000
0000
0000
,
0100
0000
0100
0000
0001
0001
0001
0000
,
1000
0000
0100
0000
0010
0000
0000
0000
0001
0000
0000
1000
0000
0000
0000
0000
,
0001
0000
0010
0000
0100
0000
0000
0000
1000
0000
0000
0010
0000
0000
0000
0000
,
0100
0000
0001
0000
1000
0000
0000
0000
0001
0000
0000
0010
0000
0000
0000
0000
,
0200
0000
0000
0300
,
1000
0000
0100
0000
0001
0000
0000
0100
0000
0010
0000
0000
0001
0000
1000
0000
,
0010
0100
0010
1000
,
0001
0000
0010
0000
1000
0000
0000
0010
0000
0100
0000
0000
1000
0000
0001
0000
,
0100
0010
0100
0001
,
1000
0000
0100
0000
0010
0000
0000
0001
0000
1000
0000
0000
0010
0000
0100
0000
,
0001
1000
0001
0010
,
0100
0100
0100
0000
1000
0000
0001
0000
,
0100
0100
0100
0000
0010
0000
1000
0000
,
0002
0000
0000
0003
,
2000
0000
0000
3000
,
1010
0000
0101
0000
,
2002
0000
0000
3003
,
0001
0010
0001
1000
,
0010
0100
0010
0001
,
0010
1000
0010
0100
,
0002
0000
0000
0003
,
1000
0000
0100
0000
0001
0000
0000
0000
0100
0000
0000
0010
0000
0000
0000
0000
,
0001
0000
0010
0000
0100
0000
0000
0000
1000
0000
0000
0010
0000
0000
0000
0000
,
0100
0000
0010
0000
0100
0000
0000
0000
0001
0000
0000
0010
0000
0000
0000
0000
,
0100
0000
0100
0000
1000
0001
1000
0000
,
0001
0000
0100
0000
1000
0000
0000
0000
0100
0000
0000
0010
0000
0000
0000
0000
,
1000
0000
0010
0000
0100
0000
0000
0000
0001
0000
0000
0010
0000
0000
0000
0000
,
0100
0000
0010
0000
0100
0000
0000
0000
1000
0000
0000
0010
0000
0000
0000
0000
,
0200
0000
0300
0000
0001
0001
0001
0000
,
1000
0000
0001
0000
1000
0000
0000
0010
0000
0100
0000
0000
0001
0000
0100
0000
,
1000
0100
0001
0010
,
0100
0000
0010
0000
0100
0000
0000
1000
0000
0001
0000
0000
1000
0000
0100
0000
,
0001
0100
1000
0010
,
0100
0000
0001
0000
0100
0000
0000
0001
0000
1000
0000
0000
0001
0000
0010
0000
,
0100
0100
0100
0100
,
1000
0001
0010
1000
,
0010
0000
0001
0010
0100
0000
0000
0000
,
2000
0000
0000
3000
,
0001
1000
0001
0010
,
0100
0001
0100
1000
,
0010
1000
0010
0100
,
0001
0001
0000
1000
1000
0000
0010
0010
,
0010
1000
0010
0100
,
0001
1000
0001
0010
,
0100
0001
0100
1000
,
1001
0000
0101
0000
0100
0010
0100
0000
,
0001
0000
0000
0011
0000
0000
0001
1000
,
0100
0000
0000
1010
0000
0000
1000
0001
,
0020
0000
0000
0000
,
0000
0000
0000
0000
,
0030
0000
0000
0000
;

//---------------dance-single - ----------------
#NOTES:
     dance-single:
     :
     Beginner:
     4:
     0.232569,0.285611,0.123765,0.161846,0.000000,171.000000,158.000000,13.000000,17.000000,0.000000,0.000000,0.232569,0.285611,0.123765,0.161846,0.000000,171.000000,158.000000,13.000000,17.000000,0.000000,0.000000:
0000
0000
0000
0000
,
0000
0000
0000
0000
,
0000
0000
0000
0000
,
0000
0000
0000
0000
,
1000
1000
2000
3000
,
0001
0000
1000
0000
,
0020
0000
0000
0030
,
0200
0000
0000
0300
,
0002
0000
0000
0003
,
2000
0000
0000
3000
,
0001
0000
0010
0000
,
0100
0000
1000
0000
,
0010
0000
0100
0000
,
0110
0000
1001
0000
,
0001
0000
0100
0000
,
1000
0000
0100
0000
,
0010
0010
0010
0010
,
0010
0000
1001
0000
,
1000
0000
0100
0000
,
0001
0000
0100
0000
,
0010
0010
0010
0010
,
0020
0000
0000
0030
,
0001
0001
0001
0000
,
1000
1000
1000
0000
,
0010
0010
0010
0000
,
0110
0000
1001
0000
,
0001
0001
0001
0000
,
1000
1000
1000
0000
,
0100
0100
0100
0000
,
0020
0000
0000
0030
,
0001
0000
0001
0000
,
1000
1000
1000
1000
,
0010
0000
0010
0000
,
0100
0100
0100
0100
,
0001
0000
0001
0000
,
1000
1000
1000
1000
,
0100
0000
0010
0000
,
0100
0000
1001
0000
,
0002
0000
0000
0003
,
2000
0000
0000
3000
,
0010
0000
0100
0000
,
2002
0000
0000
3003
,
0001
0000
1000
0000
,
0010
0000
0100
0000
,
0010
0010
0010
0010
,
0020
0000
0000
0030
,
1000
1000
1000
0000
,
0001
0001
0001
0000
,
0010
0010
0010
0000
,
0110
0000
1001
0000
,
1000
1000
1000
0000
,
0001
0001
0001
0000
,
0010
0010
0010
0000
,
0200
0000
0000
0300
,
1000
0000
1000
0000
,
0001
0001
0001
0001
,
0100
0000
0100
0000
,
0010
0010
0010
0010
,
1000
0000
0001
0000
,
0010
0010
0010
0010
,
0010
0000
0100
0000
,
1000
0000
0001
0000
,
2002
0000
0000
3003
,
1000
0000
0010
0000
,
0001
0000
0010
0000
,
1000
0000
0010
0000
,
0100
0100
0100
0100
,
0001
0000
0100
0000
,
1000
0000
0100
0000
,
0010
0000
0100
0000
,
0001
0000
1000
0000
,
1001
0000
0000
0000
,
0110
0000
0000
0000
,
2002
0000
0000
0000
,
0000
0000
0000
0000
,
3003
0000
0000
0000
;
