#TITLE:Pure Powerstomper;
#SUBTITLE:;
#ARTIST:M-Project feat. Jonjo;
#TITLETRANSLIT:;
#SUBTITLETRANSLIT:;
#ARTISTTRANSLIT:;
#GENRE:POWERSTOMPCORE;
#CREDIT:;
#BANNER:Pure Powerstomper.png;
#BACKGROUND:Pure Powerstomper-bg.png;
#LYRICSPATH:;
#CDTITLE:cdtitle.png;
#MUSIC:Pure Powerstomper.ogg;
#OFFSET:-0.009000;
#SAMPLESTART:88.598000;
#SAMPLELENGTH:15.000000;
#SELECTABLE:YES;
#BPMS:0.000000=177.000000
,160.000000=120.000000
,161.000000=121.559998
,162.000000=120.839996
,164.000000=123.559998
,165.000000=125.120003
,166.000000=126.430008
,168.000000=127.129997
,169.000000=128.679993
,170.000000=129.619995
,172.000000=130.690002
,173.000000=132.250000
,174.000000=133.000000
,176.000000=134.250000
,177.000000=135.809998
,178.000000=136.809998
,180.000000=137.809998
,181.000000=139.369995
,182.000000=140.100006
,184.000000=141.380005
,185.000000=142.929993
,186.000000=143.889999
,188.000000=144.940002
,189.000000=146.500000
,190.000000=147.399994
,192.000000=148.500000
,193.000000=150.059998
,194.000000=150.779999
,196.000000=152.059998
,197.000000=152.619995
,198.000000=155.460007
,200.000000=155.630005
,201.000000=157.179993
,202.000000=157.800003
,204.000000=159.190002
,205.000000=160.750000
,206.000000=161.860001
,208.000000=162.750000
,209.000000=164.309998
,210.000000=165.490005
,212.000000=166.309998
,213.000000=167.869995
,214.000000=168.369995
,216.000000=169.869995
,217.000000=171.429993
,218.000000=171.660004
,220.000000=175.589996
,222.000000=176.669998
,224.000000=177.000000
;
#STOPS:
;
#BGCHANGES:;
#KEYSOUNDS:;
#ATTACKS:;

//---------------dance-single - Daff_4K----------------
#NOTES:
     dance-single:
     Daff_4K:
     Beginner:
     4:
     0.181837,0.241628,0.043148,0.000000,0.000000,177.000000,171.000000,6.000000,0.000000,0.000000,0.000000,0.181837,0.241628,0.043148,0.000000,0.000000,177.000000,171.000000,6.000000,0.000000,0.000000,0.000000:
0000
0000
0000
0000
,
0000
0000
0000
0000
,
0000
0000
0000
0000
,
0000
0000
0000
0000
,
0010
0000
0010
0000
,
0100
0000
0100
0000
,
0010
0010
0010
0010
,
0010
0000
0000
0000
,
1001
0000
0000
0000
,
1000
0000
0000
0000
,
0010
0000
0000
0000
,
0100
0000
0100
0000
,
0001
0000
0000
0000
,
0010
0000
0000
0000
,
0100
0000
0000
0000
,
1000
0000
1000
0000
,
1001
0000
0000
0000
,
0001
0000
0000
0000
,
0010
0000
0000
0000
,
0100
0000
0100
0000
,
1000
0000
0000
0000
,
0010
0000
0000
0000
,
0100
0000
0000
0000
,
1001
0000
0000
0000
,
0001
0001
0001
0000
,
0001
0000
0001
0000
,
1000
1000
1000
0000
,
1000
0000
1000
0000
,
0010
0010
0010
0000
,
0010
0000
0010
0000
,
0100
0100
0100
0000
,
0001
0000
1000
0000
,
0000
0001
0001
0000
,
0001
0000
0001
0000
,
1000
1000
1000
0000
,
1000
0000
1000
0000
,
0000
0100
0100
0000
,
0100
0000
0100
0000
,
0010
0010
0010
0000
,
0110
0000
0000
0000
,
1001
0000
0000
0000
,
0000
0000
0000
0000
,
0000
0000
0000
0000
,
0000
0000
0000
0000
,
1000
0000
1000
0000
,
1000
0000
0000
0000
,
0001
0000
0001
0000
,
0001
0000
0000
0000
,
0100
0000
0100
0000
,
0100
0000
0000
0000
,
0010
0000
0010
0000
,
0010
0000
0000
0000
,
1000
0000
1000
0000
,
1000
0000
0000
0000
,
0001
0000
0001
0000
,
0001
0000
0000
0000
,
0010
0000
0000
0000
,
0010
0000
0000
0000
,
0100
0000
0000
0000
,
0100
0000
0000
0000
,
1000
0000
0000
0000
,
1000
0000
0000
0000
,
0001
0000
0000
0000
,
0001
0000
0000
0000
,
1000
1000
0000
0000
,
0100
0000
0010
0000
,
0100
0100
0000
0000
,
0010
0000
0001
0000
,
0010
0010
0000
0000
,
0001
0000
1000
0000
,
0001
0000
1000
0000
,
0001
0001
0001
0000
,
0001
0001
0000
0000
,
0100
0000
0010
0000
,
0100
0100
0000
0000
,
0010
0000
1000
0000
,
0010
0010
0000
0000
,
1000
0000
0001
0000
,
1000
0000
0001
0000
,
1000
1000
1000
0000
,
0001
0001
0001
0000
,
1000
1000
1000
0000
,
0010
0010
0010
0000
,
0100
0000
0001
0000
,
1000
1000
1000
0000
,
0001
0001
0001
0000
,
0010
0010
0010
0000
,
0100
0000
1000
0000
,
0010
0010
0010
0000
,
0100
0100
0100
0000
,
0001
0001
0001
0000
,
1000
0000
0001
0000
,
0010
0010
0010
0000
,
0100
0100
0100
0000
,
1000
1000
1000
0000
,
0001
0000
1000
0000
,
1001
0000
0000
0000
;

//---------------dance-single - Daff_4K----------------
#NOTES:
     dance-single:
     Daff_4K:
     Easy:
     7:
     0.356483,0.414219,0.244504,0.359565,0.000000,347.000000,313.000000,34.000000,50.000000,0.000000,0.000000,0.356483,0.414219,0.244504,0.359565,0.000000,347.000000,313.000000,34.000000,50.000000,0.000000,0.000000:
0000
0000
0000
0000
,
0000
0000
0000
0000
,
0000
0000
0000
0000
,
0000
0000
0000
0000
,
2000
3010
2000
3010
,
0002
0013
0002
0013
,
2000
3100
0002
0103
,
0020
0000
0000
0030
,
0001
0001
0101
0000
,
0010
1000
1100
0000
,
0010
0001
0001
0100
,
0220
0330
2002
3003
,
1000
1000
1100
0000
,
0010
0001
0101
0000
,
0010
1000
1000
0100
,
0220
0330
2002
3003
,
0001
0001
0011
0000
,
0100
1000
1001
0000
,
0001
0100
0010
1000
,
0220
0330
2002
3003
,
1000
1000
1010
0000
,
0100
0001
1001
0000
,
1000
0100
0010
0001
,
0220
0330
2002
3003
,
1000
0010
1010
0000
,
1000
0001
0010
0100
,
1000
0001
1001
0000
,
1000
0010
0100
0001
,
0010
0100
0110
0000
,
0010
0001
1000
0010
,
0100
0001
1001
0000
,
2000
0001
0001
3001
,
0001
0010
0011
0000
,
0001
1000
0010
0100
,
0001
1000
1001
0000
,
0001
0010
0100
1000
,
0010
0100
0110
0000
,
0010
1000
0001
0010
,
0100
1000
1010
0000
,
0100
0001
0011
0000
,
2002
0000
0000
0000
,
0000
0000
0000
0000
,
0000
0000
0000
0000
,
0000
0000
3003
0000
,
2000
0000
3020
0000
,
0032
0000
0203
0000
,
2300
0000
3020
0000
,
0230
0000
0302
0000
,
1003
0100
1000
1000
,
0001
0100
0010
0010
,
1000
0100
0010
0001
,
0100
0010
1000
0000
,
0001
0100
0001
0001
,
1000
0100
0010
0010
,
0001
0100
0010
1000
,
0100
0010
0001
0000
,
1000
0010
1000
0010
,
0001
0010
0001
0010
,
1000
0100
1000
0100
,
0001
0100
0001
0100
,
1000
0010
0001
0010
,
1000
0100
0001
0100
,
1000
0010
0100
0001
,
2002
0000
0000
3003
,
1000
0100
0001
0100
,
1000
1000
0001
0001
,
0100
0010
1000
0001
,
0010
0010
0100
0100
,
1000
0010
0001
0010
,
1000
1000
0001
0001
,
0010
0100
1000
0001
,
0200
0010
0310
1001
,
0001
0100
1000
0100
,
0001
0001
1000
1000
,
0100
0010
0001
1000
,
0010
0010
0100
0100
,
0001
0010
1000
0010
,
0001
0001
1000
1000
,
0010
0100
0001
1000
,
0200
0010
0310
1001
,
1000
0010
0001
1000
,
0100
0001
0020
0230
,
1300
0010
0100
1000
,
0100
0001
2000
3002
,
0013
1000
0001
0100
,
0010
0001
2000
3002
,
0103
0010
0100
1000
,
0100
0001
0110
1001
,
0001
0010
1000
0001
,
0100
1000
0020
0230
,
0301
0010
0100
0001
,
0100
1000
0002
2003
,
3010
0001
1000
0100
,
0010
1000
0002
2003
,
3100
0010
0100
0001
,
0100
1000
1001
0110
,
1001
0000
0000
0000
;

//---------------dance-single - Daff_4K----------------
#NOTES:
     dance-single:
     Daff_4K:
     Medium:
     12:
     0.573249,0.586810,0.560921,0.417095,0.046743,558.000000,480.000000,78.000000,58.000000,0.000000,0.000000,0.573249,0.586810,0.560921,0.417095,0.046743,558.000000,480.000000,78.000000,58.000000,0.000000,0.000000:
0000
0000
0000
0000
,
0000
0000
0000
0000
,
0000
0000
0000
0000
,
0000
0000
0000
0000
,
2000
0010
0001
3100
,
0002
0010
1000
0103
,
1000
0010
0100
0001
0010
0100
1000
0000
,
2002
0000
0000
3003
,
0012
0000
1000
0000
0103
0000
0010
1000
,
0100
1000
0001
0010
0002
0000
0103
0010
,
2000
0000
0100
0000
3001
0000
1000
0010
,
0200
0301
0110
1001
,
1200
0000
0010
0000
1300
0000
0001
1000
,
0001
0100
0010
0100
0002
0000
1003
0100
,
0020
0001
0100
0031
,
0201
1300
0110
1001
,
2010
0000
0001
0000
3100
0000
0010
0001
,
0100
0001
1000
0010
2000
0000
3100
0010
,
0002
0000
0100
0000
1003
0000
0001
0010
,
0200
1300
0110
1001
,
0201
0000
0010
0000
0301
0000
1000
0001
,
1000
0100
0010
0100
2000
0000
3001
0100
,
0020
1000
0100
1030
,
0220
0330
2002
3003
,
1100
0000
0101
0000
1100
0000
1000
0001
,
0100
0010
0100
0000
0001
1000
0001
0000
,
1100
0000
0011
0000
1100
0000
1000
0001
,
1000
0010
0100
0000
0001
0010
0100
0000
,
1001
0000
0110
0000
1001
0000
0001
0100
,
0001
0010
0100
0000
1000
0010
0100
0000
,
0101
0000
1010
0000
0101
0000
0001
1000
,
0010
1001
0110
1001
,
0101
0000
1100
0000
0101
0000
0001
1000
,
0100
0010
0100
0000
1000
0001
1000
0000
,
0101
0000
1010
0000
0101
0000
0001
1000
,
0001
0010
0100
0000
1000
0010
0100
0000
,
1001
0000
0110
0000
1001
0000
1000
0100
,
1000
0010
0100
0000
0001
0010
0100
0000
,
1000
0100
0010
0000
0001
0100
0010
0000
,
2000
3002
0023
0130
,
2001
0000
0000
0000
3020
0000
0000
0000
0130
0000
0000
0001
0000
0000
0020
0000
,
0000
0000
0130
0000
0000
1000
0000
0000
0001
0000
0000
0100
0000
0000
0010
0000
,
2000
0000
0000
0000
3200
0000
0000
0000
0301
0000
0000
0100
0000
0000
2000
0000
,
0000
0000
3010
0000
0000
0001
0000
0000
0010
0000
0000
1000
0000
0000
0001
1000
,
0002
0000
0000
0000
0023
0000
0000
0000
0130
0000
0000
1000
0000
0000
0020
0000
,
0000
0000
0130
0000
0000
0001
0000
0000
1000
0000
0000
0100
0000
0000
0010
0000
,
0002
0000
0000
0000
0203
0000
0000
0000
1300
0000
0000
0100
0000
0000
0002
0000
,
0000
0000
0013
0000
0000
1000
0000
0000
0010
0000
0000
0001
0000
0000
1000
0000
,
1010
0000
0101
0000
0001
0010
1000
0000
,
1000
0010
0001
0000
0001
0100
0010
0000
,
0110
0000
1001
0000
1000
0100
0001
0000
,
0001
0100
1000
0010
0100
0001
1000
0000
,
0011
0000
1100
0000
1000
0010
0001
0000
,
0001
0010
1000
0000
1000
0100
0010
0000
,
0110
0000
1001
0000
0001
0100
1000
0000
,
1000
0100
0001
0010
0100
1000
0001
0000
,
2001
0010
0001
0010
,
3002
0010
1000
0010
,
2003
0100
0001
0100
,
3002
0100
1000
0100
,
2003
0010
0001
0100
,
3002
0010
1000
0100
,
1003
0010
1000
0000
0001
0010
0001
0000
,
2002
0000
0000
3003
,
1000
0001
0000
0101
0000
0010
1000
0001
,
1000
0100
1000
0000
0001
0100
0001
0000
,
0010
0100
0000
1001
0000
1010
0000
0100
,
0001
1000
0001
0000
0010
0100
1000
0000
,
0001
0100
0000
1010
0000
1000
0001
1000
,
0100
0010
0100
0000
1000
0001
1000
0000
,
0010
0100
0000
1001
0000
0011
0000
0100
,
2000
3002
0103
1001
,
0001
1000
0000
1100
0000
0010
0001
1000
,
0001
0100
0001
0000
1000
0100
1000
0000
,
0010
0100
0000
1001
0000
0011
0000
0100
,
1000
0001
1000
0000
0010
0100
0001
0000
,
1000
0100
0000
0011
0000
0001
1000
0001
,
0100
0010
0100
0000
0001
1000
0001
0000
,
0010
0200
0000
1300
0010
0200
0000
0301
,
2000
3001
0110
1001
,
0001
0100
0010
0100
0001
0000
1000
0010
,
0100
0010
1000
0000
0002
0000
2003
0000
,
3100
0010
0001
1000
0001
0000
0010
0100
,
1000
0001
1000
0000
0020
0000
0130
0001
,
1000
0100
0010
0100
1000
0000
0001
0010
,
0100
0010
0001
0000
2000
0000
3002
0000
,
0103
0010
1000
0001
1000
0000
0010
0100
,
0001
1001
0110
1001
,
1000
0100
0010
0001
1000
0000
0010
0100
,
0001
1000
0100
0000
0110
0000
1001
0000
,
0001
0100
0010
1000
0001
0000
0010
0100
,
1000
0001
0100
0000
0110
0000
1001
0000
,
1020
0001
1030
1001
,
0021
1000
0031
1001
,
1000
0010
0100
0001
0010
0100
1000
0000
,
1010
0101
0011
1100
,
1001
0000
0000
0000
;

//---------------dance-single - Daff_4K----------------
#NOTES:
     dance-single:
     Daff_4K:
     Hard:
     15:
     0.695501,0.724883,0.589686,0.546538,0.197761,677.000000,595.000000,82.000000,76.000000,0.000000,0.000000,0.695501,0.724883,0.589686,0.546538,0.197761,677.000000,595.000000,82.000000,76.000000,0.000000,0.000000:
0000
0000
0000
0000
,
0000
0000
0000
0000
,
0000
0000
0000
0000
,
0000
0000
0000
0000
,
0020
1000
0001
1000
,
0230
0001
1000
0001
,
0310
1000
0100
0010
0001
0100
0010
2000
,
0002
0000
0000
3003
,
0201
0000
1000
0000
0301
0000
1000
0100
,
0001
0100
1000
0010
0002
0000
0013
2000
,
0100
0000
0001
0000
3010
0000
0100
0001
,
0010
1000
0010
0001
0100
0000
1010
0000
,
1002
0000
0010
0000
0103
0000
0010
1000
,
0100
0001
1000
0010
0002
0000
0103
0020
,
1000
0000
0100
0000
0031
0000
0010
1000
,
0200
0301
0110
1001
,
1200
0000
0001
0000
1300
0000
0001
0100
,
1000
0100
0001
0010
2000
0000
3010
0002
,
0100
0000
1000
0000
0013
0000
0100
1000
,
0010
0001
0010
1000
0100
0000
0011
0000
,
2001
0000
0010
0000
3100
0000
0010
0001
,
0100
1000
0001
0010
2000
0000
3100
0020
,
0001
0000
0100
0000
1030
0000
0010
0001
,
2002
3003
0110
1001
,
1010
0000
0101
0000
1001
0000
1000
0100
,
0001
0100
1000
0010
0100
0001
1000
0100
,
0110
0000
1001
0000
1010
0000
0100
0001
,
0010
1000
0001
0100
1000
0010
0100
0001
,
0011
0000
1100
0000
1001
0000
0001
0100
,
1000
0100
0001
0010
0100
1000
0001
0100
,
0110
0000
1001
0000
0011
0000
0100
1000
,
1010
0000
0000
0000
0101
0000
0000
0000
0001
0000
0000
1000
0000
0000
0100
0000
,
0110
0000
1001
0000
0101
0000
0010
1000
,
0001
0010
1000
0010
0001
1000
0010
0100
,
0101
0000
1010
0000
1001
0000
0001
0010
,
0100
0010
1000
0010
0001
1000
0010
0100
,
0110
0000
1001
0000
1100
0000
0010
0001
,
1000
0010
0001
0010
1000
0001
0010
0100
,
1000
0001
0101
0000
0001
1000
1100
0000
,
1000
0000
0001
1000
0001
0000
0100
0000
0010
0000
1000
0000
0001
0000
0000
0000
,
0022
0000
0033
0000
2200
0000
3300
0000
0020
0000
0030
0002
0000
0003
0200
0000
,
2300
0000
3002
0000
0003
0020
0000
0030
2000
0000
3000
0200
0000
0300
0010
0000
,
0220
0000
0330
0000
2002
0000
3003
0000
2000
0000
3000
0020
0000
0030
0002
0000
,
2003
0000
3200
0000
0300
0002
0000
0003
0020
0000
0030
0200
0000
0300
1000
0000
,
2020
0000
3030
0000
0202
0000
0303
0000
0020
0000
0030
2000
0000
3000
0200
0000
,
0302
0000
2003
0000
3000
0020
0000
0030
0002
0000
0003
0200
0000
0300
0010
0000
,
0220
0000
0330
0000
2002
0000
3003
0000
0002
0000
0003
0020
0000
0030
2000
0000
,
3002
0000
0203
0000
0300
2000
0000
3000
0020
0000
0030
0200
0000
0300
0001
0000
,
0011
0000
0000
0000
1100
0000
0000
0000
1000
0000
0010
1000
0000
0010
0100
0000
,
0001
0000
1000
0001
0000
1000
0100
0000
0010
0000
0001
0000
1000
0000
0010
0000
,
0110
0000
0000
0000
1001
0000
0000
0000
1000
0000
0100
0010
0000
0100
1000
0000
,
0001
0000
0100
0010
0000
0100
0001
0000
1000
0000
0010
0000
0100
0000
0001
0000
,
0011
0000
0000
0000
1100
0000
0000
0000
1000
0000
0010
1000
0000
0010
0100
0000
,
0001
0000
1000
0001
0000
1000
0100
0000
0010
0000
0001
0000
1000
0000
0010
0000
,
0110
0000
0000
0000
1001
0000
0000
0000
1000
0000
0100
0010
0000
0100
1000
0000
,
0001
0000
0100
0010
0000
0100
0001
0000
1000
0000
0010
0000
0100
0000
0001
0000
,
0021
1000
0100
0031
,
0102
0010
1000
0103
,
1020
0001
0100
1030
,
2100
0010
0001
3100
,
0012
1000
0010
0103
,
2010
0001
0010
3100
,
1000
0001
0100
0010
1000
0100
0010
0001
,
2002
0000
0000
3003
,
1000
0000
0001
0000
0000
0000
1100
0000
0000
0000
0010
0000
0001
1000
0001
0000
,
1000
0010
0001
0010
1000
0100
0001
0100
,
0010
0000
0001
0000
0000
0000
0110
0000
0000
0000
1001
0000
0000
0000
1000
0010
,
1000
0010
0001
0010
1000
0100
0010
0001
,
1000
0000
0010
0000
0000
0000
0101
0000
0000
0000
0001
0000
1000
0001
1000
0000
,
0100
0001
1000
0010
0100
0010
0001
1000
,
0100
0001
0000
0110
0000
1001
0000
1000
,
0020
0000
0001
0000
1030
0001
1000
0000
,
0001
0000
1000
0000
0000
0000
0101
0000
0000
0000
0010
0000
1000
0001
1000
0000
,
0001
0010
1000
0010
0001
0100
1000
0100
,
0010
0000
1000
0000
0000
0000
0110
0000
0000
0000
1001
0000
0000
0000
0001
0010
,
0001
0010
1000
0010
0001
0100
0010
1000
,
0001
0000
0010
0000
0000
0000
1100
0000
0000
0000
1000
0000
0001
1000
0001
0000
,
0100
1000
0001
0010
0100
0010
1000
0001
,
0010
0110
0000
1000
0010
0110
0000
0001
,
0011
1100
1010
0101
,
0001
0000
0010
0000
0100
1000
0100
0000
1000
0000
0010
0000
0001
0000
0010
0000
,
0100
0001
0100
0000
0001
0000
1000
0000
0100
0000
0001
0000
0100
0000
1000
0000
,
0010
0000
0100
0000
0001
1000
0001
0000
1000
0000
0100
0000
0001
0000
0100
0000
,
0010
0100
0010
0000
0001
1000
0001
0000
1000
0000
0100
0000
0010
0000
0001
0000
,
1000
0000
0010
0000
0100
0001
0100
0000
0001
0000
0010
0000
1000
0000
0010
0000
,
0100
1000
0100
0000
1000
0000
0001
0000
0100
0000
1000
0000
0100
0000
0001
0000
,
0010
0000
0100
0000
1000
0001
1000
0000
0001
0000
0100
0000
1000
0000
0100
0000
,
0110
0000
0000
0000
1001
0000
0000
0000
0010
0000
0000
0100
0000
0000
1001
0000
,
0001
0000
0100
0000
0010
1000
0010
0000
1000
0000
0100
0000
0001
0000
0100
0000
,
0010
0100
0010
0000
0001
1000
0001
0000
1000
0000
0010
0000
0100
0000
0001
0000
,
1000
0000
0100
0000
0010
0001
0010
0000
0001
0000
0100
0000
1000
0000
0100
0000
,
0010
0100
0010
0000
1000
0001
1000
0000
0001
0000
0010
0000
0100
0000
1000
0000
,
0001
0000
0100
0000
0010
0000
0100
0000
1000
0000
0100
0000
0001
0000
1000
0001
,
1000
0000
0100
0000
0010
0000
0100
0000
0001
0000
0100
0000
1000
0000
0001
1000
,
0001
0100
0010
1000
0100
0010
0001
1000
,
1010
0000
0000
0000
0101
0000
0000
0000
0011
0000
0000
1100
0000
0000
0001
1000
,
0001
0000
0000
0000
;

//---------------dance-single - Daff_4K----------------
#NOTES:
     dance-single:
     Daff_4K:
     Challenge:
     16:
     0.825972,0.897474,0.568112,0.381139,0.492604,804.000000,725.000000,79.000000,53.000000,0.000000,0.000000,0.825972,0.897474,0.568112,0.381139,0.492604,804.000000,725.000000,79.000000,53.000000,0.000000,0.000000:
// measure 0
0000
0000
0000
0000
,  // measure 1
0000
0000
0000
0000
,  // measure 2
0000
0000
0000
0000
,  // measure 3
0000
0000
0000
0000
,  // measure 4
1010
0011
0101
1001
,  // measure 5
0011
1010
1100
1001
,  // measure 6
0001
0000
0100
0000
0010
0000
1000
0000
0100
0010
0100
0010
0001
1000
0001
2000
,  // measure 7
0002
0000
0000
3003
,  // measure 8
1100
0000
0011
0000
1001
0000
1000
0001
,  // measure 9
0010
0010
0100
0100
1000
0010
0100
0001
,  // measure 10
0011
0000
1100
0000
1001
0000
0001
0100
,  // measure 11
1000
1000
0100
0100
0010
1000
1001
0000
,  // measure 12
0101
0000
1010
0000
1001
0000
0001
1000
,  // measure 13
0010
0010
0100
0100
0001
0010
0100
1000
,  // measure 14
1010
0000
0101
0000
1001
0000
1000
0100
,  // measure 15
0001
0001
0100
0100
0010
0001
1001
0000
,  // measure 16
1010
0000
0101
0000
0011
0000
0100
1000
,  // measure 17
0010
0010
0001
0001
0010
0100
0001
1000
,  // measure 18
1100
0000
0011
0000
1001
0000
1000
0010
,  // measure 19
0001
0001
1000
1000
0100
0001
1000
0001
,  // measure 20
0011
0000
1100
0000
1010
0000
0100
0001
,  // measure 21
0010
0010
1000
1000
0010
0100
1000
0001
,  // measure 22
0101
0000
1010
0000
1001
0000
0001
0010
,  // measure 23
0220
0000
0330
0000
2002
0000
3003
1000
,  // measure 24
0020
0100
0000
0000
0230
0001
0000
0000
0302
1000
0000
0000
1003
0000
0100
0010
,  // measure 25
0100
0010
0001
0100
1000
0100
0001
0010
,  // measure 26
0200
1000
0000
0000
2300
0001
0000
0000
3002
0100
0000
0000
0103
0000
0010
1000
,  // measure 27
0010
0000
1000
0000
0100
0000
0001
0000
0100
0000
1000
0001
1000
0000
0001
0000
,  // measure 28
0020
0100
0000
0000
0230
1000
0000
0000
2300
0001
0000
0000
3001
0000
0100
0010
,  // measure 29
0100
0010
1000
0100
0001
0100
1000
0010
,  // measure 30
0200
0001
0000
0000
0302
1000
0000
0000
2003
0100
0000
0000
3100
0000
0010
0000
,  // measure 31
0022
0000
0033
0000
2200
0000
3300
0000
1001
0000
0000
0110
0000
0000
1001
0000
,  // measure 32
0000
0000
0001
0000
2000
0010
0000
0000
3020
0001
0000
0000
0031
0000
0010
1000
,  // measure 33
0010
1000
0100
0001
0100
0010
0001
1000
,  // measure 34
0020
0100
0000
0000
0230
0001
0000
0000
0302
1000
0000
0000
1003
0000
0100
0010
,  // measure 35
0100
0000
0010
0000
0001
0000
0100
0000
1000
0000
0100
0001
0100
0001
1000
0000
,  // measure 36
2002
0000
3003
0000
0002
0010
0000
0000
0023
1000
0000
0000
1030
0000
0010
0001
,  // measure 37
0010
0001
0100
1000
0100
0010
1000
0001
,  // measure 38
1000
0000
0100
0000
0110
0000
0000
0010
0001
0000
0100
0000
0110
0000
0000
0010
,  // measure 39
1000
0000
0001
1000
0001
0000
0100
0000
1000
0000
0100
0000
0001
0000
1000
0000
,  // measure 40
1002
0000
0000
0000
0010
0000
0000
0000
0100
0000
0000
0010
0000
0000
1000
0000
,  // measure 41
0100
0000
0010
0000
0000
0100
0000
0000
1000
0000
0000
0010
0000
0000
1000
0000
,  // measure 42
2003
0000
0000
0000
0010
0000
0000
0000
0100
0000
0000
0010
0000
0000
0001
0000
,  // measure 43
0100
0000
0010
0000
0000
0100
0000
0000
0001
0000
0000
0010
0000
0000
3001
0100
,  // measure 44
0020
0000
0000
0000
1000
0000
0000
0000
0100
0000
0000
0001
0000
0000
0100
0000
,  // measure 45
1000
0000
0100
0000
0000
0001
0000
0000
0100
0000
0000
1000
0000
0000
0100
0000
,  // measure 46
0230
0000
0000
0000
0001
0000
0000
0000
0010
0000
0000
1000
0000
0000
0010
0000
,  // measure 47
0001
0000
0010
0000
0000
1000
0000
0000
0010
0000
0000
0001
0000
0000
0310
1000
,  // measure 48
0001
0000
0100
0001
0100
0000
0010
0000
1000
0000
0001
0010
0000
0010
1000
0000
,  // measure 49
0010
0000
0001
0100
0000
0010
0100
0000
0001
1000
0000
0100
1000
0000
0010
0000
,  // measure 50
0100
0000
0001
1000
0001
0000
1000
0000
0100
0000
0010
0001
0000
0001
1000
0000
,  // measure 51
0010
0000
0100
0001
0000
1000
0001
0000
0010
0100
0000
0010
0001
0000
1000
0001
,  // measure 52
1000
0000
0100
1000
0100
0000
0010
0000
0001
0000
1000
0010
0000
0010
0001
0000
,  // measure 53
0010
0000
1000
0100
0000
0010
0100
0000
1000
0001
0000
0100
0001
0000
0010
0000
,  // measure 54
0100
0000
1000
0001
1000
0000
0001
0000
0100
0000
0010
1000
0000
1000
0001
0000
,  // measure 55
0010
0000
0100
1000
0000
0001
1000
0000
0010
0100
0010
0000
1000
0000
0001
1000
,  // measure 56
0001
0010
0100
0010
1000
0010
0001
1000
,  // measure 57
0010
0100
0010
0001
0010
1000
0001
0100
,  // measure 58
1000
0001
0010
0100
0001
1000
0100
0001
,  // measure 59
1000
0010
0100
1000
0001
0100
1000
0010
,  // measure 60
1000
0100
0001
1000
0100
0001
0010
0001
,  // measure 61
0100
1000
0001
0100
0010
1000
0100
0010
,  // measure 62
0001
0100
0001
0000
1000
0100
1000
0000
0010
0100
0010
0100
0001
1000
0001
2000
,  // measure 63
0002
0000
0000
3003
,  // measure 64
1000
0000
0001
0000
0100
0000
0110
0000
0000
0000
1001
0000
1000
0100
1000
0000
,  // measure 65
0001
0100
1000
0001
0010
1000
0100
0010
,  // measure 66
0001
0000
0101
0000
0000
0000
1010
0000
0000
0000
1001
0000
0001
0000
0010
0001
,  // measure 67
0010
0000
0100
0000
1000
0000
0010
0000
0001
0000
0010
0100
0010
0000
0100
0000
,  // measure 68
0001
0000
1001
0000
0000
0000
0110
0000
0000
0000
1001
0000
1000
0010
1000
0000
,  // measure 69
0001
0100
0010
1000
0100
0001
0100
1000
,  // measure 70
0010
0000
0110
0000
0000
0000
1001
0000
0000
0000
0011
0000
0010
0000
0100
1000
,  // measure 71
0100
1000
0010
0100
0001
1000
2002
3003
,  // measure 72
0001
0000
1000
0000
0100
0000
0110
0000
0000
0000
1001
0000
0001
0100
0001
0000
,  // measure 73
1000
0100
0001
1000
0010
0001
0100
0010
,  // measure 74
1000
0000
1100
0000
0000
0000
0011
0000
0000
0000
1001
0000
1000
0000
0010
1000
,  // measure 75
0010
0000
0100
0000
0001
0000
0010
0000
1000
0000
0010
0100
0010
0000
0100
0000
,  // measure 76
1000
0000
1001
0000
0000
0000
0110
0000
0000
0000
1001
0000
0001
0010
0001
0000
,  // measure 77
1000
0100
0010
0001
0100
1000
0100
0001
,  // measure 78
0100
0000
0110
0000
0000
0010
1000
0000
0100
0000
0110
0000
0000
0010
0001
0000
,  // measure 79
0202
0000
0303
0000
2020
0000
3030
0000
0100
0010
0100
0000
2002
0000
3003
0000
,  // measure 80
1000
0000
0010
0000
0100
0010
0100
0000
0001
1000
0001
0000
1000
0000
0100
0000
,  // measure 81
0010
0100
0010
0000
0001
1000
0001
0000
1000
0000
0010
0000
0001
0000
0010
0000
,  // measure 82
1000
0000
0001
0000
0010
0100
0010
0000
0001
1000
0001
0000
0100
0000
0010
0000
,  // measure 83
1000
0001
1000
0000
0100
0010
0100
0010
0001
0000
0100
0000
0010
0000
1000
0000
,  // measure 84
0001
0000
0010
0000
0100
0010
0100
0000
1000
0001
1000
0000
0001
0000
0100
0000
,  // measure 85
0010
0100
0010
0000
1000
0001
1000
0000
0001
0000
0010
0000
1000
0000
0010
0000
,  // measure 86
0001
0000
1000
0000
0010
0100
0010
0000
1000
0001
1000
0000
0100
0000
0010
0000
,  // measure 87
0022
0000
0033
0000
2200
0000
3300
0000
1001
0000
0000
0110
0000
0000
1001
0000
,  // measure 88
0001
0000
0100
0000
0010
1000
0010
0000
1000
0001
1000
0000
0001
0000
0010
0000
,  // measure 89
0100
1000
0100
0000
1000
0001
1000
0001
0100
0000
1000
0000
0001
0000
0010
0000
,  // measure 90
1000
0000
0100
0000
0010
0001
0010
0000
0001
1000
0001
0000
1000
0000
0010
0000
,  // measure 91
0100
0001
0100
0000
0001
1000
0001
1000
0100
1000
0100
0000
0010
0000
0001
0000
,  // measure 92
1000
0010
1000
0000
0001
0010
0001
0000
0100
0010
0100
0000
0001
0000
1000
0000
,  // measure 93
0001
0010
0001
0000
1000
0010
1000
0000
0100
0010
0100
0000
1000
0000
0001
0000
,  // measure 94
1000
0100
1000
0000
0001
0100
0001
0000
1000
0010
0100
0010
0100
0001
1000
0000
,  // measure 95
2200
0000
3300
0000
0022
0000
0033
0000
0110
0000
0000
1001
0000
0000
0010
0100
,  // measure 96
0010
0000
0000
0000
;
