#TITLE:Prophesy One;
#SUBTITLE:;
#ARTIST:vox2(小野秀幸);
#TITLETRANSLIT:;
#SUBTITLETRANSLIT:;
#ARTISTTRANSLIT:vox2 (Hideyuki Ono);
#GENRE:PROGRESSIVE ROCK;
#CREDIT:;
#BANNER:Prophesy One.png;
#BACKGROUND:Prophesy One-bg.png;
#LYRICSPATH:;
#CDTITLE:cdtitle.png;
#MUSIC:Prophesy One.ogg;
#OFFSET:-0.130000;
#SAMPLESTART:37.245998;
#SAMPLELENGTH:15.000000;
#SELECTABLE:YES;
#BPMS:0.000000=120.000000
,68.000000=240.000000
,76.000000=264.000000
,335.000000=132.000000
,351.000000=264.000000
;
#STOPS:
;
#BGCHANGES:0.000=Prophesy One.avi=1.000=0=0=0=StretchNoLoop==CrossFade_Fastest==,
99999=-nosongbg-=1.000=0=0=0 // don't automatically add -songbackground-
;
#KEYSOUNDS:;
#ATTACKS:;

//---------------dance-single - Daff_4K----------------
#NOTES:
     dance-single:
     Daff_4K:
     Beginner:
     5:
     0.207173,0.350211,0.269987,0.000000,0.000000,188.000000,153.000000,35.000000,0.000000,0.000000,0.000000,0.207173,0.350211,0.269987,0.000000,0.000000,188.000000,153.000000,35.000000,0.000000,0.000000,0.000000:
0000
0000
0000
0000
,
0000
0000
0000
0000
,
0000
0000
0000
0000
,
0000
0000
0000
0000
,
1000
0000
0001
0000
,
0010
0000
0000
0000
,
0100
0000
0000
0000
,
1000
0000
0000
0000
,
0010
0000
0000
0000
,
0100
0000
0000
0000
,
0001
0000
0001
0000
,
1000
0000
1000
0000
,
0100
0000
0000
0000
,
0010
0000
0000
0000
,
0001
0000
0001
0000
,
1000
0000
1000
0000
,
0010
0000
0100
0000
,
1001
0000
0000
0000
,
0000
0000
0000
0000
,
0000
0000
0000
0000
,
0000
1001
0000
0000
,
0010
0000
0110
0000
,
0000
0001
0000
1001
,
0000
0000
0100
0000
,
0110
0000
0000
1000
,
0000
1000
0000
0000
,
0000
0001
0000
0000
,
0000
1001
0000
0000
,
0010
0000
0110
0000
,
0000
1000
0000
1001
,
0000
0000
0100
0000
,
0110
0000
0000
0001
,
0000
0001
0000
0000
,
0000
1000
0000
0000
,
0000
0010
0000
0000
,
0000
0100
0000
0000
,
0000
0001
0000
0000
,
0000
1000
0000
1000
,
0000
0100
0000
0000
,
0000
0010
0000
0000
,
0000
0001
0000
0000
,
0000
1000
0000
0001
,
0000
0010
0000
0000
,
0000
0100
0000
0000
,
0000
1000
0000
0000
,
0000
0001
0000
0001
,
0000
0100
0000
0000
,
0000
0010
0000
0000
,
0000
1000
0000
0000
,
0000
0001
0000
1000
,
0000
0100
0000
0000
,
0000
0010
0000
0001
,
0000
1000
0000
0000
,
0000
0001
0000
0000
,
0000
0100
0000
0000
,
0000
0010
0000
1000
,
0000
0001
0000
0000
,
0000
1000
0000
0000
,
0000
0001
0000
0000
,
0000
0010
0000
0100
,
0000
1000
0000
0000
,
0000
0001
0000
0000
,
0000
1000
0000
0000
,
0000
0010
0000
0100
,
0000
0110
0000
0000
,
1001
0000
0000
0000
,
0110
0000
0000
1001
,
0000
0000
0000
0001
,
0000
0000
0000
0100
,
0000
0100
0000
0010
,
0000
0010
0000
1000
,
0000
0001
0000
1000
,
0000
0000
0000
0100
,
0000
0100
0000
0010
,
0000
0010
0000
0001
,
0000
1000
0000
0001
,
0000
0001
0000
0100
,
0000
0100
0000
0010
,
0000
0010
0000
1000
,
0000
1000
0000
0100
,
0000
0010
0000
0100
,
0000
0010
0000
0001
,
0000
1000
0000
0001
,
0000
0000
0000
1001
,
0000
0000
0000
0000
,
0000
0000
0000
0000
,
0000
0000
0000
0000
,
0000
0000
0000
1000
,
0000
1000
0000
0001
,
0000
0001
0000
0100
,
0000
0100
0000
0010
,
0000
1000
0000
0001
,
0000
0001
0000
1000
,
0000
1000
0000
1001
,
0000
0000
0110
0000
,
0000
0000
1001
0000
,
0000
0110
0000
0000
,
0000
1001
0000
0000
,
0001
0000
0110
0000
,
0000
0100
0000
1001
,
0000
0000
1000
0000
,
0110
0000
0000
0010
,
0000
1001
0000
0000
,
1000
0000
0110
0000
,
0000
0100
0000
1001
,
0000
0000
0001
0000
,
0110
0000
0000
0010
,
0000
1001
0000
0000
,
0110
0000
0000
0000
,
1001
0000
0000
0110
,
0000
0000
0000
1001
,
0000
0000
0110
0000
,
0000
0000
1001
0000
,
0110
0000
1001
0000
;

//---------------dance-single - Daff_4K----------------
#NOTES:
     dance-single:
     Daff_4K:
     Easy:
     7:
     0.299740,0.396591,0.053997,0.215989,0.000000,272.000000,265.000000,7.000000,28.000000,0.000000,0.000000,0.299740,0.396591,0.053997,0.215989,0.000000,272.000000,265.000000,7.000000,28.000000,0.000000,0.000000:
0000
0000
0000
0000
,
0000
0000
0000
0000
,
0000
0000
0000
0000
,
0000
0000
0000
0000
,
1000
0100
0001
0100
,
2000
0000
3010
0000
,
0002
0000
0013
0000
,
0200
0000
0310
0000
,
2000
0100
0100
3000
,
0002
0100
0100
0003
,
0010
0010
0100
0100
,
0001
1000
0100
0010
,
0002
0100
0100
0003
,
2000
0100
0100
3000
,
0020
0100
0100
0030
,
1000
1000
0001
0001
,
0020
0000
0130
0000
,
1001
0000
0000
0000
,
0000
0000
0000
0000
,
0000
0000
0000
0000
,
0000
0000
1000
0000
0000
1000
0000
0000
,
0010
0000
0100
0000
0001
0000
0000
0001
,
0000
1000
0100
0010
,
0000
0010
0000
0000
0001
0000
1000
0000
,
0010
0000
0000
0010
0000
0000
0100
0000
,
0001
1000
0100
1000
,
0000
0001
0100
0001
,
0000
0000
0001
0000
0000
0001
0000
0000
,
0010
0000
0100
0000
1000
0000
0000
1000
,
0000
0001
0100
0010
,
0000
0010
0000
0000
1000
0000
0001
0000
,
0010
0000
0000
0010
0000
0000
0100
0000
,
1000
0001
0100
0001
,
0000
1000
0100
1000
,
0000
0001
0000
0100
,
0000
0010
0000
0100
,
0000
0001
0000
1000
,
0000
0001
0000
0010
,
0100
1000
0000
0100
,
0000
0010
0000
0100
,
0000
1000
0000
0001
,
0000
1000
0000
0010
,
0100
0001
0000
1000
,
0000
0100
0000
1000
,
0000
0010
0000
0100
,
0000
0010
0000
1000
,
0001
1000
0000
0001
,
0000
0100
0000
0001
,
0000
0010
0000
0100
,
0000
0010
0000
0001
,
1000
0002
0000
0103
,
0000
0020
0000
1030
,
0000
0002
0000
0010
,
0000
1000
0000
0013
,
0000
0200
0000
1300
,
0000
0002
0000
0103
,
0000
0020
0000
0100
,
0000
1000
0000
0130
,
0001
2000
0000
3100
,
0000
0020
0000
0031
,
0000
2000
0000
0010
,
0000
0001
0000
3010
,
0000
0200
0000
0301
,
0000
2000
0000
3100
,
0000
0000
1000
0000
0000
0001
0000
0000
,
0100
0000
0000
0010
0000
0100
0000
0000
,
0001
0000
0000
1000
0000
0000
0200
0000
,
0000
0300
0000
2000
,
0000
3010
0000
0002
,
0000
0013
0000
1000
,
0000
0001
0000
0010
,
0100
0010
0000
0002
,
0000
0103
0000
2000
,
0000
3100
0000
0001
,
0000
1000
0000
0010
,
0100
0010
0000
1000
,
0000
1100
0000
0001
,
0000
0101
0000
1000
,
0000
1010
0000
0001
,
0000
0011
0000
1000
,
0100
1000
0000
0001
,
0100
0001
0000
0010
,
0100
0010
0000
0001
,
0000
1000
0000
1001
,
0000
0000
0000
0000
,
0000
0000
0000
0000
,
0000
0000
0000
0000
,
0000
0000
0000
0001
,
0000
0100
0000
1000
,
0000
0100
0000
0001
,
0000
0010
0000
1000
,
0000
0010
0000
0001
,
0000
1000
0000
0010
,
0000
0100
0000
0001
,
0000
1000
0000
0000
0100
0000
0000
0010
,
0000
0100
0000
0000
1000
0000
0000
0001
,
0000
0200
0000
0300
,
0000
0000
0001
0000
0000
0010
0000
0000
,
0001
0000
1000
0000
0001
0000
0000
0100
,
0000
0001
0001
1000
,
0000
0010
0000
0000
1000
0000
0001
0000
,
1000
0000
0000
0100
0000
0000
1000
0000
,
1000
0000
0010
0000
0000
0100
0000
0000
,
0010
0000
1000
0000
0001
0000
0000
1000
,
0000
0100
0100
0010
,
0000
0100
0000
0000
0010
0000
0001
0000
,
1000
0000
0000
0001
0000
0000
0100
0000
,
0100
0000
0001
0000
0000
1000
0000
0000
,
0100
0000
0000
0010
0000
0100
0000
0000
,
1000
0000
0000
0001
0000
0000
0100
0000
,
0000
0010
0000
0100
0000
0000
0001
0000
,
0000
1000
0000
0000
0010
0000
0000
0100
,
0000
0010
0000
0000
1000
0000
0000
0001
,
0000
2002
0000
0000
,
0000
3003
0000
0000
;

//---------------dance-single - Daff_4K----------------
#NOTES:
     dance-single:
     Daff_4K:
     Medium:
     12:
     0.489282,1.057577,0.092567,0.246845,0.038570,444.000000,432.000000,12.000000,32.000000,0.000000,0.000000,0.489282,1.057577,0.092567,0.246845,0.038570,444.000000,432.000000,12.000000,32.000000,0.000000,0.000000:
0000
0000
0000
0000
,
0000
0000
0000
0000
,
0000
0000
0000
0000
,
0000
0000
0000
0000
,
1000
1000
0001
0001
0100
0010
1000
0001
,
0020
1000
0001
0130
,
2000
3010
0002
0013
,
2000
3100
0002
0103
,
2000
0000
0010
0000
0001
0000
3100
0010
,
0002
0000
0100
0000
1000
0000
0013
0100
,
1000
0010
1000
0000
0001
0010
0001
0000
1000
0100
1000
0000
0001
0100
0001
0000
,
0010
0100
1000
0000
0010
0100
0001
0000
0010
0100
0010
0000
0100
0000
1000
0000
,
0002
0000
0010
0000
1000
0000
0103
0010
,
2000
0000
0100
0000
0001
0000
3010
0100
,
0002
0000
0103
0010
2000
0000
3100
0010
,
0001
0000
1000
0100
1000
0000
0001
0100
0001
0000
0010
0100
0010
0000
0001
0000
,
1000
0010
0100
0001
0010
0100
1000
0000
,
2002
0000
0000
0000
,
0000
0000
0000
0000
,
0000
0000
0000
0000
,
3003
0000
0001
0000
0100
0010
0000
0000
,
1000
0000
0001
0000
0010
0000
0100
1000
,
0000
0001
0100
0010
,
1000
0001
0000
0000
0010
0000
0100
0000
,
1000
0000
0001
0100
0000
0000
0010
0000
,
1000
0100
0010
0100
,
0001
0100
1000
0001
,
0001
0000
1000
0000
0100
0010
0000
0000
,
0001
0000
1000
0000
0010
0000
0100
0001
,
0000
1000
0100
0010
,
0001
1000
0000
0000
0010
0000
0100
0000
,
0001
0000
1000
0100
0000
0000
0010
0000
,
0001
0100
0010
0100
,
1000
0100
0001
1000
,
1000
0001
0100
0010
,
0100
1000
0100
0001
,
0010
0100
0010
1000
,
0010
0000
0001
0100
0000
0000
0010
1000
,
0000
0100
0010
0100
,
0001
0100
1000
0001
,
1000
0010
0100
0001
,
0010
0000
0100
1000
0000
0001
1000
0000
,
0010
1000
0100
0010
,
0100
0001
0100
1000
,
0010
0100
0010
0001
,
0010
0000
1000
0100
0000
0000
0010
0001
,
0000
0100
0010
0100
,
1000
0100
0001
1000
,
0001
0010
0100
1000
,
0010
0000
0100
0001
0000
1000
0001
0000
,
0010
0002
0000
0103
,
0010
0000
2000
0000
0000
0100
0000
0000
,
3100
0010
0001
0100
,
0010
0000
0100
0000
0001
0010
0000
0010
,
0100
2000
0000
3010
,
0100
0000
0002
0000
0000
1000
0000
0000
,
1003
0100
0010
0001
,
1000
0000
0010
0000
0100
0001
0000
0100
,
0001
2000
0000
3100
,
0010
0000
0002
0000
0000
0100
0000
0000
,
0103
0010
1000
0100
,
0010
0000
0100
0000
1000
0010
0000
0010
,
0100
0002
0000
0013
,
0100
0000
2000
0000
0000
0001
0000
0000
,
3001
0000
0100
0010
0000
1000
0000
0000
,
0100
0010
0000
0001
0000
1000
0000
0000
,
1010
0000
0000
0101
0000
0000
2002
0000
,
0000
3003
0000
2000
,
0100
0000
3100
0002
,
0100
0000
0103
1000
,
0010
0100
0001
0010
,
0100
1000
0001
2000
,
0010
0000
3010
0002
,
0010
0000
0013
1000
,
0100
0001
0100
1000
,
0001
0000
0100
0000
0010
0000
1000
0100
,
0000
0000
0100
0010
0000
0000
0010
0001
,
0000
0000
0001
0100
0000
0000
0100
0010
,
0000
0000
0010
1000
0000
0000
1000
0001
,
0000
0000
0001
1000
0000
0000
1000
0000
,
0100
0001
0100
1000
,
0001
0100
1000
0100
,
0001
1000
0001
0020
,
0000
0130
0000
1001
,
0000
0000
0000
0000
,
0000
0000
0000
0000
,
0000
0000
0000
0000
,
0000
0000
0000
1000
,
0010
0100
0001
0010
,
0100
1000
0001
0100
,
0010
1000
0100
0010
,
0001
1000
0000
1001
,
0000
0001
0100
1000
,
0100
0000
0001
0000
1000
0000
0100
0010
,
0000
0001
0000
0000
0100
0010
0000
1000
,
0000
0001
0000
0000
0011
0000
0000
1100
,
0000
2002
0000
3003
,
0000
0000
0001
0000
0100
0010
0000
0000
,
0100
0000
0001
0000
1000
0000
0100
0010
,
0000
0100
0010
0000
0001
0000
1000
0000
,
0100
0010
0000
0000
0100
0000
1000
0000
,
0001
0000
0100
0010
0000
0100
0010
0000
,
1000
0000
0001
0000
0010
0100
0000
0100
,
0010
0000
0001
0000
1000
0000
0010
0100
,
0000
0001
0100
0000
0010
0000
1000
0000
,
0010
0100
0000
0100
0010
0000
1000
0000
,
0001
0000
0010
0100
0000
1000
0100
0000
,
0010
0000
0001
1000
0000
0010
0000
0000
,
0100
0001
0000
0010
0000
0100
0000
0000
,
1000
0001
0000
0010
0000
0000
0100
1000
,
0000
0010
0000
0100
0000
0000
0001
1000
,
0000
0100
0000
0000
1000
0001
0000
0100
,
0000
0010
0000
0000
1001
0000
0000
0110
,
0000
2002
0000
0000
,
0000
3003
0000
0000
;

//---------------dance-single - Daff_4K----------------
#NOTES:
     dance-single:
     Daff_4K:
     Hard:
     16:
     0.802246,1.410102,0.694252,0.269987,0.111852,728.000000,638.000000,90.000000,35.000000,0.000000,0.000000,0.802246,1.410102,0.694252,0.269987,0.111852,728.000000,638.000000,90.000000,35.000000,0.000000,0.000000:
0000
0000
0000
0000
,
0000
0000
0000
0000
,
0000
0000
0000
0000
,
0000
0000
0000
0000
,
0010
0000
1100
0000
0010
0000
0101
0000
0010
0000
0100
0000
1001
0000
1000
0200
,
0001
1000
0001
0310
,
1002
0103
2001
3100
,
0012
0000
0103
0010
2010
0000
3100
0010
,
0002
0000
0100
0000
0100
0000
1000
0000
1000
0000
0013
0000
0001
0000
0100
0010
,
2000
0100
0100
0001
0001
3010
1000
0100
,
0010
0001
0100
0001
0010
0100
1000
0010
1000
0100
1000
0010
0100
0001
1000
0100
,
0010
0001
0010
0100
1000
0001
0100
0010
1000
0010
0100
0001
1000
0100
0010
0000
,
0002
0000
1000
0000
1000
0000
0100
0000
0100
0000
0013
0000
0001
0100
0010
0000
,
2000
0000
0001
0000
0001
0000
0100
0000
0100
0000
3010
0000
1000
0100
0010
0001
,
2000
0000
0010
0000
3010
0000
0100
0000
0002
0000
0010
0000
0013
0000
0100
1000
,
0010
0000
0100
0001
0010
0100
0010
0100
1000
0001
1000
0001
0100
0010
1000
0001
,
2000
0000
0010
0000
3002
0000
0010
0000
0203
0000
0010
0000
0301
0000
1000
0002
,
2000
0000
0000
0000
,
0000
0000
0000
3003
,
1000
0010
0100
0001
0010
0100
1000
0000
,
1001
0000
0011
0000
0100
1000
0010
0000
,
0101
0000
1010
0000
1100
0000
0010
0001
,
0100
1010
1001
1100
,
0010
0001
0100
0000
1010
0000
0101
0000
,
0011
0000
0100
1000
0010
0000
0101
0000
,
1001
0000
1000
0100
0010
0100
1000
0000
,
0001
0000
1000
0010
0100
0001
0010
0100
,
1000
0000
1010
0000
0100
0001
0010
0000
,
1100
0000
0011
0000
0101
0000
0010
1000
,
0100
0011
1001
0101
,
0010
1000
0100
0000
0011
0000
1100
0000
,
1010
0000
0100
0001
0010
0000
1100
0000
,
1001
0000
0001
0100
0010
0100
0001
0000
,
1000
0000
0001
0010
0100
1000
0010
0100
,
0001
0000
1000
0100
0010
0100
1000
0001
,
1000
0000
0010
0100
0001
0100
0010
1000
,
0001
0000
1000
0100
0010
0001
0010
0100
,
1000
0000
0010
0100
0001
0000
0010
0100
,
1000
0000
0001
0100
0010
0100
0001
1000
,
0001
0000
0010
0100
1000
0100
0010
0001
,
1000
0000
0001
0100
0010
1000
0010
0100
,
0001
0000
0010
0100
1000
0000
0010
0100
,
0001
0000
1000
0100
1000
0001
1000
0010
,
0100
0000
0001
0010
0100
0010
1000
0010
,
0100
0000
1000
0001
0100
0001
0010
0001
,
1000
0000
0100
0010
0001
0000
0100
0010
,
1000
0000
0001
0100
0001
1000
0001
0010
,
0100
0000
1000
0010
0100
0010
0001
0010
,
0100
0000
0001
1000
0100
1000
0010
1000
,
0001
0000
0100
0010
1000
0000
0100
0010
,
0001
0000
0201
0000
0310
1000
0001
0000
,
1000
0100
0001
0000
0100
0010
0000
0100
,
1000
0000
1010
0000
0101
0000
0001
1000
,
0100
0000
0110
0000
1001
0000
0001
0100
,
0010
0000
2010
0000
3001
0010
1000
0000
,
0010
0100
0010
0000
0001
1000
0000
0001
,
0100
0000
0110
0000
1001
0000
1000
0100
,
0010
0000
1001
0000
0001
0100
0010
1000
,
0001
0000
1200
0000
0310
0001
1000
0000
,
0001
0100
1000
0000
0100
0010
0000
0100
,
0001
0000
0011
0000
1100
0000
1000
0001
,
0100
0000
0110
0000
1001
0000
1000
0100
,
0010
0000
0012
0000
1003
0010
0001
0000
,
0010
0100
0010
0000
1000
0001
0000
1000
,
0100
0000
1000
0001
0000
1100
0000
0000
,
0001
1000
0000
0101
0000
1010
0000
0000
,
1100
0000
0000
0011
0000
0000
2002
0000
,
0000
0000
3003
1020
,
0001
0130
1001
0021
,
1000
0000
0130
0000
1001
0000
0001
0010
,
0100
0010
1000
0010
0001
1000
0010
0100
,
0010
0001
0010
1000
0100
0010
0002
0000
,
0100
0000
1000
0000
0013
0100
2000
0000
,
0100
0000
0001
0000
3010
0100
0002
0000
,
0013
0100
2000
0000
3010
0100
0002
0000
,
0010
0000
2003
0000
0010
0000
3001
0010
,
0100
0010
0001
1000
0001
0100
0010
1000
,
0001
1000
0010
0100
0010
1000
0001
1000
,
0100
0010
0001
1000
0001
0100
0010
1000
,
0001
1000
0100
0010
0001
0000
1000
0010
,
0001
0010
1000
0100
0010
0001
0010
1000
,
0010
0001
0100
0010
1000
0100
0001
0100
,
1000
0001
0100
1000
0100
0001
0020
0000
,
0000
0130
0000
1001
,
0000
0000
0000
0000
,
0000
0000
0000
0000
,
0000
0000
0000
0000
,
0000
0000
0000
0000
0000
0000
1000
0010
,
0100
1000
0100
0010
1000
0001
0010
0100
,
0001
0100
0010
0001
1000
0010
0100
0001
,
0010
0100
1000
0010
0100
0010
0001
0010
,
0100
0010
1000
0100
0001
0100
1000
0000
,
0001
0100
1000
0000
0100
0010
0100
0000
,
0001
0010
0000
1000
0010
0000
0001
1000
,
0000
0101
0000
0000
1000
0001
0000
1100
,
0000
0011
0000
0000
0101
0000
0000
1010
,
0000
2002
0000
0000
,
3003
0000
0011
0000
0100
1000
0010
0000
,
0101
0000
1010
0000
1100
0000
0010
0001
,
0100
1010
0101
1010
,
0100
0001
0010
0000
1100
0000
0011
0000
,
0101
0000
0010
1000
0100
0000
0011
0000
,
1100
0000
1000
0010
0100
0010
0001
0010
,
0100
0010
1000
0100
0010
0001
1000
0001
,
0100
0001
1000
0000
1100
0000
0001
0010
,
0100
0010
1000
0010
0100
0010
0001
0100
,
0010
1000
0001
1000
0100
1000
0001
0000
,
0101
0000
0010
1000
0000
0110
0000
0000
,
0001
1000
0000
0110
0000
1001
0000
0000
,
0010
0001
0000
0110
0000
0000
1000
0001
,
0000
0110
0000
1001
0000
0000
1000
0001
,
0000
0110
0000
0000
0001
1000
0000
0110
,
0000
1001
0000
0000
1100
0000
0000
0101
,
0000
2002
0000
0000
,
0000
3003
0000
0000
;

//---------------dance-single - Daff_4K----------------
#NOTES:
     dance-single:
     Daff_4K:
     Challenge:
     18:
     0.997298,1.718562,0.794532,0.408837,0.698109,905.000000,802.000000,103.000000,53.000000,0.000000,0.000000,0.997298,1.718562,0.794532,0.408837,0.698109,905.000000,802.000000,103.000000,53.000000,0.000000,0.000000:
// measure 0
0000
0000
0000
0000
,  // measure 1
0000
0000
0000
0000
,  // measure 2
0000
0000
0000
0000
,  // measure 3
0000
0000
0000
0000
,  // measure 4
1000
0000
0101
0000
0010
0000
1100
0000
0001
0000
0110
0000
1001
0000
0001
0200
,  // measure 5
1000
0000
0010
0000
0001
0000
0310
1000
,  // measure 6
0200
0010
2300
0010
,  // measure 7
3002
0000
0010
0000
0203
0010
0310
1000
,  // measure 8
0001
0020
1000
0000
0100
0000
0031
0000
0001
0200
1000
0000
0010
0000
0301
0000
,  // measure 9
1000
0200
0001
0000
0010
0000
1300
0000
1000
0020
0001
0000
0100
0000
1030
0000
,  // measure 10
0001
0000
0010
0000
0001
0000
0010
0000
0000
0100
0000
0000
1000
0000
0000
0010
0000
0000
0100
0000
0000
0001
0000
0000
1000
0000
0010
0000
1000
0000
0010
0000
0000
0100
0000
0000
0001
0000
0000
0010
0000
0000
0100
0000
0000
1000
0000
0000
,  // measure 11
0001
0000
0100
0000
0001
0000
0100
0000
0000
0010
0000
0000
1000
0000
0100
0000
1000
0000
0100
0000
0000
0010
0000
0000
0001
0000
1000
0000
0001
0000
1000
0000
0000
0010
0000
0000
0100
0000
0000
0001
0000
0000
0010
0000
0000
0100
0000
0000
,  // measure 12
1000
0020
0001
0000
0100
0000
1030
0000
1000
0200
0001
0000
0010
0000
1300
0000
,  // measure 13
0001
0200
1000
0000
0010
0000
0301
0000
0001
0020
1000
0000
0100
0000
0031
0000
,  // measure 14
1000
0200
0001
0000
0010
0000
1300
0000
0001
0200
1000
0000
0010
0000
0301
1000
,  // measure 15
0100
0000
0000
0000
0000
0000
0010
0000
0000
0001
0000
0000
1000
0000
0010
0000
1000
0000
0010
0000
0100
0000
0001
0000
0100
0000
0001
0000
0010
0000
0001
0000
0010
0000
0100
0000
1000
0000
0100
0000
1000
0000
0010
0000
0100
0000
0001
0000
,  // measure 16
1000
0000
0000
0100
0000
0000
0001
0000
0000
1000
0000
0000
0010
0000
0000
0001
0000
0000
0100
0000
0000
1000
0000
0000
0001
0000
0000
0010
0000
0000
1000
0000
0000
0100
0000
0000
0010
0000
0000
0001
0000
0000
0100
0000
0010
0000
2000
0000
,  // measure 17
0002
0000
0000
0000
,  // measure 18
0000
0000
0000
3003
,  // measure 19
1000
0000
0000
0001
0000
0000
0100
0000
0010
0000
0100
0000
0010
0000
0000
1000
0000
0000
0100
0000
0000
0010
0000
0000
,  // measure 20
0001
0000
0000
0110
0000
0000
1000
0001
1000
0010
0000
0000
,  // measure 21
0110
0000
0000
1001
0000
0000
0110
0000
0000
0001
1000
0001
,  // measure 22
0010
0110
1001
0110
,  // measure 23
1000
0001
1000
0100
0000
0000
0110
0000
0000
1001
0000
0000
,  // measure 24
0110
0000
0000
0001
1000
0001
0100
0000
0000
0110
0000
0000
,  // measure 25
1001
0000
1000
0100
0001
0100
0010
0100
,  // measure 26
1000
0010
0001
0010
0100
0010
1000
0001
,  // measure 27
1000
0000
0000
0110
0000
0000
0001
1000
0001
0010
0000
0000
,  // measure 28
0110
0000
0000
1001
0000
0000
0110
0000
0000
1000
0001
1000
,  // measure 29
0010
0110
1001
0110
,  // measure 30
0001
1000
0001
0100
0000
0000
0110
0000
0000
1001
0000
0000
,  // measure 31
0110
0000
0000
1000
0001
1000
0100
0000
0000
0110
0000
0000
,  // measure 32
1001
0000
0001
0100
1000
0100
0010
0100
,  // measure 33
0001
0010
1000
0010
0100
0010
0001
1000
,  // measure 34
0010
0000
0000
0100
0000
0000
0001
0000
0010
0000
0001
0000
0010
0000
0000
1000
0000
0000
0010
0000
0000
0001
0000
0000
,  // measure 35
0100
0000
0000
0001
0000
0000
0010
0000
0100
0000
0010
0000
0100
0000
0000
1000
0000
0000
0010
0000
0000
0001
0000
0000
,  // measure 36
0010
0000
0000
1000
0000
0000
0100
0000
0010
0000
0100
0000
0010
0000
0000
0001
0000
0000
0100
0000
0000
1000
0000
0000
,  // measure 37
0100
0001
1000
0100
0001
1000
0010
0100
,  // measure 38
0010
0000
0000
0001
0000
0000
1000
0000
0010
0000
1000
0000
0010
0000
0000
0001
0000
0000
0010
0000
0000
1000
0000
0000
,  // measure 39
0100
0000
0000
1000
0000
0000
0010
0000
0100
0000
0010
0000
0100
0000
0000
0001
0000
0000
0010
0000
0000
1000
0000
0000
,  // measure 40
0010
0000
0000
0001
0000
0000
0100
0000
0010
0000
0100
0000
0010
0000
0000
1000
0000
0000
0100
0000
0000
0001
0000
0000
,  // measure 41
0100
1000
0001
0100
1000
0001
0010
0100
,  // measure 42
0010
0000
0000
1000
0000
0000
0001
0000
0010
0000
0001
0000
1000
0000
0000
0010
0000
0000
0100
0000
0000
0010
0000
0000
,  // measure 43
1000
0000
0000
0001
0000
0000
1000
0000
0100
0000
1000
0000
0001
0000
0000
0100
0000
0000
0010
0000
0000
0100
0000
0000
,  // measure 44
0001
0000
0000
1000
0000
0000
0100
0000
0010
0000
0100
0000
1000
0000
0000
0001
0000
0000
0100
0000
0000
0010
0000
0000
,  // measure 45
0100
0001
0010
1000
0100
1000
0010
0001
,  // measure 46
0100
0000
0000
0010
0000
0000
1000
0000
0010
0000
1000
0000
0001
0000
0000
0010
0000
0000
0100
0000
0000
0010
0000
0000
,  // measure 47
0001
0000
0000
1000
0000
0000
0001
0000
0100
0000
0001
0000
1000
0000
0000
0100
0000
0000
0010
0000
0000
0100
0000
0000
,  // measure 48
1000
0000
0000
0001
0000
0000
0100
0000
0010
0000
0100
0000
0001
0000
0000
1000
0000
0000
0100
0000
0000
0010
0000
0000
,  // measure 49
0100
1000
0010
0001
0100
0001
0010
1000
,  // measure 50
0100
0010
0002
0000
0103
0010
2000
0000
,  // measure 51
3001
0010
0100
0001
1000
0010
0001
0100
,  // measure 52
1000
0000
0110
0000
1001
0000
1000
0100
,  // measure 53
0001
0000
0110
0000
1001
0001
0100
1000
,  // measure 54
0100
0000
0010
0000
0100
0000
0020
0000
0000
0000
0000
0000
1030
0000
0000
0100
0000
0000
0002
0000
0000
0000
0000
0000
,  // measure 55
1003
0010
0001
0100
1000
0001
0010
0100
,  // measure 56
0001
1000
1100
0000
0011
0000
1001
1000
,  // measure 57
0010
0000
0000
0001
0000
0000
0010
0000
0000
1000
0000
0000
0100
0000
0000
0010
0000
0000
0001
0000
0100
0000
0001
0000
,  // measure 58
0100
0010
2000
0000
3100
0010
0002
0000
,  // measure 59
1003
0010
0100
1000
0001
0010
1000
0100
,  // measure 60
0001
0000
0110
0000
1001
0000
0001
0100
,  // measure 61
1000
0100
0110
0000
1001
1000
0100
0001
,  // measure 62
0100
0000
0010
0000
0100
0000
0020
0000
0000
0000
0000
0000
0031
0000
0000
0100
0000
0000
2000
0000
0000
0000
0000
0000
,  // measure 63
3001
0010
1000
0100
0001
1000
0010
0100
,  // measure 64
1000
0001
0101
1010
0000
2002
0000
3003
,  // measure 65
1100
0011
0000
0110
0000
2002
0000
3003
,  // measure 66
0001
0100
0001
0000
0000
0000
1000
0100
1000
0000
0000
0000
1001
0000
0001
0000
,  // measure 67
0100
0010
1000
0100
0010
0001
0201
0000
,  // measure 68
1000
0000
0310
1000
0001
0000
1200
0000
,  // measure 69
0001
0000
0310
0001
1000
0000
1001
0000
,  // measure 70
0001
0010
0001
0010
0100
1000
0100
1000
0010
0100
0010
0100
,  // measure 71
0001
0000
1000
0000
0001
0000
1000
0000
0100
0000
0010
0000
0001
0000
0000
1000
0000
0000
1100
0000
0000
0000
0000
0000
,  // measure 72
0011
0000
0110
0000
1000
0001
0101
0000
,  // measure 73
1100
0000
0110
0000
1001
0000
2000
0100
,  // measure 74
0000
3002
0100
0000
0013
0000
1001
0000
,  // measure 75
1000
0010
0100
0001
0010
0100
1000
0010
,  // measure 76
1000
0000
0000
0001
0000
0000
1000
0000
0000
0100
0000
0000
0010
0000
0001
0000
1000
0000
0001
0000
0000
0010
0000
0000
,  // measure 77
0001
0000
0000
1000
0000
0000
0001
0000
0000
0100
0000
0000
0010
0000
1000
0000
0001
0000
1000
0000
0000
0100
0000
0000
,  // measure 78
0001
0000
0000
0100
0000
0000
0010
0000
0000
0100
0000
0000
1000
0000
0100
0000
0010
0000
0001
0000
0000
0100
0000
0000
,  // measure 79
1000
0000
0000
0100
0000
0000
0010
0000
0000
0100
0000
0000
0001
0000
0100
0000
0010
0000
1000
0000
0000
0001
0000
0000
,  // measure 80
0100
0000
0010
0000
0100
0000
0010
0000
1000
0000
0100
0000
1000
0000
0100
0000
0010
0000
0001
0000
0000
1000
0000
0000
,  // measure 81
0100
0000
0010
0000
0100
0000
0010
0000
0001
0000
0100
0000
0001
0000
0100
0000
0010
0000
1000
0000
0000
0001
0000
0000
,  // measure 82
0010
0100
0010
0100
1000
0001
1000
0001
0100
0010
0100
0010
,  // measure 83
1000
0100
0010
0001
0100
0010
1000
0000
0000
1001
0000
0000
,  // measure 84
0000
0000
0000
0000
,  // measure 85
0000
0000
0000
0000
,  // measure 86
0000
0000
0000
0000
,  // measure 87
0000
0000
0000
0000
0000
0000
0001
0010
,  // measure 88
0100
0001
1000
0010
0100
1000
0010
0001
,  // measure 89
0100
0001
0010
1000
0001
0010
1000
0100
,  // measure 90
1000
0000
0000
0010
0000
0000
0001
0000
0000
0100
0000
0000
0010
0000
0000
1000
0000
0000
0100
0000
0010
0000
0100
0000
,  // measure 91
0010
0001
0100
0001
1000
0100
1000
0010
0100
0001
0000
0000
,  // measure 92
0000
0110
1001
0000
0001
0010
1000
0010
,  // measure 93
0001
1000
0010
0001
0010
1000
1100
0011
,  // measure 94
0000
2002
0000
3003
0101
1010
0000
0110
,  // measure 95
0000
0000
2002
0000
0000
0000
3003
0000
1000
0100
1000
0000
0000
0000
0001
0100
,  // measure 96
0001
2002
0000
0000
,  // measure 97
3003
0000
0000
0110
0000
0000
1000
0010
0100
0001
0000
0000
,  // measure 98
0110
0000
0000
1001
0000
0000
0110
0000
0000
0001
0010
0100
,  // measure 99
1000
0110
1001
0110
,  // measure 100
1000
0100
0010
0001
0000
0000
0110
0000
0000
1001
0000
0000
,  // measure 101
0110
0000
0000
0001
0100
0010
1000
0000
0000
0110
0000
0000
,  // measure 102
1001
0000
0000
0000
0000
0000
1000
0000
0000
0100
0000
0000
0010
0000
0001
0000
0010
0000
0001
0000
0000
0100
0000
0000
,  // measure 103
1000
0000
0000
0100
0000
0000
0010
0000
0000
1000
0000
0000
0001
0000
0000
0010
0000
0000
0100
0000
1000
0000
0100
0000
,  // measure 104
1000
0000
0000
0001
0000
0000
0100
0000
0010
0000
0100
0000
0010
0000
0000
1000
0000
0000
0001
0000
0000
0100
0000
0000
,  // measure 105
0010
0000
1000
0000
0010
0000
1000
0000
0000
0100
0000
0000
0001
0000
0000
0100
0000
0000
0010
0000
0000
0001
0000
0000
,  // measure 106
1000
0000
0000
0010
0000
0000
0100
0000
0001
0000
0100
0000
0001
0000
0000
1000
0000
0000
0100
0000
0010
0000
0100
0000
,  // measure 107
0010
0001
0101
1010
0000
0022
0000
0033
,  // measure 108
1100
0101
0000
0110
0000
2002
0000
3003
,  // measure 109
1100
0011
0000
2020
0000
3030
0101
1100
,  // measure 110
0000
0110
0000
2002
0000
3003
0011
1100
,  // measure 111
0000
2002
0000
3003
1010
0101
0000
0110
,  // measure 112
0000
0000
2002
0000
0000
0000
3003
0000
1000
0100
0010
0000
0000
0000
0001
0100
,  // measure 113
0010
2002
0000
0000
,  // measure 114
0000
3003
0000
0000
;
