#VERSION:0.83;
#TITLE:Playing In The Sun;
#SUBTITLE:;
#ARTIST:Suyano;
#TITLETRANSLIT:;
#SUBTITLETRANSLIT:;
#ARTISTTRANSLIT:;
#GENRE:Progressive House;
#ORIGIN:;
#CREDIT:;
#BANNER:Playing In The Sun.png;
#BACKGROUND:Playing In The Sun-bg.png;
#PREVIEWVID:;
#JACKET:Playing In The Sun-jacket.png;
#CDIMAGE:Playing In The Sun.jpg;
#DISCIMAGE:;
#LYRICSPATH:;
#CDTITLE:;
#MUSIC:Playing In The Sun.ogg;
#OFFSET:-1.875000;
#SAMPLESTART:30.016270;
#SAMPLELENGTH:15.000000;
#SELECTABLE:YES;
#BPMS:0.000=128.000;
#STOPS:;
#DELAYS:;
#WARPS:;
#TIMESIGNATURES:0.000=4=4;
#TICKCOUNTS:0.000=4;
#COMBOS:0.000=1;
#SPEEDS:0.000=1.000=0.000=0;
#SCROLLS:0.000=1.000;
#FAKES:;
#LABELS:0.000=Song Start;
#BGCHANGES:;
#KEYSOUNDS:;
#ATTACKS:
;

//---------------dance-single - ----------------
#NOTEDATA:;
#CHARTNAME:;
#STEPSTYPE:dance-single;
#DESCRIPTION:;
#CHARTSTYLE:;
#DIFFICULTY:Hard;
#METER:12;
#RADARVALUES:0.419977,0.544369,0.077364,0.060172,0.335245,342.000000,333.000000,9.000000,7.000000,0.000000,0.000000,0.000000,0.000000,0.000000,0.419977,0.544369,0.077364,0.060172,0.335245,342.000000,333.000000,9.000000,7.000000,0.000000,0.000000,0.000000,0.000000,0.000000;
#CREDIT:;
#NOTES:
0000
0000
0000
0000
,
0000
0000
0000
0000
,
0000
0000
0000
0000
,
0000
0000
0000
0000
,
1000
0000
0000
1000
0000
0000
1000
0000
0000
1000
0000
0000
1000
0000
0000
1000
,
0010
0000
0000
0010
0000
0000
0010
0000
0000
0010
0000
0000
0010
0000
0000
0010
,
0100
0000
0000
0100
0000
0000
0100
0000
0000
0100
0000
0000
0100
0000
0000
0100
,
0002
0000
0000
0000
,
0013
0000
0000
0000
0010
0000
0000
0000
0010
0000
0000
0000
0010
0000
0001
1000
,
0010
0000
0000
0000
0010
0000
0000
0000
0010
0000
0000
0000
0010
0000
1000
0001
,
0100
0000
0000
0000
0100
0000
0000
0000
0100
0000
0000
0000
0100
0000
0001
1000
,
0100
0000
0000
0000
0100
0000
0000
0000
0100
0000
0000
0000
0100
0000
1000
0100
,
0010
0000
0001
0000
0010
0000
0001
0000
0010
0000
0001
0000
0010
0000
0001
0100
,
0010
0000
1000
0000
0010
0000
1000
0000
0010
0000
1000
0000
0010
0000
1000
0010
,
0100
0100
0001
0001
1000
1000
0100
0100
,
0010
0000
0000
0000
0000
0100
1001
0000
,
1010
0010
0000
0100
0000
0000
0010
0000
0000
0100
0000
0000
0010
0000
1000
0000
,
0001
0001
0000
1000
0000
0000
0001
0000
0000
1000
0000
0000
0001
0000
0010
0000
,
0100
0100
0000
1000
0000
0000
0100
0000
0000
1000
0000
0000
0100
0000
1000
0000
,
0001
0001
0000
0100
0000
0000
0001
0000
0000
0100
0000
0000
0101
0000
0000
0000
,
1000
1000
0000
0100
0000
0000
0010
0000
0000
0100
0000
0000
1000
0000
0001
0000
,
0100
0100
0000
0010
0000
0000
1000
0000
0000
0010
0000
0000
0100
0000
0001
0000
,
1000
0000
0000
1000
0000
0000
1000
0000
0000
0000
0001
0000
0000
0000
1000
0000
,
0001
0000
0000
0001
0000
0000
0001
0000
0000
0000
0100
0000
0110
0000
0000
0000
,
0020
0000
0000
0000
,
0000
0000
0000
0000
,
0000
0000
0000
0000
,
0000
0000
0000
0000
,
0130
0000
0000
0000
,
1000
0100
0100
0001
0100
0001
0100
0100
,
0010
0000
0000
0000
,
0001
0100
0100
1000
0100
1000
0100
0100
,
0010
1000
0001
1000
,
0010
0100
0100
0001
0100
0001
1000
0100
,
0010
0000
0001
0000
1000
0000
0001
0100
,
0010
0010
1000
0001
0010
0100
1000
0001
,
0200
0000
0000
0000
,
0320
0000
0000
0000
,
2030
0000
0000
0000
,
3002
0000
0000
0000
,
0013
0100
0010
0100
0010
0100
0010
0001
,
0100
0010
0100
0010
0100
0010
0100
0001
,
1000
0000
0000
0010
0000
0000
0001
0000
0000
0010
0000
0000
0100
0000
0001
0000
,
1000
0000
0000
0000
0000
0100
1001
0000
,
0011
0010
0000
0001
1000
0000
0001
0000
0100
0001
0000
0000
0001
0000
0100
0000
,
0010
0010
0000
1000
0001
0000
1000
0000
0100
1000
0000
0000
1000
0000
0010
0000
,
0100
0100
0000
0010
0100
0000
0010
0000
1000
0010
0000
0000
0001
0000
0010
0000
,
1000
1000
0000
0100
0010
0000
0100
0000
0001
0100
0000
0000
1000
0000
0001
0000
,
0010
0010
0000
0100
1000
0000
0100
0000
0001
0100
0000
0000
0100
0000
0010
0000
,
0001
0001
0000
0100
0010
0000
0100
0000
1000
0100
0000
0000
0001
0000
1000
0000
,
0010
0010
0000
0001
0010
0000
1000
0000
0010
0100
0000
0000
0001
0000
0100
0000
,
0010
0000
0000
0010
0000
0000
0010
0000
0000
0000
0100
0000
1001
0000
0000
0000
,
0001
0010
0000
0001
0010
0000
0100
0000
1000
0001
0100
0000
0010
0000
1000
0000
,
0001
0100
0000
0100
0001
0000
1000
0000
0100
0010
0100
0000
1000
0000
0001
0000
,
0010
0100
0000
0010
0100
0000
1000
0000
0010
0100
0001
0000
0010
0000
0001
0000
,
1000
0100
0000
0100
1000
0000
0001
0000
0100
0010
0000
0000
1001
0000
0000
0000
,
0010
0000
0000
1000
0010
0000
0100
0000
0010
0100
0010
0000
1000
0000
0001
0000
,
0100
0000
0000
0001
0100
0000
0010
0000
0100
0010
0100
0000
1000
0000
0001
0000
,
0010
0010
0000
0100
0000
0000
0010
0000
0000
0000
0100
0000
0010
0000
0100
0000
,
1000
0000
0000
1000
0000
0000
1000
0000
0000
0000
0100
0000
1001
0000
0000
0000
,
0020
0000
0000
0000
0000
0030
0000
0000
0000
0000
0000
0000
0000
0000
0000
0000
;

//---------------dance-single - ----------------
#NOTEDATA:;
#CHARTNAME:;
#STEPSTYPE:dance-single;
#DESCRIPTION:;
#CHARTSTYLE:;
#DIFFICULTY:Easy;
#METER:5;
#RADARVALUES:0.176832,0.259224,0.034384,0.085960,0.000000,144.000000,140.000000,4.000000,10.000000,0.000000,0.000000,0.000000,0.000000,0.000000,0.176832,0.259224,0.034384,0.085960,0.000000,144.000000,140.000000,4.000000,10.000000,0.000000,0.000000,0.000000,0.000000,0.000000;
#CREDIT:;
#NOTES:
0000
0000
0000
0000
,
0000
0000
0000
0000
,
0000
0000
0000
0000
,
0000
0000
0000
0000
,
1000
0000
0000
0000
,
0010
0000
0000
0000
,
0100
0000
0000
0000
,
0002
0000
0000
0000
,
0013
0010
0010
0000
,
0001
0001
0001
0000
,
1000
1000
1000
0000
,
0100
0100
0100
0000
,
1000
0010
1000
0000
,
0001
0010
0001
0000
,
0100
0001
1000
0100
,
0010
0000
0000
0000
,
1001
0100
0001
0100
,
0010
0001
0010
1000
,
0001
0100
0010
0010
,
1000
0100
0010
0010
,
0001
0100
1000
0001
,
0010
0100
0001
1000
,
0020
0000
0000
0000
,
0030
0000
0000
2001
,
0000
0000
0000
0000
,
0000
0000
0000
0000
,
0000
0000
0000
0000
,
0000
0000
0000
3000
,
0100
0000
0000
0000
,
1000
0000
0000
0001
0000
0000
0000
0000
,
0010
0000
0000
0000
,
0001
0000
0000
1000
0000
0000
0000
0000
,
0010
0000
0000
0000
,
0010
0000
0000
0100
0000
0000
0000
0000
,
0001
0000
0000
0000
,
0010
0100
0010
0000
,
0002
0000
0000
0000
,
0203
0000
0000
0000
,
0320
0000
0000
0000
,
2030
0000
0000
0000
,
3010
0010
0010
0000
,
0100
0100
0100
0000
,
0010
0100
0010
0100
,
0000
0000
0000
0000
,
1001
0100
0010
0100
,
0001
0100
0010
0010
,
1000
0100
0001
0100
,
1000
0010
0001
0010
,
1000
0010
0100
0010
,
0001
0010
0100
0100
,
0001
0010
1000
0100
,
0001
0000
0000
0000
,
1000
0100
0010
0001
,
1000
0010
0100
0100
,
0001
0010
0100
1000
,
0001
0100
0010
0000
,
1000
0100
0001
0100
,
1000
0010
0100
0001
,
2000
0100
3002
0100
,
1003
1000
0000
0110
,
0002
0000
0000
0000
0000
0003
0000
0000
0000
0000
0000
0000
0000
0000
0000
0000
;

//---------------dance-single - ----------------
#NOTEDATA:;
#CHARTNAME:;
#STEPSTYPE:dance-single;
#DESCRIPTION:;
#CHARTSTYLE:;
#DIFFICULTY:Medium;
#METER:9;
#RADARVALUES:0.287352,0.414758,0.025788,0.111748,0.124642,234.000000,231.000000,3.000000,13.000000,0.000000,0.000000,0.000000,0.000000,0.000000,0.287352,0.414758,0.025788,0.111748,0.124642,234.000000,231.000000,3.000000,13.000000,0.000000,0.000000,0.000000,0.000000,0.000000;
#CREDIT:;
#NOTES:
0000
0000
0000
0000
,
0000
0000
0000
0000
,
0000
0000
0000
0000
,
0000
0000
0000
0000
,
1000
1000
1000
1000
,
0010
0010
0010
0010
,
0100
0100
0100
0100
,
0002
0000
0000
0000
,
0013
0000
0001
0000
0010
0000
0001
1000
,
0010
0000
1000
0000
0010
0000
1000
0001
,
0100
0000
0010
0000
0100
0000
0001
1000
,
0100
0000
0010
0000
0100
0000
1000
0001
,
1000
0000
0100
1000
0100
0000
1000
0100
,
0010
0000
0001
0010
0001
0000
1000
0010
,
1000
0001
1000
0001
1000
0001
1000
0001
,
0200
0000
0000
0000
0000
0010
0310
0000
,
1000
0000
0000
0001
0000
0000
1000
0000
0000
0001
0000
0000
1000
0000
0000
0000
,
0010
0000
0000
1000
0000
0000
0010
0000
0000
1000
0000
0000
0010
0000
0000
0000
,
0100
0000
0000
0001
0000
0000
0100
0000
0000
0001
0000
0000
1000
0000
0000
0000
,
0100
0000
0000
1000
0000
0000
0100
0000
0000
1000
0000
0000
0001
0000
0000
0000
,
1000
0000
0000
0010
0000
0000
1000
0000
0000
0010
0000
0000
1000
0000
0000
0000
,
0001
0000
0000
0010
0000
0000
0001
0000
0000
0010
0000
0000
0001
0000
0000
0000
,
0010
0000
0000
0100
0000
0000
0010
0000
0000
0100
0000
0000
0010
0000
0000
0000
,
0100
0000
0000
0100
0000
0000
0100
0000
0000
0000
0000
0000
2002
0000
0000
0000
,
0000
0000
0000
0000
,
0000
0000
0000
0000
,
0000
0000
0000
0000
,
0000
0000
0000
3003
,
0100
0000
0000
0000
,
1000
0000
0000
0001
0000
0001
0000
0000
,
0010
0000
0000
0000
,
0001
0000
0000
1000
0000
1000
0000
0000
,
0010
0000
0000
0000
,
0010
0000
0000
0100
0000
0100
0000
0000
,
0001
0000
0000
0000
,
1000
0000
0100
0000
0010
0000
0100
1000
,
0002
0000
0000
0000
,
0023
0000
0000
0000
,
0230
0000
0000
0000
,
2300
0000
0000
0000
,
3001
0010
0001
0010
0001
0010
0001
0000
,
1000
0010
1000
0010
1000
0010
1000
0000
,
0001
1000
0001
1000
0001
1000
0001
1000
,
0200
0000
0000
0000
0000
0010
0310
0000
,
0001
0000
0000
0100
0000
0000
0001
0000
0000
0100
0000
0000
0001
0000
1000
0000
,
0100
0000
0000
1000
0000
0000
0100
0000
0000
1000
0000
0000
0100
0000
0010
0000
,
0001
0000
0000
1000
0000
0000
0001
0000
0000
1000
0000
0000
0001
0000
0100
0000
,
0010
0000
0000
0100
0000
0000
0010
0000
0000
0100
0000
0000
0010
0000
0000
0000
,
1000
0000
0000
0100
0000
0000
1000
0000
0000
0100
0000
0000
1000
0000
0010
0000
,
0100
0000
0000
0001
0000
0000
0100
0000
0000
0001
0000
0000
0100
0000
0010
0000
,
1000
0000
0000
0100
0000
0000
0001
0000
0000
0100
0000
0000
1000
0000
0000
0000
,
0000
0000
0000
0000
0000
0000
1000
0100
,
0010
0000
0001
0010
0100
0000
1000
0001
,
0100
0010
0100
0001
1000
0000
0001
0100
,
0010
0000
1000
0010
0100
0000
0001
1000
,
0001
1000
0100
0010
0100
0000
0110
0000
,
0001
0100
0010
0000
1000
0100
0010
0100
,
2000
0000
3100
0000
0002
0000
0103
0010
,
1000
0000
0100
0010
0001
0000
0100
0010
,
0100
0001
1000
0000
,
0220
0000
0000
0000
0000
0330
0000
0000
0000
0000
0000
0000
0000
0000
0000
0000
;

//---------------dance-single - ----------------
#NOTEDATA:;
#CHARTNAME:;
#STEPSTYPE:dance-single;
#DESCRIPTION:;
#CHARTSTYLE:;
#DIFFICULTY:Beginner;
#METER:1;
#RADARVALUES:0.074908,0.129612,0.025788,0.042980,0.000000,61.000000,58.000000,3.000000,5.000000,0.000000,0.000000,0.000000,0.000000,0.000000,0.074908,0.129612,0.025788,0.042980,0.000000,61.000000,58.000000,3.000000,5.000000,0.000000,0.000000,0.000000,0.000000,0.000000;
#CREDIT:;
#NOTES:
// measure 0
0000
0000
0000
0000
,  // measure 1
0000
0000
0000
0000
,  // measure 2
0000
0000
0000
0000
,  // measure 3
0000
0000
0000
0000
,  // measure 4
1000
0000
0000
0000
,  // measure 5
0001
0000
0000
0000
,  // measure 6
1000
0000
0000
0000
,  // measure 7
0100
0000
0000
0000
,  // measure 8
0010
0000
0000
0000
,  // measure 9
0001
0000
0000
0000
,  // measure 10
1000
0000
0000
0000
,  // measure 11
0100
0000
0000
0000
,  // measure 12
1000
0000
0000
0000
,  // measure 13
0001
0000
0000
0000
,  // measure 14
0010
0000
0000
0000
,  // measure 15
0000
0000
0000
0000
,  // measure 16
1001
0000
0000
0000
,  // measure 17
0010
0000
0010
0000
,  // measure 18
0100
0000
0000
0000
,  // measure 19
1000
0000
1000
0000
,  // measure 20
0001
0000
0000
0000
,  // measure 21
0100
0000
0100
0000
,  // measure 22
0010
0000
0000
0000
,  // measure 23
0010
0000
0000
1001
,  // measure 24
0000
0000
0000
0000
,  // measure 25
0000
0000
0000
0000
,  // measure 26
0000
0000
0000
0000
,  // measure 27
0000
0000
0000
0000
,  // measure 28
0100
0000
0000
0000
,  // measure 29
0000
0000
0000
0000
,  // measure 30
0010
0000
0000
0000
,  // measure 31
0000
0000
0000
0000
,  // measure 32
1000
0000
0000
0000
,  // measure 33
0000
0000
0000
0000
,  // measure 34
0001
0000
0000
0000
,  // measure 35
0000
0000
0000
0000
,  // measure 36
2000
0000
3000
0000
,  // measure 37
0020
0000
0030
0000
,  // measure 38
0200
0000
0300
0000
,  // measure 39
0002
0000
0003
0000
,  // measure 40
1000
0000
0000
0000
,  // measure 41
0100
0000
0000
0000
,  // measure 42
0010
0000
0000
0000
,  // measure 43
0000
0000
0000
0000
,  // measure 44
0110
0000
0000
0000
,  // measure 45
0001
0000
0001
0000
,  // measure 46
1000
0000
0000
0000
,  // measure 47
0010
0000
0010
0000
,  // measure 48
0100
0000
0000
0000
,  // measure 49
1000
0000
1000
0000
,  // measure 50
0001
0000
0000
0000
,  // measure 51
0100
0000
0000
0000
,  // measure 52
1000
0000
0000
0000
,  // measure 53
0010
0000
0100
0000
,  // measure 54
0001
0000
0000
0000
,  // measure 55
0010
0000
0100
0000
,  // measure 56
1000
0000
0000
0000
,  // measure 57
0001
0000
0100
0000
,  // measure 58
1000
0000
0000
0000
,  // measure 59
0010
0000
0010
0000
,  // measure 60
0200
0000
0000
0000
0000
0300
0000
0000
0000
0000
0000
0000
0000
0000
0000
0000
;
