#TITLE:Played-A-Live (The Bongo Song);
#SUBTITLE:;
#ARTIST:Safri Duo;
#TITLETRANSLIT:;
#SUBTITLETRANSLIT:;
#ARTISTTRANSLIT:;
#GENRE:;
#CREDIT:;
#MUSIC:Played-A-Live (The Bongo Song).ogg;
#BANNER:Played-A-Live (The Bongo Song).png;
#BACKGROUND:Played-A-Live (The Bongo Song)-bg.png;
#CDTITLE:;
#SAMPLESTART:43.481;
#SAMPLELENGTH:15.000;
#SELECTABLE:YES;
#OFFSET:1.736;
#BPMS:0.000=138.000;
#STOPS:;
#LASTBEATHINT:1.692800;
#BGCHANGES:4.000=Played-A-Live (The Bongo Song).avi=1.000=0=0=1,
99999.000=-nosongbg-=1.000=0=0=0=StretchNoLoop====
;
#FGCHANGES:;

//--------------- dance-single - RaverAce ----------------
#NOTES:
     dance-single:
     RaverAce:
     Beginner:
     4:
     0.151447,0.224684,0.166139,0,0,134,113,21,0,0,0,0.151447,0.224684,0.166139,0,0,134,113,21,0,0,0:
0000
0000
0000
0000
,
0000
0000
0000
0000
,
0000
0000
0000
0000
,
0000
0000
0000
0000
,
0000
0000
0000
0000
,
0000
0000
0000
0000
,
0010
0000
0000
0000
,
0010
0000
0000
0000
,
0100
0000
0000
0000
,
1001
0000
0000
0000
,
1000
0000
1000
0000
,
1000
0000
0100
0000
,
0001
0000
0001
0000
,
0001
0000
0100
0000
,
1000
0000
1000
0000
,
1000
0000
0010
0000
,
0001
0000
0010
0000
,
1000
0000
0000
0000
,
1001
0000
0000
0000
,
0100
0000
0000
0000
,
1001
0000
0000
0000
,
0010
0000
0000
0000
,
1001
0000
0000
0000
,
0010
0000
0000
0000
,
1001
0000
0000
0000
,
0100
0000
0000
0000
,
1001
0000
1000
0000
,
1001
0000
0001
0000
,
1001
0000
1000
0000
,
1001
0000
0001
0000
,
0110
0000
0010
0000
,
0110
0000
0100
0000
,
0110
0000
0010
0000
,
0110
0000
0100
0000
,
0010
0000
0010
0000
,
0010
0000
0001
0000
,
0100
0000
0100
0000
,
0100
0000
1000
0000
,
0010
0000
0010
0000
,
0010
0000
1000
0000
,
0100
0000
0100
0000
,
0100
0000
0001
0000
,
1001
0000
0000
0000
,
0000
0000
0000
0000
,
0110
0000
0000
0000
,
0000
0000
0000
0000
,
1001
0000
0001
0000
,
1000
0000
0001
0000
,
1001
0000
1000
0000
,
0001
0000
1000
0000
,
1001
0000
0000
0000
,
0010
0000
0010
0000
,
0010
0000
0010
0000
,
0100
0000
0100
0000
,
0100
0000
0100
0000
,
0001
0000
0001
0000
,
0001
0000
0001
0000
,
1000
0000
1000
0000
,
1000
0000
1000
0000
,
1001
0000
0001
0000
,
0001
0000
0001
0000
,
1000
0000
1000
0000
,
1000
0000
1000
0000
,
0010
0000
0010
0000
,
0010
0000
0010
0000
,
0100
0000
0100
0000
,
0100
0000
0100
0000
,
1001
0000
0001
0000
,
0001
0000
1000
0010
,
0100
0000
0100
0000
,
0100
0000
0010
1000
,
1001
0000
0000
0000
;

//--------------- dance-single - RaverAce ----------------
#NOTES:
     dance-single:
     RaverAce:
     Easy:
     7:
     0.288201,0.367682,0.316456,0.134494,0,255,215,40,17,0,0,0.288201,0.367682,0.316456,0.134494,0,255,215,40,17,0,0:
0000
0000
0000
0000
,
0000
0000
0000
0000
,
0000
0000
0000
0000
,
0000
0000
0000
0000
,
0000
0000
0000
0000
,
0000
0000
0000
0000
,
1000
0000
1000
0000
,
0001
0000
0001
0000
,
0100
0100
0100
0100
,
0220
0000
0000
0330
,
1010
0000
1010
0000
,
1010
0000
0100
0010
,
0011
0000
0011
0000
,
0011
0000
0010
0100
,
1100
0000
1100
0000
,
1100
0000
0010
0100
,
0101
0000
0101
0001
,
0011
0000
0010
0000
0110
0000
0100
0010
,
0100
0100
1000
0100
,
0001
0100
1000
0010
,
0100
0100
0001
0100
,
1000
0000
0100
0000
0001
0000
0010
0100
,
0010
0010
0001
0010
,
1000
0010
0001
0100
,
0010
0010
1000
0010
,
0001
0010
1000
0100
,
0110
0010
0001
0010
,
1000
0010
0001
0010
,
0100
1000
0100
0001
,
0100
0000
1000
0000
0010
0000
0100
0010
,
0100
0010
1000
0010
,
0001
0010
1000
0010
,
0100
0001
0100
1000
,
0100
0001
0010
0100
,
1100
0000
1100
0000
,
1100
0000
1000
0001
,
0101
0000
0101
0000
,
0101
0000
0001
1000
,
1010
0000
1010
0000
,
1010
0000
1000
0001
,
0011
0000
0011
0000
,
0002
0023
2030
3100
,
2002
0000
0003
0000
,
0200
0000
0000
3300
,
2002
0000
0000
3000
,
0200
0000
0000
0303
,
2010
0010
0010
0010
,
0001
0001
0001
3001
,
0012
0010
0010
0010
,
1000
1000
1000
1003
,
2002
0000
0000
3003
,
0011
0010
0100
1000
,
0010
0001
0010
1000
,
0100
0010
0001
0010
,
0100
0010
0001
0100
,
0010
1000
0100
0010
,
0100
1000
0010
0001
,
0010
1000
0100
0010
,
0001
1000
0100
1000
,
1010
0010
0100
0001
,
0010
1000
0010
0001
,
0100
0010
1000
0010
,
0100
0010
1000
0100
,
0010
0001
0100
0010
,
0100
0001
0010
1000
,
0010
0001
0100
0010
,
1000
0001
0100
0001
,
0101
0000
0101
0000
,
0101
0000
0001
1000
,
1100
0000
1100
0000
,
1100
0000
1000
0001
,
2002
0000
3003
0000
;

//--------------- dance-single - RaverAce ----------------
#NOTES:
     dance-single:
     RaverAce:
     Medium:
     13:
     0.588834,0.622231,0.221519,0.071203,0.814873,521,493,28,9,0,0,0.588834,0.622231,0.221519,0.071203,0.814873,521,493,28,9,0,0:
0000
0000
0000
0000
,
0000
0000
0000
0000
,
0000
0000
0000
0000
,
0000
0000
0000
0000
,
0000
0000
0000
0000
,
0000
0000
0000
0000
,
0100
0100
0100
0100
,
0010
0010
0010
0010
,
1000
0000
0010
0000
0100
0000
0001
1000
,
2200
0000
0000
0000
3300
0000
0000
0001
,
0011
0000
0000
0001
0101
0000
0000
0001
,
0011
0000
0000
0000
0000
0000
0001
0000
0001
0000
0010
0000
0100
0010
0000
0001
,
1000
0000
0000
1000
1010
0000
0000
1000
,
1100
0000
0000
0000
0000
0000
1000
0000
1000
0000
0010
0000
0100
0001
0000
1000
,
0010
0000
0000
0010
0110
0000
0000
0100
,
0110
0000
0000
0000
0000
0000
0010
0000
0100
0000
0001
0000
1000
0100
0000
0010
,
0100
0000
0000
0000
0000
0000
0010
0000
0010
0000
0001
0000
1000
0001
0000
0010
,
0001
0000
0000
0000
1000
0000
0001
0000
0011
0000
0000
0000
0001
1000
0000
1000
,
0001
0000
0000
1000
0100
0000
0010
0000
0000
0000
0010
0000
0001
0000
1000
0000
,
0001
0000
0000
0100
0001
0000
0000
0100
0000
0100
0000
0010
0100
0000
0001
0000
,
1000
0000
0000
0010
0100
0000
0010
0000
0000
0000
0010
0000
1000
0000
0100
0000
,
0010
0000
0000
0100
0010
0000
0000
0001
0000
1000
0000
0001
1000
0000
0010
0000
,
1000
0000
0000
0001
0100
0000
0010
0000
0000
0000
0010
0000
1000
0000
0001
0000
,
1000
0000
0000
0100
1000
0000
0000
0100
0000
0100
0000
0010
0100
0000
1000
0000
,
0001
0000
0000
0010
0100
0000
0010
0000
0000
0000
0010
0000
0001
0000
0100
0000
,
0010
0000
0000
0100
0010
0000
0000
1000
0000
1000
0000
0001
1000
0000
0001
0000
,
0010
0100
0000
0010
0100
0000
1000
0100
0000
0010
0000
0001
1000
0000
0001
0100
,
0000
0010
0000
1000
0001
0000
1000
0010
0000
0100
0000
0001
0100
0000
0010
0100
,
0000
0010
0000
0100
0010
0000
0100
0001
0000
0100
0000
0010
0100
0000
0001
0010
,
0000
0100
0000
0010
0001
0000
1000
0010
0000
0100
0000
0001
1000
0000
0010
0100
,
0010
0100
0000
0010
0100
0000
0001
0100
0000
0010
0000
1000
0001
0000
1000
0100
,
0000
0010
0000
0001
1000
0000
0001
0010
0000
0100
0000
1000
0100
0000
0010
0100
,
0000
0010
0000
0100
0010
0000
0100
1000
0000
0100
0000
0010
0100
0000
1000
0010
,
0000
0100
0000
0010
1000
0000
0001
0010
0000
0100
0000
1000
0001
0000
0010
0000
,
0110
0000
0000
0100
0110
0000
0000
0010
,
0110
0000
0000
0000
0000
0000
0100
0000
0110
0000
0010
0000
0001
0010
0000
0100
,
1000
0000
0000
0001
1001
0000
0000
1000
,
1001
0000
0000
0000
0000
0000
0001
0000
1001
0000
1000
0000
0010
0100
0000
0001
,
1000
0000
0000
0100
1100
0000
0000
1000
,
1100
0000
0000
0000
0000
0000
0100
0000
1100
0000
1000
0000
0001
1000
0000
0010
,
0100
0000
0000
0001
0101
0000
0000
0100
,
0002
0023
2030
3010
,
1001
0000
0000
0001
0000
0000
0001
0000
1000
0000
1000
0000
0001
1000
0000
0001
,
1000
0000
0000
1000
0000
0000
1000
0000
0001
0000
0001
0000
1000
0001
0000
0010
,
0100
0000
0000
0100
0000
0000
0100
0000
0010
0000
0010
0000
0100
0010
0000
0100
,
0010
0000
0000
0010
0000
0000
0010
0000
0100
0000
0100
0000
0010
0100
0000
1000
,
0100
0000
0000
0100
0000
0000
0100
0000
1000
0000
0100
0000
1000
0001
0000
1000
,
0010
0000
0000
0010
0000
0000
0010
0000
1000
0000
0001
0000
1000
0100
0000
0010
,
0001
0000
0000
0001
0000
0000
0001
0000
0010
0000
0100
0000
0010
0001
0000
0100
,
0010
0000
0000
0010
0000
0000
0010
0000
0100
0000
0001
0000
0100
0010
0000
2000
,
0002
0000
0000
3003
,
1000
0100
0000
0010
0100
0000
1000
0100
0000
0010
0000
0001
1000
0000
0001
0100
,
0000
0010
0000
0100
0001
0000
1000
0001
0000
1000
0000
0100
0010
0000
0001
0010
,
0000
0100
0000
1000
0001
0000
1000
0010
0000
0100
0000
0001
1000
0000
0010
0100
,
0000
0001
0000
0100
0010
0000
1000
0010
0000
0100
0000
0010
1000
0000
0001
1000
,
0000
0010
0000
1000
0001
0000
1000
0001
0000
0010
0000
0001
1000
0000
0100
1000
,
0000
0001
0000
1000
0100
0000
1000
0001
0000
0100
0000
0001
1000
0000
0010
1000
,
0000
0010
0000
0100
0001
0000
0010
0100
0000
1000
0000
0001
1000
0000
0100
0010
,
0000
0001
0000
0001
0100
0000
0001
0100
0000
0100
0000
0010
1000
0000
0001
1000
,
0001
0100
0000
0010
0100
0000
0001
0100
0000
0010
0000
1000
0001
0000
1000
0100
,
0000
0010
0000
0100
1000
0000
0001
1000
0000
0001
0000
0100
0010
0000
1000
0010
,
0000
0100
0000
0001
1000
0000
0001
0010
0000
0100
0000
1000
0001
0000
0010
0100
,
0000
1000
0000
0100
0010
0000
0001
0010
0000
0100
0000
0010
0001
0000
1000
0001
,
0000
0010
0000
0001
1000
0000
0001
1000
0000
0010
0000
1000
0001
0000
0100
0001
,
0000
1000
0000
0001
0100
0000
0001
1000
0000
0100
0000
1000
0001
0000
0010
0001
,
0000
0010
0000
0100
1000
0000
0010
0100
0000
0001
0000
1000
0001
0000
0100
0010
,
0000
1000
0000
0001
0100
0000
0010
0100
0000
0010
0000
0010
1000
0000
0001
0000
,
0011
0000
0000
0001
0101
0000
0000
0001
,
0011
0000
0000
0000
0000
0000
0001
0000
0101
0000
0100
0000
0010
1000
0000
0100
,
1000
0000
0000
1000
1010
0000
0000
1000
,
1100
0000
0000
0000
0000
0000
1000
0000
1010
0000
0010
0000
0100
0001
0000
2000
,
0002
0000
3003
0000
;

//--------------- dance-single - RaverAce/VanEden ----------------
#NOTES:
     dance-single:
     RaverAce/VanEden:
     Hard:
     15:
     0.761754,0.79193,0.261076,0.118671,1.068038,674,641,33,15,0,0,0.761754,0.79193,0.261076,0.118671,1.068038,674,641,33,15,0,0:
0000
0000
0000
0000
,
0000
0000
0000
0000
,
0000
0000
0000
0000
,
0000
0000
0000
0000
,
0000
0000
0000
0000
,
0000
0000
0000
0000
,
1001
0000
0000
0001
1000
0000
0001
0000
0100
0000
0100
0000
0100
0010
0000
0010
,
1000
0000
0000
1000
0001
0000
1000
0000
0100
0000
0100
0000
0100
0010
0000
0010
,
0001
0000
0100
0010
0000
0100
1000
0000
0100
0010
0000
0100
0001
1000
0100
0010
,
0002
0000
0000
0000
0000
0000
1003
0001
,
0101
0000
1000
0001
0101
0000
1000
0001
,
0101
0000
0000
0000
1000
0000
0001
0000
0101
0000
0100
0000
0010
1000
0000
0100
,
1000
0000
0001
1000
1100
0000
0001
1000
,
1100
0000
0000
0000
0001
0000
1000
0000
1100
0000
0100
0000
0010
0100
0000
0010
,
0001
0000
1000
0001
0011
0000
1000
0001
,
0011
0000
0000
0000
1000
0000
0001
0000
0011
0000
0010
0000
0100
1000
0000
0010
,
1000
0000
0000
0000
0001
0000
1000
0000
1010
0000
0010
0000
0100
0010
0000
0010
,
1000
0000
0000
0000
0001
0000
1000
0000
2010
0000
0000
0000
3001
0010
0000
0100
,
1000
0000
0001
0100
0001
0000
0100
0010
0000
0100
0010
1000
0010
1000
0001
1000
,
0001
0000
1000
0100
1000
0000
0100
0010
0000
0100
0010
0001
0010
0001
1000
0000
,
0001
0000
0010
0001
0010
0000
0100
0010
0000
0100
0010
0001
0010
0001
1000
0001
,
1000
0000
0010
1000
0010
0000
0100
0010
0000
0100
0010
1000
0010
1000
0001
0000
,
0100
0000
0001
0100
0010
0000
1000
0001
0000
1000
0001
0010
0100
0010
0001
1000
,
0010
0000
1000
0010
0100
0000
0001
1000
0000
0001
1000
0100
0010
0100
1000
0000
,
0010
0000
0100
0001
1000
0000
0100
0010
0000
0100
1000
0001
0010
0001
0100
0010
,
0100
0000
0010
1000
0001
0000
0010
0100
0000
0010
0001
1000
0100
1000
0001
0000
,
1000
0010
0000
1000
0010
0000
0100
0010
0000
0010
0000
0100
0001
0000
0010
0100
,
0000
0100
0000
1000
0010
0000
0100
0010
0000
0010
0000
1000
0010
0000
0001
0010
,
0000
0010
0000
1000
0001
0000
0010
0100
0000
0100
0000
1000
0010
0000
1000
0100
,
0000
0001
0000
0100
0001
0000
0100
0010
0000
0010
0000
0100
1000
0000
0010
0100
,
0001
0010
0000
0001
0010
0000
0100
0010
0000
0010
0000
0100
1000
0000
0010
0100
,
0000
0100
0000
0001
0010
0000
0100
0010
0000
0010
0000
0001
0010
0000
0100
0001
,
0000
0001
0000
0100
0010
0000
0100
1000
0000
1000
0000
0010
0100
0000
0010
0001
,
0000
0001
0000
0010
1000
0000
0100
0010
0000
0001
0000
1000
0001
0000
1000
0000
,
1010
0000
0001
1000
1010
0000
0001
1000
,
1010
0000
0000
0000
0001
0000
1000
0000
1010
0000
0010
0000
0100
0001
0000
0010
,
0001
0000
1000
0001
0011
0000
1000
0001
,
0011
0000
0000
0000
1000
0000
0001
0000
0011
0000
0010
0000
0100
0010
0000
0100
,
1000
0000
0001
1000
1100
0000
0001
1000
,
1100
0000
0000
0000
0001
0000
1000
0000
1100
0000
0100
0000
0010
0001
0000
0100
,
0001
0000
1000
0001
0101
0000
1000
0001
,
0020
2030
3200
0301
,
2010
0000
0000
0010
0000
0000
3020
0000
0100
0000
0100
0000
0130
0010
0000
0100
,
0020
0000
0000
1000
0000
0000
2030
0000
0001
0000
3001
0000
1000
0001
0000
0010
,
0002
0000
0000
0010
0000
0000
0023
0000
0100
0000
0100
0000
0130
0010
0000
0100
,
0020
0000
0000
0001
0000
0000
0032
0000
1000
0000
1003
0000
0001
1000
0000
0001
,
0100
0000
0000
0100
0010
0000
0100
0001
0010
0001
0010
0100
1000
0001
0000
0001
,
1000
0000
0000
0100
0010
0000
0100
1000
0010
1000
0010
0100
0001
1000
0000
1000
,
0100
0000
0000
0010
0001
0000
1000
0010
0100
0010
0100
0001
1000
0100
0000
0100
,
0010
0000
0000
0100
1000
0000
0001
0100
0010
0100
0010
1000
0001
0010
0000
0010
,
0001
0000
0000
0000
0000
0000
0000
0000
0000
0000
0000
0000
1000
0000
0001
0000
1000
0000
0100
0000
0000
0010
0000
0000
0000
0000
0000
0010
0000
0000
0000
0000
0000
0100
0000
0000
0010
0000
0000
0000
0000
0000
0010
0000
0000
0001
0000
0000
,
1000
0010
0000
0100
0010
0000
1000
0100
0000
0100
1000
0001
0010
0001
0100
0010
,
1000
0000
0001
0100
0001
0000
1000
0010
0000
0010
1000
0001
0100
0001
1000
0100
,
0010
0001
0000
1000
0001
0000
0100
0010
0000
0010
0100
0001
0100
0001
1000
0010
,
0100
0001
0000
1000
0001
0000
0010
0100
0000
0100
1000
0100
0010
0000
0001
1000
,
0001
0100
0000
0010
0100
0000
0001
0010
0000
0010
0001
1000
0010
1000
0100
0010
,
0001
0000
1000
0100
1000
0000
0001
0010
0000
0010
0001
1000
0100
1000
0001
0100
,
0000
0100
0000
0010
0100
0000
0001
1000
0000
1000
0001
0010
0001
0100
0010
1000
,
0000
1000
0001
0100
0001
0000
0010
0100
0000
0100
1000
0001
1000
0010
0100
0001
,
1000
0100
0000
0001
0100
0000
0010
0001
0000
0001
1000
0010
1000
0001
0100
0010
,
0100
1000
0000
0100
0001
0000
1000
0010
0000
0010
1000
0100
1000
0000
0001
0010
,
0000
1000
0000
0010
0001
0000
0001
0010
0000
0010
0001
0100
0001
1000
0100
0010
,
0000
0001
0000
0010
1000
0000
0010
0100
0000
0100
1000
0001
0100
0000
0010
1000
,
0001
0100
0000
1000
0100
0000
0010
1000
0000
1000
0001
0010
0001
1000
0100
0010
,
0100
0001
0000
0100
1000
0000
0001
0100
0000
0100
0001
0010
0001
1000
0010
0001
,
0000
0001
0000
0010
1000
0000
0100
0010
0000
0010
0001
1000
0010
1000
0100
0001
,
0000
0001
0000
0100
1000
0000
0001
0100
0000
0100
0010
0100
0001
0000
1000
0000
,
1100
0000
1000
0001
0101
0000
0001
1000
,
1100
0000
0000
0000
1000
0000
0001
0000
0101
0000
0100
0000
0010
1000
0000
1000
,
0001
0000
1000
0001
0011
0000
0001
1000
,
1010
0000
0000
0000
1000
0000
0001
0000
0011
0000
0010
0000
0100
0010
0000
0001
,
2002
0000
3003
0000
;
