#VERSION:0.83;
#TITLE:Patrimpas;
#SUBTITLE:;
#ARTIST:BlackY;
#TITLETRANSLIT:;
#SUBTITLETRANSLIT:;
#ARTISTTRANSLIT:;
#GENRE:Neurofunk;
#ORIGIN:;
#CREDIT:;
#BANNER:Patrimpas.png;
#BACKGROUND:Patrimpas-bg.png;
#PREVIEWVID:;
#JACKET:Patrimpas-jacket.png;
#CDIMAGE:;
#DISCIMAGE:;
#LYRICSPATH:;
#CDTITLE:cdtitle.png;
#MUSIC:Patrimpas.ogg;
#OFFSET:-0.425857;
#SAMPLESTART:23.346968;
#SAMPLELENGTH:10.786516;
#SELECTABLE:YES;
#BPMS:0.000=178.000,
161.000=89.000,
193.000=178.000,
257.000=89.000,
273.000=178.000;
#STOPS:60.000=1.011,
297.000=2.360;
#DELAYS:;
#WARPS:;
#TIMESIGNATURES:0.000=4=4;
#TICKCOUNTS:0.000=4;
#COMBOS:0.000=1;
#SPEEDS:0.000=1.000=0.000=0;
#SCROLLS:0.000=1.000;
#FAKES:;
#LABELS:0.000=Song Start;
#BGCHANGES:;
#KEYSOUNDS:;
#ATTACKS:
;

//---------------dance-single - ----------------
#NOTEDATA:;
#CHARTNAME:;
#STEPSTYPE:dance-single;
#DESCRIPTION:;
#CHARTSTYLE:;
#DIFFICULTY:Challenge;
#METER:16;
#RADARVALUES:0.749197,1.141318,0.474800,0.561127,0.647454,729.000000,663.000000,66.000000,78.000000,54.000000,0.000000,0.000000,0.000000,0.000000,0.749197,1.141318,0.474800,0.561127,0.647454,729.000000,663.000000,66.000000,78.000000,54.000000,0.000000,0.000000,0.000000,0.000000;
#CREDIT:;
#OFFSET:-0.425857;
#BPMS:0.000000=178.000000
,161.000000=89.000000
,193.000000=178.000000
,257.000000=89.000000
,273.000000=178.000000
;
#STOPS:60.000000=1.011236
,297.000000=2.359554
;
#DELAYS:;
#WARPS:;
#TIMESIGNATURES:0.000000=4=4
;
#TICKCOUNTS:0.000000=4
;
#COMBOS:0.000000=1
;
#SPEEDS:0.000000=1.000000=0.000000=0
;
#SCROLLS:0.000000=1.000000
;
#FAKES:;
#LABELS:0.000000=Song Start
;
#NOTES:
// measure 0
0000
0000
0000
0000
,  // measure 1
0000
0000
0000
0000
,  // measure 2
0000
0000
0000
0000
,  // measure 3
0000
0000
0000
0000
,  // measure 4
0000
0000
0000
0000
,  // measure 5
0000
0000
0000
0000
,  // measure 6
0000
0000
0000
0000
,  // measure 7
0000
0000
0000
0000
,  // measure 8
0000
0000
0000
0000
,  // measure 9
0001
0000
0010
0000
0010
0000
0001
1000
0010
1000
0010
0000
0100
0000
0100
0000
,  // measure 10
0010
1000
0010
1000
0001
0000
1000
0000
0100
0000
0100
0000
1000
0100
0010
0001
,  // measure 11
1000
0000
0010
0000
0010
0000
1000
0001
0010
0001
0010
0000
0100
0000
0100
0000
,  // measure 12
0010
0001
0010
0001
1000
0000
0001
0000
0100
0000
0100
0000
0001
0100
0010
1000
,  // measure 13
0001
0001
0010
0010
0100
0100
1000
1000
,  // measure 14
0001
0010
0100
1000
0001
0100
0001
0100
0010
1000
0001
1000
0010
1000
0001
1000
,  // measure 15
0100
0000
0000
0000
1000
0100
1000
0100
0010
0100
0010
0100
0010
0001
0100
0010
,  // measure 16
1000
0000
0000
0000
2001
0000
0000
0000
3010
0000
1000
0010
0100
0010
1000
0000
,  // measure 17
2020
0000
3030
0000
0010
0000
0001
0000
0010
0000
1000
0010
1000
0100
1000
0000
,  // measure 18
0200
0000
0300
0000
2001
0000
0000
0000
3100
0000
0010
0001
0000
0010
0001
0000
,  // measure 19
0200
0000
1300
0100
0001
0000
0010
0000
0010
0000
0100
1000
0000
0001
0100
0000
,  // measure 20
0110
0000
0000
0000
1002
0000
0000
0000
0013
0000
0001
0010
0100
0010
0001
0000
,  // measure 21
0022
0000
0033
0000
0010
0000
1000
0000
0010
0000
0001
0010
0001
0100
0001
0000
,  // measure 22
0200
0000
0300
0000
2001
0000
0000
0000
3010
0000
1000
0100
0000
0001
0000
0100
,  // measure 23
1000
0000
0001
0000
1001
0000
1000
0010
0100
0001
0100
0000
0001
0010
0100
1000
,  // measure 24
0100
1000
0001
0100
0010
0000
2000
0000
3010
0000
0001
0000
2000
0000
3100
0000
,  // measure 25
0001
0000
2000
0000
3010
0000
2000
0000
3100
0000
0010
0001
0100
0001
0200
0000
,  // measure 26
0320
0000
1030
0100
0010
0000
0002
0000
0013
0000
1000
0000
0002
0000
0103
0000
,  // measure 27
1000
0000
0002
0000
0013
0000
0002
0000
0013
0000
0100
1000
0000
0001
0200
0000
,  // measure 28
0320
2030
3001
1001
0100
0000
1001
0000
,  // measure 29
1000
1001
0100
0000
0001
0000
0100
0110
,  // measure 30
1001
0000
0000
0000
0001
0000
0010
0000
0100
0000
1000
0000
0001
0010
0100
1000
,  // measure 31
0001
1000
0100
0010
0001
0000
0100
0000
0010
1000
0000
1000
0100
0000
0010
0001
,  // measure 32
1000
1001
0201
0000
0310
2010
0MMM
0010
,  // measure 33
3010
0000
0000
0000
0012
0000
0000
0000
MMM0
0000
0000
0000
0010
0000
0000
0000
0013
0000
0000
0000
2010
0000
0000
0000
0MMM
0000
0000
3000
1001
0000
0000
0000
,  // measure 34
0001
0000
0100
0001
0020
0000
0000
0000
0130
0000
2100
0000
0MMM
0000
0100
0000
,  // measure 35
3100
0000
0000
0000
0102
0000
0000
0000
MMM0
0000
0000
0000
0100
0000
0000
0000
0103
0000
0000
0000
2100
0000
0000
0000
0MMM
0000
0000
3000
1001
0000
0000
0000
,  // measure 36
0001
0000
0000
0100
0000
0000
0010
0000
0000
1000
0000
0000
0100
0000
0000
0000
0010
0000
0000
0000
0100
0000
0000
0000
0010
0000
0000
0000
0000
0000
0012
0000
0000
0000
0000
0000
MMM0
0000
0000
0000
0000
0000
0100
0000
0000
0000
0000
0000
,  // measure 37
0103
0000
0000
0000
2010
0000
0000
0000
0MMM
0000
0000
0000
0100
0000
0000
0000
3100
0000
0000
0000
0012
0000
0000
0000
MMM0
0000
0000
0003
0101
0000
0000
0000
,  // measure 38
1000
0010
1000
0010
1000
0000
0001
0010
0100
0000
0010
0100
1000
0001
0000
0001
,  // measure 39
1000
0000
0001
0000
0100
0010
0000
1000
0001
1000
0100
0000
0010
0001
1000
0010
,  // measure 40
1000
0001
0010
0001
0020
0000
0000
0000
0001
0000
0000
0000
0000
0000
0000
0000
,  // measure 41
0001
0230
1000
0320
,  // measure 42
0001
0032
0100
0000
,  // measure 43
0100
2003
0010
3002
,  // measure 44
0100
0000
0000
0000
1003
0100
0010
0100
0010
0001
1000
0100
0001
0100
0001
0100
,  // measure 45
1000
0001
1000
0010
0100
0001
0100
0010
0100
0010
1000
0001
0100
1000
0100
1000
,  // measure 46
0100
0001
1000
0100
0010
0001
0100
0010
1000
0010
0001
0010
1000
0100
0010
1000
,  // measure 47
0010
0000
0001
0000
1000
0000
0100
0000
0001
0000
0100
0000
1000
0000
0001
0000
0100
0000
1000
0000
0100
0000
0001
0000
1000
0100
1000
0100
0010
0001
1000
0100
,  // measure 48
0010
0001
0100
0010
2010
0000
0000
0000
3001
0000
1000
0010
1000
0001
0010
0000
,  // measure 49
0200
0000
0000
0301
0100
0000
0010
0000
0010
0000
0100
1000
0001
1000
0010
0000
,  // measure 50
1010
0000
0120
1000
1030
2010
0001
3001
,  // measure 51
2001
0000
0100
0000
3100
0000
1002
0000
0103
0000
0010
1000
0001
1000
0100
0000
,  // measure 52
0010
0000
0100
0010
0002
0000
0000
0000
1003
0000
0001
0010
0001
1000
0010
0000
,  // measure 53
0200
0000
0000
1300
0100
0000
0010
0000
0010
0000
0100
0001
1000
0001
0010
0000
,  // measure 54
0011
0000
0120
0001
0031
0012
1000
1003
,  // measure 55
2001
0000
0010
0000
3010
0000
1002
0000
0013
0000
0001
0100
0010
1000
0010
1000
,  // measure 56
0100
0000
0010
0000
2001
0000
0000
0000
3100
0000
0010
0001
0100
0010
0100
0000
,  // measure 57
0020
0000
0000
0031
0010
0000
1000
0000
1000
0000
0010
1000
0100
0010
0100
0000
,  // measure 58
0110
0000
0012
1000
1003
2010
0001
3001
,  // measure 59
0102
0000
1000
0000
1003
0000
2100
0000
3001
0000
1000
0010
0100
0001
0100
0001
,  // measure 60
0010
0000
0100
0000
0110
0000
0000
0000
0100
0000
0010
0001
0100
0000
0001
0000
,  // measure 61
0100
0000
0010
1000
0100
0000
1000
0000
0100
0000
0010
0001
0100
0010
0100
0010
,  // measure 62
1000
0010
2010
0001
3100
0012
1000
0103
,  // measure 63
2001
0000
0010
0000
3001
0010
0001
0010
0100
1000
0100
1000
0001
0100
0001
1000
,  // measure 64
0100
1000
0001
0100
0020
0000
0000
2000
0000
3000
0000
0000
0000
0000
0000
0000
,  // measure 65
0100
0000
0001
0000
,  // measure 66
1030
0000
0100
0000
0020
0000
0000
0002
0000
0003
0000
0000
0000
0000
0000
0000
,  // measure 67
0100
0000
1000
0100
,  // measure 68
0001
0000
0130
0010
0110
0000
0000
0000
0011
0000
0000
0000
1001
0000
0000
0000
,  // measure 69
0110
0000
1010
0000
1001
0000
1000
0100
,  // measure 70
0010
0100
1000
0100
0001
0100
1000
0100
,  // measure 71
0010
0100
1000
0100
0001
0100
1000
0010
,  // measure 72
0001
0010
1000
1000
0010
0010
0100
0100
,  // measure 73
0001
0000
0001
0000
1000
0010
0100
0001
1000
0100
1000
0100
0010
0001
1000
0001
,  // measure 74
0010
0001
1000
0001
0100
0000
0000
0000
0200
0000
0000
0000
0310
0000
1002
0000
,  // measure 75
MMM0
0010
1003
2010
0MMM
0010
3001
0012
,  // measure 76
MMM0
0000
0000
0003
1001
0000
0000
0000
1000
0000
0000
0000
0100
0000
1000
0000
0020
0000
0000
0000
0000
0000
0000
0000
0130
0000
0000
0000
1002
0000
0000
0000
,  // measure 77
MMM0
0100
1003
2100
0MMM
0100
3001
0102
,  // measure 78
MMM0
0000
0000
0000
0000
0000
0000
0000
0000
0000
0000
0000
0000
0000
0000
0000
0000
0000
0003
0000
0000
0000
0000
0000
1001
0000
0000
0000
0000
0000
0000
0000
0000
0000
0000
0000
0000
0000
0000
0000
0000
0000
0000
0000
0000
0000
0000
0000
1000
0000
0000
0000
0000
0000
0000
0000
0000
0000
0000
0000
0100
0000
0000
0000
0000
0000
0000
0000
0000
0000
0000
0000
0010
0000
0000
0000
0000
0000
0000
0000
0000
0000
0000
0000
0001
0000
0000
0000
0000
0000
0000
0000
0000
0000
0000
0000
0100
0000
0000
0000
0000
0000
0000
0000
0000
0000
0000
0000
0000
0000
0000
0000
0010
0000
0000
0000
0000
0000
0000
0000
0000
0000
0000
0000
0000
0000
0000
0000
0100
0000
0000
0000
0000
0000
0000
0000
0000
0000
0000
0000
0000
0000
0000
0000
0010
0000
0000
0000
0000
0000
0000
0000
0000
0000
0000
0000
0000
0000
0000
0000
0000
0000
0000
0000
0000
0000
0000
0000
2010
0000
0000
0000
0000
0000
0000
0000
0000
0000
0000
0000
0000
0000
0000
0000
0000
0000
0000
0000
0000
0000
0000
0000
,  // measure 79
0MMM
0010
3100
0012
MMM0
0010
0103
2010
,  // measure 80
0MMM
0000
0000
3000
1100
0000
0000
0000
0001
0000
0010
0000
0001
0000
0010
0000
0001
0000
0000
0000
1000
0000
0010
0000
0100
0000
0000
0000
0010
0000
0100
0000
,  // measure 81
0001
1000
0000
1000
0001
0000
1000
0000
0100
0010
0000
0001
0100
0010
0100
0000
,  // measure 82
0010
1000
0100
0010
0001
0100
0010
1000
0200
0000
0000
0000
0000
0000
0000
0000
,  // measure 83
0000
0000
0300
0000
;

//---------------dance-single - ----------------
#NOTEDATA:;
#CHARTNAME:;
#STEPSTYPE:dance-single;
#DESCRIPTION:;
#CHARTSTYLE:;
#DIFFICULTY:Medium;
#METER:10;
#RADARVALUES:0.402860,0.750867,0.302145,0.330921,0.039567,392.000000,350.000000,42.000000,46.000000,24.000000,0.000000,0.000000,0.000000,0.000000,0.402860,0.750867,0.302145,0.330921,0.039567,392.000000,350.000000,42.000000,46.000000,24.000000,0.000000,0.000000,0.000000,0.000000;
#CREDIT:;
#OFFSET:-0.425857;
#BPMS:0.000000=178.000000
,161.000000=89.000000
,193.000000=178.000000
,257.000000=89.000000
,273.000000=178.000000
;
#STOPS:60.000000=1.011236
,297.000000=2.359554
;
#DELAYS:;
#WARPS:;
#TIMESIGNATURES:0.000000=4=4
;
#TICKCOUNTS:0.000000=4
;
#COMBOS:0.000000=1
;
#SPEEDS:0.000000=1.000000=0.000000=0
;
#SCROLLS:0.000000=1.000000
;
#FAKES:;
#LABELS:0.000000=Song Start
;
#NOTES:
// measure 0
0000
0000
0000
0000
,  // measure 1
0000
0000
0000
0000
,  // measure 2
0000
0000
0000
0000
,  // measure 3
0000
0000
0000
0000
,  // measure 4
0000
0000
0000
0000
,  // measure 5
0000
0000
0000
0000
,  // measure 6
0000
0000
0000
0000
,  // measure 7
0000
0000
0000
0000
,  // measure 8
0000
0000
0000
0000
,  // measure 9
0001
0010
1000
0100
,  // measure 10
0100
1000
0010
0001
,  // measure 11
1000
0010
0001
0100
,  // measure 12
0100
0001
0010
1000
,  // measure 13
0001
0010
0001
0000
1000
0010
1000
0000
,  // measure 14
0001
0010
0001
0010
0100
1000
0010
1000
,  // measure 15
0010
0000
0200
0000
0000
0000
0000
0010
,  // measure 16
0310
0000
1001
0000
1000
0100
0000
1000
,  // measure 17
0100
0000
1001
0000
0001
0100
0000
0001
,  // measure 18
0100
0000
1001
0000
1000
0010
0000
0001
,  // measure 19
0010
0000
1000
0000
0100
0000
0010
0001
,  // measure 20
0100
0000
1001
0000
1000
0010
0000
1000
,  // measure 21
0010
0000
1001
0000
0001
0010
0000
0001
,  // measure 22
0010
0000
1001
0000
0001
0100
0000
1000
,  // measure 23
0100
0000
0220
0000
0330
0000
0001
1000
,  // measure 24
0001
0000
1000
0100
0000
0010
0001
0000
,  // measure 25
1000
0100
0000
0100
0000
0010
0000
0001
,  // measure 26
1000
0000
0001
0100
0000
0010
1000
0000
,  // measure 27
0001
0100
0000
0100
0000
0010
0000
1000
,  // measure 28
0100
0110
0000
1001
,  // measure 29
0000
0101
1000
1100
,  // measure 30
0001
0000
0100
0010
0100
0000
0010
0100
,  // measure 31
0010
2002
0000
3003
,  // measure 32
0001
1000
0200
0000
0300
0011
0000
00MM
,  // measure 33
0000
1100
0000
MM00
0000
0011
0000
1001
,  // measure 34
1000
0001
0200
0000
0300
0101
0000
0M0M
,  // measure 35
0000
1010
0000
M0M0
0000
0101
0000
1001
,  // measure 36
0001
0010
0200
0000
0300
1001
0000
M00M
,  // measure 37
0000
0110
0000
0MM0
0000
1001
0000
1001
,  // measure 38
0001
1000
0010
0000
1000
0000
0100
0010
,  // measure 39
0100
0000
0010
0000
0001
0000
0100
0010
,  // measure 40
0100
0010
2000
0000
0010
0000
0000
0000
,  // measure 41
0010
3002
0010
2003
,  // measure 42
0010
3002
0100
0000
,  // measure 43
0100
2003
0100
3002
,  // measure 44
0100
0000
0000
0000
1003
0000
1000
0000
1000
0100
1000
0000
0001
0000
0001
0000
,  // measure 45
0001
0100
0001
0000
1000
0000
1000
0000
1000
0010
1000
0000
0001
0000
0001
0000
,  // measure 46
0001
0010
0001
0000
1000
0010
1000
0000
0010
0100
0010
0000
0100
0001
0100
0000
,  // measure 47
0001
1000
0001
0000
1000
0100
0010
0000
0001
0100
0010
0000
0210
0000
0000
0000
,  // measure 48
0000
0010
0310
0000
2000
0000
0000
0000
3100
0000
0020
0000
0000
0000
0031
0000
,  // measure 49
2000
0000
0100
0000
0001
0000
3010
1000
,  // measure 50
0010
0000
2000
0000
0100
3200
0000
0010
,  // measure 51
0320
0000
0001
0032
0000
0203
0000
0310
,  // measure 52
2000
0000
3002
0000
0103
0020
0000
1030
,  // measure 53
0002
0000
0100
0000
1000
0000
0013
0001
,  // measure 54
0010
0000
0002
0000
0100
0203
0000
0010
,  // measure 55
0320
0000
1000
2030
0000
3200
0000
0310
,  // measure 56
0001
0100
0020
0000
1030
0002
0000
1003
,  // measure 57
0200
0000
1000
0000
0001
0000
0310
0100
,  // measure 58
0010
0000
0200
0000
1000
2300
0000
0001
,  // measure 59
3002
0000
0100
0203
0000
0320
0000
0130
,  // measure 60
0010
1000
0100
0000
0011
0000
0100
0000
,  // measure 61
1010
0001
0101
1000
,  // measure 62
1100
0000
0001
0100
0010
0000
0100
0010
,  // measure 63
1000
0000
0010
1000
0100
0010
0100
0010
,  // measure 64
0001
2002
0000
0000
,  // measure 65
0000
3003
0000
0000
,  // measure 66
0000
1000
0001
1000
,  // measure 67
0001
0100
0010
0100
,  // measure 68
0010
1000
0100
0001
,  // measure 69
0010
0010
0001
0100
,  // measure 70
1000
0001
0100
1000
,  // measure 71
0010
0010
1000
0100
,  // measure 72
0001
0000
1000
0100
0010
0000
0001
0100
,  // measure 73
0010
0000
1000
0100
0010
0001
1000
0100
,  // measure 74
0010
0001
0100
0000
0020
0000
0030
0101
,  // measure 75
0000
0M0M
0000
1100
0000
MM00
0000
0101
,  // measure 76
0000
1001
1000
0001
0020
0000
0030
0011
,  // measure 77
0000
00MM
0000
1010
0000
M0M0
0000
0011
,  // measure 78
0000
1001
1000
0010
0200
0000
0300
1001
,  // measure 79
0000
M00M
0000
0110
0000
0MM0
0000
1001
,  // measure 80
0000
1001
0001
1000
0100
0000
0010
0000
,  // measure 81
0100
0010
0001
0000
0100
0000
0010
0000
,  // measure 82
0100
0010
1000
0000
0200
0000
0000
0000
,  // measure 83
0000
0000
0300
0000
;

//---------------dance-single - ----------------
#NOTEDATA:;
#CHARTNAME:;
#STEPSTYPE:dance-single;
#DESCRIPTION:;
#CHARTSTYLE:;
#DIFFICULTY:Hard;
#METER:14;
#RADARVALUES:0.574487,0.961110,0.251788,0.611484,0.302145,559.000000,524.000000,35.000000,85.000000,26.000000,0.000000,0.000000,0.000000,0.000000,0.574487,0.961110,0.251788,0.611484,0.302145,559.000000,524.000000,35.000000,85.000000,26.000000,0.000000,0.000000,0.000000,0.000000;
#CREDIT:;
#OFFSET:-0.425857;
#BPMS:0.000000=178.000000
,161.000000=89.000000
,193.000000=178.000000
,257.000000=89.000000
,273.000000=178.000000
;
#STOPS:60.000000=1.011236
,297.000000=2.359554
;
#DELAYS:;
#WARPS:;
#TIMESIGNATURES:0.000000=4=4
;
#TICKCOUNTS:0.000000=4
;
#COMBOS:0.000000=1
;
#SPEEDS:0.000000=1.000000=0.000000=0
;
#SCROLLS:0.000000=1.000000
;
#FAKES:;
#LABELS:0.000000=Song Start
;
#NOTES:
// measure 0
0000
0000
0000
0000
,  // measure 1
0000
0000
0000
0000
,  // measure 2
0000
0000
0000
0000
,  // measure 3
0000
0000
0000
0000
,  // measure 4
0000
0000
0000
0000
,  // measure 5
0000
0000
0000
0000
,  // measure 6
0000
0000
0000
0000
,  // measure 7
0000
0000
0000
0000
,  // measure 8
0000
0000
0000
0000
,  // measure 9
0001
0000
0010
0001
1000
0000
0010
1000
,  // measure 10
0001
0000
0100
0001
1000
0000
0100
1000
,  // measure 11
0001
0000
0100
0001
0010
0000
0100
1000
,  // measure 12
0010
0000
0100
0001
0010
0000
0100
1000
,  // measure 13
0001
0100
0010
0100
0001
0100
1000
0100
,  // measure 14
0001
0100
0001
0000
0100
0010
0100
0000
0010
1000
0010
0000
1000
0001
1000
0000
,  // measure 15
0100
0000
1000
0100
0010
0001
0100
0010
,  // measure 16
0110
0000
0000
0000
1002
0000
0000
0000
0103
0000
0002
0000
0013
M00M
0010
0000
,  // measure 17
2000
0000
0000
0000
3010
0000
1000
0000
0010
0000
2000
0000
3100
M00M
0100
0000
,  // measure 18
0002
0000
0000
0000
0013
0000
0000
0000
0001
0000
0010
0100
0000
0010
0100
0000
,  // measure 19
2000
0000
0000
0000
3001
0000
0100
0000
1000
0000
0100
0010
0000
0100
0001
0000
,  // measure 20
1000
0000
0000
0000
2001
0000
0000
0000
3100
0000
2000
0000
3010
M00M
0010
0000
,  // measure 21
0002
0000
0000
0000
0013
0000
0001
0000
0010
0000
0002
0000
0103
M00M
0100
0000
,  // measure 22
2000
0000
0000
0000
3010
0000
0000
0000
1000
0000
0010
0100
0000
0001
1000
0000
,  // measure 23
0100
0010
0220
0000
0330
0000
0001
0010
,  // measure 24
0100
1000
0001
0200
0310
0010
0200
0301
,  // measure 25
0001
0200
1300
0200
0301
0001
0100
0020
,  // measure 26
2030
3001
1000
0200
0310
0010
0200
1300
,  // measure 27
1000
0200
0301
0200
1300
1000
0100
0020
,  // measure 28
0032
0103
1001
0000
0001
0000
1001
0000
,  // measure 29
1000
0000
1001
0000
0010
0000
1001
0100
,  // measure 30
0010
0000
1000
0001
1000
0001
0010
0100
,  // measure 31
1000
0001
0200
0000
0000
0000
0300
0000
,  // measure 32
0110
0001
2000
0000
3001
0012
0000
00M0
,  // measure 33
1003
2010
0000
00M0
3001
0012
0000
10M3
,  // measure 34
0100
0000
1000
0001
2000
0000
0000
0000
3001
0000
0102
0000
0000
0000
0M00
0000
,  // measure 35
1003
2100
0000
0M00
3001
0102
0000
0M13
,  // measure 36
0001
1000
0001
0000
0100
0000
0000
0000
0010
0000
2001
0000
0000
0000
000M
0000
,  // measure 37
3010
1002
0000
M000
0013
2001
0000
310M
,  // measure 38
0010
0100
0010
0100
0010
0000
0000
0001
0010
0000
0100
0000
1000
0010
0000
1000
,  // measure 39
0010
0000
0100
0000
0001
0010
0000
0100
1000
0000
0001
0000
0100
0010
0000
0010
,  // measure 40
0100
0000
0010
0100
0020
0000
0000
0000
1000
0000
0000
0000
0000
0000
0000
0000
,  // measure 41
1000
0230
0001
0320
,  // measure 42
1000
2030
0100
0000
,  // measure 43
0100
3002
0010
2003
,  // measure 44
0100
0000
0000
0000
3001
0010
0001
0010
0100
0010
0002
0000
1003
0100
0010
0001
,  // measure 45
0100
0010
2000
0000
3010
1000
0010
0100
0010
1000
0020
0000
1030
0010
0100
0001
,  // measure 46
0010
0100
2000
0000
3100
0010
0001
0010
0100
0010
0001
1000
0001
0100
0010
1000
,  // measure 47
0010
0100
0010
1000
0001
0010
0100
1000
0010
0100
0001
1000
0200
0000
0000
0000
,  // measure 48
0310
0001
0100
0010
1020
0000
0000
0000
0031
0000
0010
0000
1000
0000
0100
0000
,  // measure 49
0002
0000
0000
0103
0010
0000
0100
0000
0100
0000
1000
0001
1000
0000
0010
0000
,  // measure 50
0010
0000
2000
3100
0010
2000
3010
0100
,  // measure 51
2000
3010
0001
2000
3100
0020
0000
1030
,  // measure 52
0100
0010
0021
0000
1030
0010
0001
0100
,  // measure 53
2000
0000
0000
3100
0010
0000
0100
0000
0100
0000
0001
1000
0001
0000
0010
0000
,  // measure 54
0010
0000
0002
0103
0010
0002
0013
0100
,  // measure 55
0002
0000
0013
0000
1000
0000
0002
0000
0103
0000
0020
0000
0100
0000
0030
0100
,  // measure 56
1000
0010
0210
0000
1300
0100
0001
0010
,  // measure 57
2000
0000
0000
3010
0100
0000
0010
0000
0010
0000
0001
1000
0001
0000
0100
0000
,  // measure 58
0100
0000
0002
0103
1000
0002
0013
1000
,  // measure 59
0200
0000
0301
0000
1000
0000
0020
0000
0031
0000
2000
0000
0100
0000
3000
0100
,  // measure 60
0010
0001
1001
0000
0010
1000
1001
0000
,  // measure 61
0010
0000
0001
0000
0101
0000
0000
0000
0010
0000
1000
0000
1100
0000
0000
0100
,  // measure 62
0010
0001
0100
1000
0001
0010
1000
0100
,  // measure 63
0001
0000
1000
0000
0010
0000
0001
0100
0000
0010
1000
0000
0100
0010
0000
0001
,  // measure 64
0100
0000
0001
1000
0002
0000
0000
2000
0000
3000
0000
0000
0000
0000
0000
0000
,  // measure 65
0010
0000
1000
0000
,  // measure 66
0103
0000
0010
0000
2000
0000
0000
0002
0000
0003
0000
0000
0000
0000
0000
0000
,  // measure 67
0010
0000
0001
0010
,  // measure 68
3100
1000
1001
0000
0010
0001
1000
0000
,  // measure 69
0010
1000
0001
0000
0100
0001
1000
0000
,  // measure 70
0100
1000
0001
0100
0010
0100
0001
0100
,  // measure 71
1000
0100
0001
0100
0010
0100
0001
0100
,  // measure 72
1000
0100
0001
0010
1000
0001
0100
1000
,  // measure 73
0001
0000
0010
0000
0100
1000
0100
0000
1000
0001
1000
0000
0010
1000
0010
0000
,  // measure 74
0100
0010
0100
0000
0001
0000
0000
0000
0002
0000
0000
0000
0103
0000
2010
0000
,  // measure 75
0000
00M0
3100
0012
0000
00M0
0103
2010
,  // measure 76
0000
0000
30M1
0000
0100
0000
0001
1000
0002
0000
0000
0000
0013
0000
2100
0000
,  // measure 77
0000
0M00
3010
0102
0000
0M00
0013
2100
,  // measure 78
0000
0000
3M10
0000
1000
0001
1000
0000
0100
0000
0000
0000
1000
0000
1020
0000
,  // measure 79
0000
M000
0031
0021
0000
000M
1030
1020
,  // measure 80
0000
0000
M130
0000
0001
1000
0001
1000
0001
0000
0000
1000
0100
0000
0010
0000
,  // measure 81
0001
0100
0000
0010
0100
0000
0001
0000
1000
0100
0000
0010
0100
0000
1000
0000
,  // measure 82
0001
0100
0000
0100
0010
0000
0100
0010
0200
0000
0000
0000
0000
0000
0000
0000
,  // measure 83
0000
0000
0300
0000
;

//---------------dance-single - ----------------
#NOTEDATA:;
#CHARTNAME:;
#STEPSTYPE:dance-single;
#DESCRIPTION:;
#CHARTSTYLE:;
#DIFFICULTY:Easy;
#METER:7;
#RADARVALUES:0.262065,0.480555,0.172654,0.359697,0.000000,255.000000,231.000000,24.000000,50.000000,0.000000,0.000000,0.000000,0.000000,0.000000,0.262065,0.480555,0.172654,0.359697,0.000000,255.000000,231.000000,24.000000,50.000000,0.000000,0.000000,0.000000,0.000000,0.000000;
#CREDIT:;
#OFFSET:-0.425857;
#BPMS:0.000000=178.000000
,161.000000=89.000000
,193.000000=178.000000
,257.000000=89.000000
,273.000000=178.000000
;
#STOPS:60.000000=1.011236
,297.000000=2.359554
;
#DELAYS:;
#WARPS:;
#TIMESIGNATURES:0.000000=4=4
;
#TICKCOUNTS:0.000000=4
;
#COMBOS:0.000000=1
;
#SPEEDS:0.000000=1.000000=0.000000=0
;
#SCROLLS:0.000000=1.000000
;
#FAKES:;
#LABELS:0.000000=Song Start
;
#NOTES:
// measure 0
0000
0000
0000
0000
,  // measure 1
0000
0000
0000
0000
,  // measure 2
0000
0000
0000
0000
,  // measure 3
0000
0000
0000
0000
,  // measure 4
0000
0000
0000
0000
,  // measure 5
0000
0000
0000
0000
,  // measure 6
0000
0000
0000
0000
,  // measure 7
0000
0000
0000
0000
,  // measure 8
0000
0000
0000
0000
,  // measure 9
0001
0001
0010
0000
,  // measure 10
0001
0100
0001
0000
,  // measure 11
1000
1000
0010
0000
,  // measure 12
1000
0100
1000
0000
,  // measure 13
0001
0001
1000
1000
,  // measure 14
0001
1000
0001
1000
,  // measure 15
0100
0200
0000
0000
,  // measure 16
0300
0000
1000
0000
0000
0010
0000
0000
,  // measure 17
0010
0000
1000
0000
0000
0001
0000
0000
,  // measure 18
0001
0000
1000
0000
0000
0100
0000
0000
,  // measure 19
0100
0000
1000
0010
,  // measure 20
1000
0000
0001
0000
0000
0010
0000
0000
,  // measure 21
0010
0000
0001
0000
0000
1000
0000
0000
,  // measure 22
1000
0000
0001
0000
0000
0100
0000
0000
,  // measure 23
0100
2002
3003
0001
,  // measure 24
1000
0001
0000
0010
,  // measure 25
0000
0001
0000
0010
0000
0000
0001
0000
,  // measure 26
0001
1000
0000
0010
,  // measure 27
0000
1000
0000
0010
0000
0000
1000
0000
,  // measure 28
0001
1001
0000
0110
,  // measure 29
0000
1001
0000
1001
,  // measure 30
0000
1000
0100
0010
,  // measure 31
0001
2000
0000
0000
,  // measure 32
3001
0000
0200
0000
0300
1001
0000
0000
,  // measure 33
0000
1001
0000
0000
0000
1001
0000
0000
,  // measure 34
1000
0000
0200
0000
0300
0110
0000
0000
,  // measure 35
0000
0110
0000
0000
0000
0110
0000
0000
,  // measure 36
0001
0000
0100
0000
0000
1001
0000
0000
,  // measure 37
0000
0110
0000
0000
0000
1001
0000
0000
,  // measure 38
0000
1000
1000
0100
,  // measure 39
0010
0001
0001
0100
,  // measure 40
0010
2000
0010
0000
,  // measure 41
0010
3002
0010
2003
,  // measure 42
0010
3002
0100
0000
,  // measure 43
0100
2003
0100
3002
,  // measure 44
0100
0000
1003
0100
1000
0000
0100
0010
,  // measure 45
0100
0000
0010
0001
0010
0000
0001
1000
,  // measure 46
0001
0000
0100
0001
0100
0001
0100
0010
,  // measure 47
0100
0010
1000
0010
1000
0100
0020
0000
,  // measure 48
0000
0031
2000
0000
0000
3200
0000
0000
,  // measure 49
0320
0000
0100
0000
,  // measure 50
0100
0000
0032
0000
0000
0023
0000
0000
,  // measure 51
2030
0000
0000
3020
0000
0032
0000
0000
,  // measure 52
2003
0000
3002
0000
0000
0203
0000
0000
,  // measure 53
0320
0000
0100
0000
,  // measure 54
0100
0000
2030
0000
0000
3020
0000
0000
,  // measure 55
0032
0000
0000
0023
0000
2030
0000
0000
,  // measure 56
3002
0000
0023
0000
0000
0230
0000
0000
,  // measure 57
2300
0000
0010
0000
,  // measure 58
0010
0000
3002
0000
0000
0203
0000
0000
,  // measure 59
2300
0000
0000
3200
0000
0302
0000
0000
,  // measure 60
2003
3200
0010
0010
,  // measure 61
0310
0002
1000
1000
,  // measure 62
1003
0020
0130
0002
,  // measure 63
1003
0200
0000
0010
,  // measure 64
0310
2002
0000
0000
,  // measure 65
0000
3003
0000
0000
,  // measure 66
0000
1000
0001
1000
,  // measure 67
0001
0100
0010
0100
,  // measure 68
0010
1000
1000
0010
,  // measure 69
0000
1000
0100
1000
,  // measure 70
0000
0001
0001
0010
,  // measure 71
0000
0001
0100
0001
,  // measure 72
0000
1000
1000
0001
,  // measure 73
0001
1000
0001
1000
,  // measure 74
0001
0000
0100
0000
0002
0000
0003
1010
,  // measure 75
0000
0000
0000
0011
0000
0000
0000
1010
,  // measure 76
0000
0000
0001
0000
2000
0000
3000
0101
,  // measure 77
0000
0000
0000
1100
0000
0000
0000
0101
,  // measure 78
0000
0000
1000
0000
0001
0000
0000
1001
,  // measure 79
0000
0000
0000
0110
0000
0000
0000
1001
,  // measure 80
0000
0000
0001
0001
,  // measure 81
0100
0010
1000
1000
,  // measure 82
0100
0010
0200
0000
,  // measure 83
0000
0000
0300
0000
;

//---------------dance-single - ----------------
#NOTEDATA:;
#CHARTNAME:;
#STEPSTYPE:dance-single;
#DESCRIPTION:;
#CHARTSTYLE:;
#DIFFICULTY:Beginner;
#METER:3;
#RADARVALUES:0.166488,0.314015,0.079133,0.050358,0.000000,162.000000,151.000000,11.000000,7.000000,0.000000,0.000000,0.000000,0.000000,0.000000,0.166488,0.314015,0.079133,0.050358,0.000000,162.000000,151.000000,11.000000,7.000000,0.000000,0.000000,0.000000,0.000000,0.000000;
#CREDIT:;
#OFFSET:-0.425857;
#BPMS:0.000000=178.000000
;
#STOPS:;
#DELAYS:;
#WARPS:;
#TIMESIGNATURES:0.000000=4=4
;
#TICKCOUNTS:0.000000=4
;
#COMBOS:0.000000=1
;
#SPEEDS:0.000000=1.000000=0.000000=0
;
#SCROLLS:0.000000=1.000000
;
#FAKES:;
#LABELS:0.000000=Song Start
;
#NOTES:
// measure 0
0000
0000
0000
0000
,  // measure 1
0000
0000
0000
0000
,  // measure 2
0000
0000
0000
0000
,  // measure 3
0000
0000
0000
0000
,  // measure 4
0000
0000
0000
0000
,  // measure 5
0000
0000
0000
0000
,  // measure 6
0000
0000
0000
0000
,  // measure 7
0000
0000
0000
0000
,  // measure 8
0000
0000
0000
0000
,  // measure 9
0001
0000
0001
0000
,  // measure 10
0001
0000
0001
0000
,  // measure 11
1000
0000
1000
0000
,  // measure 12
1000
0000
1000
0000
,  // measure 13
0001
0000
1000
0000
,  // measure 14
0001
0000
1000
0000
,  // measure 15
1001
0000
0000
0000
,  // measure 16
0000
0000
0000
0000
,  // measure 17
1000
0000
0010
0000
,  // measure 18
1000
0000
0010
0000
,  // measure 19
1000
0000
0100
0000
,  // measure 20
1000
0000
1000
0000
,  // measure 21
0001
0000
0010
0000
,  // measure 22
0001
0000
0010
0000
,  // measure 23
0001
0000
0100
0000
,  // measure 24
1001
0000
0000
0000
,  // measure 25
1000
0000
1000
0000
,  // measure 26
1000
1000
1000
0000
,  // measure 27
0001
0000
0001
0000
,  // measure 28
0001
0001
0001
0000
,  // measure 29
1001
0000
0000
0000
,  // measure 30
1001
0000
0000
0000
,  // measure 31
1001
0000
1001
0000
,  // measure 32
1001
0000
0000
0000
,  // measure 33
0000
1000
0000
1000
,  // measure 34
0000
1000
0000
0010
,  // measure 35
0000
0001
0000
0001
,  // measure 36
0000
0001
0000
0010
,  // measure 37
0000
1000
0000
0010
,  // measure 38
0000
0001
0000
0010
,  // measure 39
0010
0000
1000
0000
,  // measure 40
0100
0000
0010
0000
,  // measure 41
0002
0000
0003
0000
,  // measure 42
0000
0000
0000
0000
,  // measure 43
0200
0000
0300
0000
,  // measure 44
0020
0000
0030
0000
,  // measure 45
2000
0000
3000
0000
,  // measure 46
0000
0000
0000
0000
,  // measure 47
0200
0000
0300
0000
,  // measure 48
0020
0000
0030
0000
,  // measure 49
0001
0000
0001
0000
,  // measure 50
0001
0000
0000
0000
,  // measure 51
0100
0000
0100
0000
,  // measure 52
0100
0000
0000
0000
,  // measure 53
0010
0000
0010
0000
,  // measure 54
0010
0000
0000
0000
,  // measure 55
1000
0000
1000
0000
,  // measure 56
2000
0000
3000
0000
,  // measure 57
0001
0000
0010
0000
,  // measure 58
0100
0000
0100
0100
,  // measure 59
0100
0000
0010
0000
,  // measure 60
0001
0001
0001
0000
,  // measure 61
1000
0000
0010
0000
,  // measure 62
0100
0000
0100
0100
,  // measure 63
0100
0000
0010
0000
,  // measure 64
1000
1000
1000
0000
,  // measure 65
0001
0000
0010
0000
,  // measure 66
0100
0000
1000
1000
,  // measure 67
1000
0000
0010
0000
,  // measure 68
0100
0100
0100
0000
,  // measure 69
0001
0000
0001
0000
,  // measure 70
1000
0000
1000
0000
,  // measure 71
1001
0000
1001
0000
,  // measure 72
0010
0010
0010
0000
,  // measure 73
1001
0000
0000
0000
,  // measure 74
0000
0000
0000
0000
,  // measure 75
0000
0000
0000
0000
,  // measure 76
0000
0000
0000
0000
,  // measure 77
1000
0000
0000
0000
,  // measure 78
1000
0000
0000
0000
,  // measure 79
0001
0000
0000
0000
,  // measure 80
0001
0000
0000
0000
,  // measure 81
1000
0000
1000
0000
,  // measure 82
1000
0000
1000
0000
,  // measure 83
0001
0000
0001
0000
,  // measure 84
0001
0000
0001
0000
,  // measure 85
1000
0000
0001
0000
,  // measure 86
1000
0000
0001
0000
,  // measure 87
1001
0000
0000
0000
,  // measure 88
0000
0000
0000
0000
,  // measure 89
0000
1000
0000
1000
,  // measure 90
0000
1000
0000
0100
,  // measure 91
0000
0001
0000
0001
,  // measure 92
0000
0001
0000
0010
,  // measure 93
0000
1000
0000
0100
,  // measure 94
0000
0001
0000
0010
,  // measure 95
0010
0000
1000
0000
,  // measure 96
0100
0000
0010
0000
,  // measure 97
0001
0000
0000
0000
;
