#TITLE:Pārvatī;
#ARTIST:BEMANI Sound Team "U1 overground";
#TITLETRANSLIT:Parvati;
#ARTISTTRANSLIT:U1 overground;
#BANNER:Parvati.png;
#BACKGROUND:Parvati-bg.png;
#JACKET:Parvati-jacket.png;
#CDTITLE:./CDTITLES/BEATMANIA IIDX.PNG;
#MUSIC:Parvati.ogg;
#SAMPLESTART:14.049;
#SAMPLELENGTH:15;
#DISPLAYBPM:103:205;
#BPMS:0=102.5,24=205,72=102.5,76=205,84=102.5,100=205,128=102.5,130=205,140=410,142=102.5,174=205,202=102.5,204=205,252=102.5,256=205,296=102.5;
#STOPS:131=0.43902439024390243902439024390244,
133=0.29268292682926829268292682926829,
136=0.43902439024390243902439024390244,
138=0.29268292682926829268292682926829
;
#BGCHANGES:-2=Parvati.avi=1=0=0=0,
99999=-nosongbg-=1=0=0=0 // don't automatically add -songbackground-
;

//---------------dance-single - t7r----------------
#NOTES:
     dance-single:
     t7r:
     Beginner:
     6:
     :
0000
0000
0000
0000
,
0000
0000
0000
0000
,
0000
0000
0000
0000
,
0000
0000
0000
0000
,
0000
0000
0000
0000
,
0000
0000
0000
0000
,
0001
0000
0001
0000
,
1000
1000
1000
0000
,
0010
0000
0010
0000
,
0100
0100
0100
0000
,
0001
0000
0010
0000
,
0100
0000
1000
0000
,
0001
0001
0001
0000
,
1000
1000
1000
0000
,
0010
0000
0010
0000
,
0010
0010
0010
0000
,
0100
0000
0100
0000
,
0100
0100
0100
0000
,
0001
0000
1000
0000
,
0100
0000
0100
0000
,
0010
0010
0010
0000
,
1001
0000
0100
0000
,
0010
0000
1000
0000
,
0001
0001
0001
0000
,
1000
1000
1000
0000
,
0010
0000
0010
0000
,
0010
0010
0010
0000
,
0100
0100
0100
0000
,
0001
0001
0001
0000
,
1000
0000
1000
0000
,
1000
1000
1000
0000
,
0001
0000
0001
0000
,
0010
0000
0000
0000
1000
0000
0000
0001
,
0000
0000
0000
0100
0000
0000
0000
0000
,
0000
0010
0000
0000
0000
1000
0000
0000
,
0000
0000
0001
0000
,
0010
0000
0100
0000
,
0001
0000
1000
0000
,
0010
0000
0100
0000
,
1000
0000
0001
0000
,
0001
0000
1000
0000
,
1000
0000
0010
0010
,
0010
0000
0100
0100
,
0100
0000
0001
0000
,
0001
0000
0001
0001
,
0001
0000
1000
1000
,
1000
0000
0010
0010
,
0010
0000
1000
0000
,
1000
0000
0100
0100
,
0100
0000
0010
0000
,
0010
0000
0001
0000
,
1000
1000
1000
0000
,
0010
0010
0010
0000
,
0100
0000
0100
0000
,
0001
0001
0001
0000
,
1000
1000
1000
1000
,
1000
1000
1000
0000
,
0001
0000
0001
0000
,
0000
0010
0010
0000
,
0001
0000
0001
0000
,
1000
1000
1000
0000
,
0010
0000
0010
0000
,
0100
0100
0100
0000
,
0010
0000
0010
0000
,
1000
0000
0001
0001
,
0001
0000
0000
0000
,
0010
0000
0010
0000
,
0010
0010
0010
0000
,
0100
0100
0100
0000
,
0010
0010
0010
0000
,
0001
0001
0001
0001
,
0001
0001
0001
0000
,
1000
1000
1000
1000
,
1000
0000
0000
0000
,
0010
0000
0000
0000
,
0100
0000
0001
1000
;

//---------------dance-single - t7r----------------
#NOTES:
     dance-single:
     t7r:
     Easy:
     11:
     :
0000
0000
0000
0000
,
0000
0000
0000
0000
,
0000
0000
0000
0000
,
0000
0000
0000
0000
,
0000
0000
0000
0000
,
0000
0000
0000
0000
,
0001
0100
0001
0010
,
0100
0100
1000
0001
,
1000
0010
0100
0100
,
0001
0010
0100
0100
,
1000
0010
0001
0010
,
1000
0100
0001
0100
,
1000
0010
0100
0100
,
0100
0001
0010
0100
,
1000
0001
0101
0000
,
0001
1000
1100
0000
,
1000
0010
0100
0001
,
1000
0100
0010
0001
,
2000
0000
3100
0000
0010
0001
1000
0000
,
0001
0100
0010
0010
,
0010
1000
0001
0010
,
0001
1001
0100
0110
,
0010
1000
0001
0010
,
0001
0100
0001
0000
1000
0100
1000
0000
,
0001
0010
0001
0000
1000
0010
1000
0000
,
0001
0010
0010
1000
,
1000
0001
0001
0100
,
1000
0010
0100
0001
,
1000
0010
0002
0000
,
0013
0100
0001
0001
,
0010
0100
1000
1000
,
0001
0000
1000
0001
1000
0001
1000
0000
,
0020
0000
0030
0000
0100
0001
0100
0001
,
1000
0001
1000
0100
1000
0100
1000
0100
,
1000
0100
0010
0100
0010
0001
1000
0001
,
1000
0000
0010
0100
,
0001
0001
1000
0000
0100
0000
0010
0000
,
0001
1000
0010
0000
0100
0001
0100
0000
,
1000
0100
0010
0000
1000
0001
0010
0000
,
0001
0010
0100
1000
0010
0000
0010
0000
,
1000
1000
0001
0001
,
0010
0000
0010
0000
0001
0001
0001
0001
,
0100
0100
0100
0100
0010
1000
0001
0010
,
0001
1000
0100
0000
1000
0000
0100
0000
,
1000
1100
1000
0001
,
0100
0010
1000
0001
,
0010
0011
0001
0100
,
0020
0000
1030
0010
,
0001
0010
0100
0001
,
1000
0001
0010
0001
,
0001
1001
0020
0130
,
0001
0000
0100
0000
0001
0010
0001
0000
,
1000
0000
0100
0000
0000
1000
0010
0000
,
0100
0000
0010
0000
1000
0001
1000
0000
,
0010
0100
2002
3003
,
0001
0011
0001
1001
,
0001
0000
0100
0000
0010
1000
0010
0000
,
1000
0000
0100
0000
0010
0100
0010
0000
,
0001
0100
0010
1001
,
1000
0100
0001
0101
,
0001
0100
1000
1010
,
0100
0000
0010
0000
1000
0001
1000
0000
,
0010
0000
0100
0000
0001
1000
0001
0000
,
2000
0000
3010
0000
1000
0100
0010
0000
,
0001
0000
0100
0000
0001
1000
0001
1000
,
0001
0100
0220
0330
,
1000
1010
1000
1100
,
1000
1010
0110
0110
,
0001
0011
0001
1001
,
0001
0000
0000
0101
0000
0000
0010
0000
0010
0000
0010
0000
,
1000
0001
1000
0000
0010
0100
0010
0000
,
1000
1100
0001
0101
,
0100
0010
0100
0000
0001
1000
0001
1000
,
0001
0010
1000
0100
,
0002
0000
0103
0000
0010
1000
0200
0000
,
0301
0100
0010
0001
1000
0010
0100
1000
;

//---------------dance-single - t7r----------------
#NOTES:
     dance-single:
     t7r:
     Medium:
     14:
     :
0000
0000
0000
0000
,
0000
0000
0000
0000
,
0000
0000
0000
0000
,
0000
0000
0000
0000
,
0000
0000
0000
0000
,
0000
0000
0000
0000
,
0010
0000
1100
0000
0001
1000
0100
1000
,
0010
0101
0010
1100
,
0001
0010
0100
0010
0001
1000
0010
0000
,
1000
0100
0010
0100
1000
0001
0010
0000
,
0001
0100
1000
0100
0001
0100
1000
0100
,
0002
0000
1003
0100
0001
0100
1000
0000
,
0010
0100
0001
0000
1000
1000
1000
1000
,
1000
0000
0000
0000
0001
0000
0000
0000
1000
0100
0000
0000
1100
0000
0000
0000
,
0010
0000
0101
0000
1000
0010
0001
0010
,
1000
0011
0100
1010
,
0001
0010
1000
0010
0001
0100
0010
0000
,
1000
0010
0001
0010
1000
0100
0010
0000
,
0200
0000
0000
1300
0001
0000
0100
0000
0020
0000
1030
0000
0001
0010
2000
0000
,
3010
0001
0100
0000
0010
0010
0010
0010
,
0010
0000
0000
0000
0100
0000
0001
0000
1000
0001
0000
0000
1001
0000
0000
0000
,
2100
0000
0000
0000
0000
0000
3010
0000
0010
1000
0000
0000
0001
0000
1001
0000
0000
0000
1000
0000
1000
0100
0000
0100
,
0010
0000
0000
0001
0000
0001
0100
0000
0000
0010
0000
0010
1000
0000
0000
0001
0000
0001
0010
0001
1000
0010
0000
0000
,
1000
0000
0100
0000
1000
0000
0100
0000
0000
0000
0000
0000
1100
0000
0000
0000
0000
0000
1000
0000
0000
0000
0000
0000
0001
0000
0000
0000
0000
0000
0100
0000
0001
0000
0100
0000
0010
0000
0000
0000
0000
0000
1000
0000
0000
1000
0000
0000
,
0001
0000
0001
0010
0000
0010
1000
0000
1000
0010
0000
0010
0100
0000
1000
0100
0000
0001
0100
0000
0000
0110
0000
0000
,
0001
0000
0100
0010
0100
0001
0100
1000
,
0100
0010
1000
0100
0010
0000
0001
0010
,
0001
0100
1000
0001
0010
0000
1000
0100
,
0001
1000
0010
0001
1000
1000
0001
0000
,
0100
0000
0101
0001
0020
0000
0031
0000
,
0100
0000
1010
0010
2000
0000
3001
0000
,
0200
0000
0310
0010
1000
1000
0001
0001
,
0020
0000
0031
0002
1003
1000
1000
0010
,
0010
0010
0010
0100
0100
0100
0100
0100
,
0100
0001
0001
0001
0001
1000
0100
0010
,
0001
0000
1001
0020
,
1030
0100
1000
0000
0001
0000
0100
0000
1000
0100
0010
0000
1000
0000
1000
0000
,
0001
0010
0100
0000
2000
0000
0000
0000
3001
0010
0000
0001
0100
0000
0010
0000
,
1000
0001
0100
0010
1000
0000
0001
0001
1000
0000
0100
0001
0100
0000
0010
0000
,
1000
0000
0000
0000
0000
0000
0010
0000
0001
0000
0100
0000
0010
0000
0000
0000
0000
0000
0110
0000
0000
0000
0000
0000
0010
0000
0000
1000
0000
0000
1000
0000
0000
0000
0000
0000
0100
0000
0000
0000
0000
0000
2000
0000
0000
0000
0000
0000
,
0000
3010
0010
0000
0100
0000
0002
0000
0000
0013
0010
0000
0000
0100
0100
0000
,
0000
1000
1000
0000
0000
0001
0001
0000
1000
0100
1000
0000
0001
0100
0001
0000
,
1000
0010
1000
0000
0001
0010
0001
0000
1000
0100
0001
0100
1000
0010
0001
0010
,
1000
0000
0000
0001
0000
0000
0000
0000
0000
0100
0000
0000
0020
0000
0000
0000
0000
0000
1030
0000
0000
0000
1000
0000
0001
0000
0000
0000
0000
0000
0000
0000
0001
0000
0000
0000
0100
0000
0000
0000
0000
0000
0000
0000
0100
0000
0000
0000
,
0010
0000
0010
1000
0000
0001
1000
0000
1000
0100
0000
0100
,
0010
0000
0010
0001
0000
0001
1000
0000
0100
0001
0000
0100
,
0010
0000
0000
0011
0000
0000
0001
0000
0100
1000
0000
0100
,
0020
0000
0000
1030
0000
0000
1010
0000
0000
0101
0000
1000
,
0100
0000
0100
0000
0000
0011
0000
0000
0001
0100
0000
0100
,
0020
0000
0000
1030
0000
0001
1000
0000
0000
0001
0100
0001
,
1000
0000
0100
0000
1000
0000
0001
0000
0010
0000
0001
0000
2000
0000
0000
0000
0000
0000
3010
0000
0000
0010
0000
0000
,
1000
0000
0100
0000
1000
0001
0000
0001
0000
0000
1000
0000
0100
0000
0000
0000
,
1000
0010
0100
0001
1000
0010
0100
0001
,
1000
0100
0010
0001
0100
0100
0100
0000
,
0001
0000
0000
0010
0000
0000
1000
0000
0020
0000
0000
0000
0031
0000
0000
0000
,
0101
0000
1100
0000
0101
0001
1000
0010
,
1000
0000
1010
0000
1001
1000
0100
0100
,
0010
0001
0100
0000
0010
0010
0010
0010
,
0010
0000
0000
0000
1000
0000
0001
0000
0100
0010
0000
0000
0110
0000
0000
0000
,
1010
0000
0101
0000
1000
0100
0010
0100
,
1000
0000
0000
0001
0010
0000
0000
0000
0001
0000
0000
1000
0010
0000
0000
0000
,
1000
0001
0100
0010
1000
0100
0010
0000
,
0001
1000
0010
0100
0001
0010
0100
0000
,
0020
0000
0000
0000
0031
0000
1000
0000
0001
0100
1000
0100
0001
1000
0002
0000
,
0013
0000
0001
0000
1000
1000
1000
1000
,
1000
0000
0000
0000
0010
0000
0100
0000
0001
1000
0000
0000
1001
0000
0000
0000
,
0001
0010
1000
0010
0001
0010
1000
0010
,
0011
1100
0101
1100
,
1000
0010
0001
0010
0100
0100
0100
0000
,
0001
0000
0000
0010
0000
0000
1000
0000
0000
0010
0000
0000
0001
0000
0000
0000
0001
0000
0000
0000
0001
0000
0000
0000
,
1000
0100
1000
0100
0001
0100
0001
0100
,
0010
0001
0100
1000
0100
0001
0020
0000
,
0031
0100
1000
0100
0001
0001
0001
0001
,
0001
1000
0010
0001
1000
0100
0001
1000
,
0002
0000
0013
0010
0002
0203
2300
0000
,
3200
0000
0320
0000
2030
0000
3200
0000
0310
0001
0010
1000
0010
0001
1000
0010
;

//---------------dance-single - t7r----------------
#NOTES:
     dance-single:
     t7r:
     Hard:
     17:
     :
0000
0000
0000
0000
,
0000
0000
0000
0000
,
0000
0000
0000
0000
,
0000
0000
0000
0000
,
0000
0000
0000
0000
,
0000
0000
0000
0000
,
0010
0000
0101
0000
1000
1000
1000
1000
,
0100
0000
0000
0010
0001
0000
0000
0000
0100
0000
0000
0010
1000
0000
0000
0000
,
0001
0000
0100
0000
1000
0000
0100
0000
0010
1000
0010
1000
0001
0000
0010
0000
,
0001
0100
0001
0000
1000
0000
0100
0000
1000
0010
1000
0001
1000
0000
0000
0000
,
0100
0001
0100
1000
0100
0001
0100
0010
,
0002
0000
0000
0000
1003
0000
0000
0000
0010
0000
0010
0000
0100
0001
0100
0001
,
1000
0100
0001
0100
0010
0010
0010
0010
,
0010
0000
0001
0000
0100
0000
0001
0010
0100
1000
0010
0000
0100
0000
0000
0000
,
0010
0000
1100
0000
0001
0001
0001
0001
,
0010
0000
0000
0001
0100
0000
0000
0000
0010
0000
0000
1000
0100
0000
0000
0000
,
1000
0000
0010
0000
0001
0000
0010
0000
0100
0001
0100
0001
1000
0000
0001
0000
,
1000
0100
1000
0000
0001
0000
0010
0000
0001
0100
0010
1000
0001
0000
0000
0000
,
1000
0000
0100
1000
0010
0100
0001
0010
0200
0000
0320
0000
0031
0001
0100
0100
,
0010
0001
0010
1000
0001
0001
0001
0001
,
0001
0000
1000
0000
0100
0000
0001
0000
0100
0010
0001
1000
0010
0000
0000
0000
,
0201
0000
0000
0000
0000
0000
0310
1000
0010
1000
0100
1000
0001
0000
1001
0000
0000
0000
1000
0100
1000
0010
1000
0001
,
0010
0000
0001
0100
0001
0010
0001
0000
1000
0100
1000
0010
1000
0000
0000
0010
0000
0010
0100
0001
0100
1000
0100
0010
,
0100
0000
0001
0000
1000
0000
0001
0000
0000
0100
0000
0000
1010
0000
0000
0000
0000
0000
1000
0000
0000
0000
0000
0000
1100
0000
0000
0000
0000
0000
0001
0000
0010
0000
0100
0000
0010
0000
0001
0000
0100
0000
0010
0000
1000
0000
0001
0000
,
0010
0000
0001
0000
0100
0000
0000
0000
1001
0000
0000
0000
0001
0000
0000
0000
1000
0100
1000
0000
0001
0010
0001
0000
1000
0010
1000
0000
0001
0100
0001
0000
,
1001
0000
0001
0010
1000
0010
0100
1000
,
0100
0001
0100
0010
0001
0100
1000
0001
,
1000
0000
0100
0000
0001
0010
0100
1000
0002
0000
0000
0000
1003
0000
0010
0000
,
0001
0010
1000
0000
0001
0010
1000
0000
0010
0000
0010
0000
0100
0010
0100
0000
,
0010
0000
0011
0001
0100
0000
1001
1000
,
0010
0000
1010
1000
0200
0000
1300
0001
,
2000
0000
0000
0000
3001
0010
0001
0010
0100
1000
0100
1000
0001
0100
0010
1000
,
0020
0000
0100
0000
1030
0001
2000
0000
3001
0000
0001
0000
0101
0000
1000
0000
,
1000
0100
1100
0001
0001
0010
0010
0001
,
1001
1000
1000
0010
1010
0010
0010
0100
,
0101
0000
0000
0000
1100
0001
2000
0000
,
3010
0000
0000
1000
0000
0000
0010
0000
0000
0001
0000
0000
0010
0000
0000
1000
0000
0000
0010
0000
0000
0001
0000
0000
0010
0000
0100
0000
0001
0000
0100
0000
0000
0000
0100
0000
0010
0000
0000
0000
0010
0000
1000
0000
0000
0000
1000
0000
,
0001
0000
0010
0000
0100
0000
1000
0000
0010
0000
0100
0000
0002
0000
0000
0000
0000
0000
1003
0000
0000
0000
0000
0000
0101
0000
0000
0001
0000
0000
1000
0000
0000
0100
0000
0000
0020
0000
0000
0000
0000
0000
0130
0000
0000
1000
0000
0000
,
0100
0000
0000
0001
0000
0000
0100
0000
0000
1000
0000
0000
0010
0000
0000
0100
0000
0000
0001
0000
0000
0001
0000
0000
1000
0000
0000
0010
0000
0000
0100
0000
0001
0000
1000
0000
0002
0000
0000
0000
0000
0000
0013
0000
0001
0000
1000
0000
,
0001
0000
0000
0000
0100
0000
1000
0000
0100
0000
0010
0000
1000
0000
0001
0000
0010
0000
0100
0000
1000
0000
0001
0000
1000
0000
0000
0001
0000
0000
0100
0000
0000
0100
0000
0000
1000
0000
0000
0000
0000
0000
0110
0000
0000
0000
0000
0000
,
0000
0000
1000
0000
0100
0000
0100
0000
0001
0000
0000
0000
0110
0000
0000
0000
0000
0000
0001
0000
0010
0000
0010
0000
1000
0000
0010
0000
0010
0000
0001
0100
,
0001
0000
0100
0000
0100
0000
1000
0100
1000
0000
0100
0000
0100
0000
0000
0000
0001
0000
0001
0000
0010
0000
0010
0000
0100
0000
0100
0000
0001
0000
0001
0000
,
1000
0000
1000
0000
0010
0000
0010
0000
0100
0000
0100
0000
1000
0000
1000
0000
0001
0100
0001
0000
1000
0100
1000
0000
0001
0010
0001
0000
1000
0010
1000
0000
,
0001
0000
0000
0000
0000
0000
0120
0000
0000
0000
0000
0000
0000
0000
0000
0000
0000
0000
1030
0000
0000
0001
0000
0000
0200
0000
0000
0000
0000
0000
0000
0000
0000
0000
0000
0000
0301
0000
0000
0000
0000
0000
0000
0000
0001
0000
0000
0000
1000
0000
0000
0000
0000
0000
0000
0000
0000
0000
0000
0000
0000
0000
0000
0000
1000
0000
0000
0000
0000
0000
0000
0000
0100
0000
0000
0000
0000
0000
0000
0000
0000
0000
0000
0000
0000
0000
0000
0000
0100
0000
0000
0000
0000
0000
0000
0000
,
0010
0000
0010
1000
0000
1000
0001
0000
0100
1000
0000
0001
,
0010
0000
1000
0010
0000
0001
0100
1000
0001
0010
1000
0001
,
1000
0010
0100
1000
0000
0100
0001
0010
0100
0001
0100
0010
,
0001
0000
0000
1000
0000
0000
1001
0000
0000
0000
0000
0000
1100
0000
0000
0000
0000
0000
1001
0000
0000
0000
0001
0000
,
0100
0000
0100
1000
0000
0100
0010
0000
0010
1000
0000
1000
,
0200
0000
0310
0001
0000
0001
0100
0000
0001
1000
0001
1000
,
0100
0000
0010
0000
1000
0000
0001
0000
0100
0000
0010
0000
0001
0000
1000
0010
0000
0001
0010
0000
0100
0020
0000
0000
,
1030
0000
0010
0000
1000
0100
0000
0100
0010
0000
0001
0000
0100
0000
1000
0000
,
0001
0010
0001
0010
1000
0000
0001
0000
1000
0100
1000
0100
0001
0000
0100
0000
,
0010
0000
0001
0000
0100
0000
0100
0000
0100
0000
0100
0000
0100
0010
1000
0001
,
1000
0000
0010
0001
0000
0010
1000
0000
0010
0000
0100
0000
0001
0000
0001
0000
,
0101
0000
1100
0000
0101
0001
0100
0001
,
1001
0000
0000
0000
1100
0000
0000
0000
1000
0000
1000
0000
0001
0010
0001
0010
,
0001
0010
0010
0010
1000
1000
1000
1000
,
1000
0000
0010
0000
0001
0000
0100
0010
1000
0001
1000
0100
0010
0001
1000
0001
,
1000
0000
0010
0000
0001
0010
0000
0100
0000
0100
0001
0000
0010
0000
0100
0000
,
1000
0000
0000
0010
0100
0000
0000
0000
0001
0000
0000
0010
0100
0000
0000
0000
,
1000
0000
0100
0000
0010
0000
1000
0000
0010
0100
0010
0100
1000
0000
0001
0000
,
0100
0000
0010
0000
0001
0000
0010
0000
0100
0001
1000
0001
0010
0000
0000
0000
,
0002
0000
0000
0000
0000
0000
0103
0000
1010
0000
0000
0000
0110
0000
0000
0000
0010
1000
0010
1000
0001
0000
0010
0000
0001
0010
0100
1000
0001
0000
0001
0000
,
1000
0100
0001
0100
0010
0010
0010
0010
,
0010
0000
0001
0000
0100
0000
0010
1000
0100
0010
0001
0010
0001
1000
0001
1000
,
0001
0000
0100
0001
0100
0000
1000
0100
1000
0000
0100
0010
0100
0000
0010
1000
,
0001
0010
0100
0010
0001
0100
0010
0100
0001
0010
0100
1000
0001
0000
0001
0000
,
1000
0000
0100
0001
0100
0000
1000
0100
1000
0000
0001
0000
0001
0000
0001
0000
,
0010
0000
0000
0001
0000
0000
0100
0000
0000
0000
0000
0000
0010
0000
0000
1000
0000
0000
0100
0000
0000
0000
0000
0000
0010
0000
0000
0000
0000
0000
0000
0000
0010
0000
0000
0000
0000
0000
0000
0000
0010
0000
0000
0000
0000
0000
0000
0000
,
0001
0010
1000
0001
0100
1000
0001
0100
,
1000
0000
0100
0000
0010
0000
1000
0000
0001
0000
0001
0000
1000
0010
1000
0010
,
1000
0010
0110
0000
0001
0001
0001
0001
,
0001
0000
1000
0100
1000
0010
1000
0000
0001
0010
0100
1000
0001
0000
0100
0000
,
0020
0000
1030
0002
2003
3020
0032
1003
,
0200
0000
0320
0000
2030
0000
3002
0000
0013
1000
0010
0100
1000
0010
0100
0100
;

//---------------dance-single - t7r's initial idea----------------
#NOTES:
     dance-single:
     t7r's initial idea:
     Edit:
     18:
     :
0000
0000
0000
0000
,
0000
0000
0000
0000
,
0000
0000
0000
0000
,
0000
0000
0000
0000
,
0000
0000
0000
0000
,
0000
0000
0000
0000
,
0011
0000
1000
0001
0100
0010
1000
0100
,
0010
0000
0000
0000
0001
0000
0100
0000
0001
0010
0001
0010
0001
0000
0000
0000
,
1000
0000
0001
0000
0100
0000
0010
0000
1000
0001
0100
0001
1000
0000
0001
0000
,
0010
0000
0001
0000
0100
0000
0001
0000
0010
0100
1000
0100
0010
0000
0000
0000
,
0001
0100
1000
0100
0001
0010
0001
0100
,
1000
0100
0001
0010
0001
0100
1000
0000
,
0100
0010
1000
0000
0100
0100
0100
0100
,
0100
0000
0000
0000
0010
0000
0001
0010
0001
0000
1000
0000
0010
0000
0000
0000
,
1000
0010
0001
1000
0100
0001
1000
0010
,
0001
1000
0100
0001
1000
0010
0001
0000
,
0010
0000
1000
0000
0100
0000
1000
0001
0010
0001
1000
0000
0001
0000
0100
0000
,
0001
0000
0010
0000
0100
0000
0010
0001
1000
0001
0010
0000
0001
0000
0000
0000
,
1001
0000
0100
0010
1000
0100
0010
0000
1001
0000
0100
0010
0001
0000
0100
0100
,
0001
0010
0100
0000
0100
0100
0100
0100
,
0100
0000
1000
0010
1000
0001
0110
0000
,
2100
0000
0000
0000
0000
0000
3001
1000
0001
1000
0100
1000
0001
0000
0110
0000
0000
0000
1000
0010
0100
0001
0000
0000
,
0010
0000
0000
0000
0000
0000
0100
0000
0000
0000
0000
0000
0011
0000
0000
0000
0000
0000
1000
0000
0000
0000
0000
0000
1001
0000
0000
0000
0000
0000
0010
0000
0000
0010
0000
0000
1000
0000
0001
0000
0100
0000
0001
0000
0000
0000
0000
0000
,
1000
0100
1000
0001
0000
0010
0001
0000
0100
0010
0000
1000
0001
0100
0001
1000
0000
0010
1000
0000
0100
0010
0000
0001
,
0100
0001
1000
0100
0000
0010
0001
0000
1000
0001
0000
0010
0100
0001
0100
1000
0100
0000
0001
0000
0100
0010
0000
0000
,
0011
0000
0001
0100
1000
0100
0010
1000
,
0100
0001
0100
0010
0001
0100
0010
1000
,
0001
0000
0010
0000
0001
0100
0010
1000
0002
0000
0000
0000
1003
0000
0100
0000
,
1000
0010
1000
0010
0100
0001
0100
0001
1000
0000
0100
0000
0010
0100
0010
0000
,
1200
0000
0301
0100
0010
0010
0001
0100
,
1000
0100
0010
0010
2000
0000
3001
0010
,
0002
0000
0000
0000
1003
0100
1000
0100
0010
0001
0010
0001
1000
0001
1000
0001
,
1000
0100
0001
0100
1000
0001
0010
0000
0001
0000
0100
0000
0010
0000
0010
0000
,
1000
0001
0010
0010
0010
0100
0100
1000
,
0010
0001
0010
1000
0100
0001
0100
1000
,
0001
0000
0000
0000
0000
0000
0000
0000
1001
0000
0100
0010
0002
0000
0103
0000
,
0010
0000
1000
0000
0001
0000
0100
0000
0010
0000
1000
0000
0001
0000
0010
0000
0001
0000
0100
0010
0100
0000
0001
0100
0001
0000
1000
0000
0001
0000
1000
0100
,
1000
0000
0001
0010
0001
0000
1000
0001
1000
0000
0001
0000
0100
0000
0000
0000
0010
0000
1000
0000
0100
0000
1000
0000
1010
0000
0000
0000
0101
0000
0000
0000
,
1100
0000
0000
0000
0000
0000
0001
0000
0000
0010
0000
0000
0001
0000
0000
0100
0000
0000
0010
0000
0000
0010
0000
0000
0100
0000
0000
0001
0000
0000
0010
0000
0001
0000
1000
0000
0100
0000
0000
0000
0000
0000
1000
0000
0000
0010
0000
0000
,
0100
0000
0000
0000
0000
0000
0010
0000
0000
0000
0000
0000
1000
0000
0000
0000
0010
0000
0000
0000
0100
0000
0000
0000
0001
0000
0000
0000
0000
0000
0000
0000
0000
0000
0000
0000
1000
0000
0000
0001
0000
0000
1000
0000
0000
0000
0000
0000
0010
0000
0000
0000
0000
0000
0000
0000
0000
0000
0000
0000
0010
0000
0000
0000
0000
0000
0000
0000
0000
0000
0000
0000
1000
0000
0000
0000
0000
0000
0000
0000
0000
0000
0000
0000
1000
0000
0000
0000
0000
0000
0000
0000
0000
0000
0000
0000
,
0100
0000
0100
0000
0010
0000
0010
0000
1000
0000
1000
0000
0001
0100
1000
0000
,
0001
0000
0001
0000
1000
0100
0001
0000
0001
0010
1000
0010
0100
0000
0101
0000
,
1000
0000
0100
0000
1001
0000
0100
0000
0010
0000
0000
0000
1010
0000
0000
0000
1000
0010
1000
0010
1000
0010
0100
0001
0010
0001
0010
0001
0010
0001
0100
0010
,
1000
0000
0000
0000
0000
0000
0001
0000
0000
0000
0000
0000
0100
0000
0000
0010
0000
0000
0100
0000
0000
0000
0000
0000
1001
0000
0000
0000
0000
0000
0000
0000
0000
0000
0000
0000
0100
0000
0000
0000
0000
0000
0000
0000
0100
0000
0000
0000
0010
0000
0000
0000
0000
0000
0000
0000
0000
0000
0000
0000
0000
0000
0000
0000
0010
0000
0000
0000
0000
0000
0000
0000
1000
0000
0000
0000
0000
0000
0000
0000
0000
0000
0000
0000
0000
0000
0000
0000
1000
0000
0000
0000
0000
0000
0000
0000
,
0001
0000
0001
0100
0000
0100
0010
0000
0010
1000
0000
1000
,
0001
0000
0001
0100
0000
0100
0001
0010
0100
1000
0010
0100
,
0001
0000
0000
1010
0000
0000
1000
0100
0010
0001
1000
0010
,
0100
0000
0000
0000
0000
0000
0010
0000
0000
0000
0000
0000
1000
0000
0000
0010
0000
0000
0100
0000
0000
0001
0000
0000
0010
0000
0000
0000
0000
0000
0000
0000
0100
0000
0000
0000
1000
0000
0000
0000
0000
0000
0000
0000
1000
0000
0000
0000
,
0100
0000
0100
0010
0000
0010
0000
0000
0001
0100
0000
0100
,
0010
0000
0010
1000
0000
1000
0001
0010
0001
1000
0010
1000
,
0001
0000
0100
0000
0001
0000
1000
0000
0100
0000
1000
0000
0001
0000
0100
0001
0000
0100
0001
0000
1000
0001
0000
0000
,
1000
0000
0100
0000
0010
0100
0000
0100
1000
0000
0001
0000
1000
0100
1000
0000
,
0001
0010
0001
0000
1000
0000
0001
0000
0100
0001
0100
0000
0010
0000
1000
0000
,
0001
1000
0001
1000
0001
0000
0100
0000
0010
0000
0010
0000
0010
0000
0010
0000
,
1000
0000
0100
0000
1000
0001
1000
0001
1000
0000
0010
0000
1000
0000
0000
0000
,
0100
0010
0001
0100
1000
0000
0010
1000
,
0100
0001
0010
1000
0001
0000
0110
0000
,
1001
0000
0010
1000
0100
0000
0001
0010
,
0000
0000
1000
0000
0100
0000
1000
0001
1000
0000
0010
0000
0110
0000
0000
0000
,
0001
1000
0100
0010
0001
0100
0010
0000
,
1000
0000
0000
0000
0001
0100
0000
0000
0010
0000
0000
0000
1000
0100
0000
0000
,
1000
0000
0010
0000
0100
1000
0100
1000
0100
0000
0001
0000
0100
0000
0010
0000
,
1000
0000
0100
0000
0001
0100
0001
0100
0001
0000
0100
0000
0010
0000
0000
0000
,
0100
0000
1000
0000
0010
0000
0001
0000
0010
0000
1000
0000
0100
0000
0010
0000
0100
0000
1000
0000
0001
0000
0100
0000
0010
1000
0001
0100
0010
0000
0010
0000
,
1000
0010
1000
0001
0010
0010
0010
0010
,
0010
0000
0001
0000
0100
0000
0010
0000
1000
0001
1000
0001
1000
0000
0000
0000
,
0001
0100
0001
0100
0001
1000
0001
1000
0100
1000
0100
1000
0001
1000
0001
0100
,
0001
0100
0001
0100
0001
1000
0001
1000
0010
1000
0001
1000
0010
0000
0000
0000
,
0010
0100
0001
0100
0001
0100
0001
0100
0010
1000
0100
1000
0100
1000
0100
1000
,
0010
0000
0000
0010
0000
0000
0100
0000
0000
0100
0000
0000
0001
0000
0000
0000
0110
0000
0000
0000
1001
0000
0000
0000
,
0001
0010
0100
1000
0001
0100
1000
0100
,
0010
1000
0001
0010
0100
0010
0110
0000
,
1000
0000
0010
0000
0001
0000
0010
1000
0010
1000
0010
0000
0010
0000
0010
0000
,
0010
0000
1000
0100
1000
0001
0000
0000
1000
0010
0100
0001
1000
0100
0010
0001
,
1000
0100
0001
0100
0200
0000
0310
0000
0011
0000
1100
0000
0102
0000
1003
0000
,
0002
0000
0203
0000
2300
0000
3020
0000
0031
0001
0100
1000
0100
0100
0010
1000
;
