#TITLE:Para siempre;
#SUBTITLE:;
#ARTIST:削除 feat. 削除;
#TITLETRANSLIT:;
#SUBTITLETRANSLIT:;
#ARTISTTRANSLIT:;
#GENRE:MEXICAN DRUMSTEP;
#CREDIT:;
#BANNER:Para siempre.png;
#BACKGROUND:Para siempre-bg.png;
#LYRICSPATH:;
#CDTITLE:cdtitlesc2021.png;
#MUSIC:Para siempre.ogg;
#OFFSET:-0.007000;
#SAMPLESTART:45.340332;
#SAMPLELENGTH:16.000000;
#SELECTABLE:YES;
#BPMS:0.000000=180.000000
;
#STOPS:
;
#BGCHANGES:0.000=Para siempre.avi=1.000=1=0=0=StretchNoLoop==CrossFade==,
99999=-nosongbg-=1.000=0=0=0 // don't automatically add -songbackground-
;
#KEYSOUNDS:;
#ATTACKS:;

//---------------dance-single - ----------------
#NOTES:
     dance-single:
     :
     Hard:
     15:
     0.644013,0.887531,0.330057,0.185154,0.285781,560.000000,519.000000,41.000000,23.000000,0.000000,0.000000,0.644013,0.887531,0.330057,0.185154,0.285781,560.000000,519.000000,41.000000,23.000000,0.000000,0.000000:
// measure 0
0000
0000
0000
0000
,  // measure 1
0000
0000
0000
0000
,  // measure 2
0000
0000
0000
0000
,  // measure 3
0000
0000
0000
0000
,  // measure 4
1001
0000
1000
0100
0000
0010
0000
0001
,  // measure 5
0000
0010
0001
0100
0000
0100
0001
0000
,  // measure 6
0000
0000
0010
0100
0000
0000
0000
0010
,  // measure 7
0000
0001
1000
0100
0000
0010
0001
0000
,  // measure 8
1100
0000
0000
0000
0000
0000
0000
0000
0000
0000
0001
0100
0010
0000
1000
0000
,  // measure 9
0000
0000
0000
0000
0000
0001
0000
0010
,  // measure 10
0100
0000
0010
0000
0000
0000
0000
0000
0100
0000
0000
1000
0000
0000
0001
0000
,  // measure 11
0100
0000
0000
0000
0000
0000
0000
0000
0000
0000
0000
0000
0000
0000
0000
0000
0000
0000
0000
0000
0000
0000
0000
0000
0010
0000
0000
0000
0000
0000
0000
0000
0000
1000
0000
0000
0000
0000
0000
0000
0001
0000
0000
0000
0000
1000
0000
0000
,  // measure 12
0001
0000
0000
0000
0000
0000
0000
0000
0000
0010
0000
0000
0000
0000
0000
0000
0000
0000
0100
0000
0000
0000
0000
0000
0010
0000
0000
0000
0000
0000
0000
0000
0001
0000
0000
0000
0000
0000
0000
0000
0100
0000
0000
0000
0000
0000
0000
0000
,  // measure 13
0000
0000
0000
0000
0000
0000
0000
0000
0000
0000
0000
0000
0000
0000
0000
0000
0010
0000
0000
0000
0000
1000
0000
0000
0000
0000
0000
0001
0000
0000
1000
0000
,  // measure 14
0001
0010
0000
0100
0000
0010
0000
0001
,  // measure 15
0100
1000
0000
0100
0001
0000
0000
0100
,  // measure 16
1001
0000
0000
0000
0000
0000
0000
0000
0000
0000
1000
0010
0100
0000
0001
0000
,  // measure 17
0000
0000
0000
0000
0000
0010
0000
0100
,  // measure 18
1000
0000
0010
0000
0000
0000
0000
0000
0100
0000
0000
0001
0000
0000
1000
0000
,  // measure 19
0001
0000
0000
0000
0000
0000
0000
0000
0000
0000
0000
0000
0000
0000
0000
0000
0000
0000
0000
0000
0000
0000
0000
0000
0010
0000
0000
0000
0000
0000
0000
0000
0000
0100
0000
0000
0000
0000
0000
0000
1000
0000
0000
0000
0000
0001
0000
0000
,  // measure 20
1000
0000
0000
0000
0000
0000
0000
0000
0000
0010
0000
0000
0000
0000
0000
0000
0000
0000
0100
0000
0000
0000
0000
0000
0001
0000
0000
0000
0000
0000
0000
0000
0010
0000
0000
0000
0000
0000
0000
0000
0100
0000
0000
0000
0000
0000
0000
0000
,  // measure 21
0000
0000
0000
0000
0000
0000
0000
0000
0000
0000
0000
0000
0000
0000
0000
0000
0000
0000
0000
0000
0000
0000
0000
0000
0010
0000
0000
0000
0000
0000
0000
0000
0001
0000
0000
0000
1000
0000
0000
0001
0000
0000
1000
0000
0000
0000
0000
0000
,  // measure 22
0001
0100
0000
0100
0000
0010
0000
1000
,  // measure 23
0100
0001
0000
0001
0100
0000
0000
0000
,  // measure 24
0110
0010
0001
1000
0000
0001
0000
0100
,  // measure 25
0001
0000
0010
0200
0000
2300
0000
0002
,  // measure 26
0000
0000
3003
0000
,  // measure 27
0000
0000
0000
0000
,  // measure 28
0110
0100
0001
1000
0000
0010
0000
0100
,  // measure 29
0001
0000
0010
0200
0000
2300
0000
3002
,  // measure 30
1003
0010
0100
0001
1000
0010
0100
0001
,  // measure 31
1000
0100
1000
0100
0010
0001
0010
0001
0100
0001
0100
0001
1000
0010
1000
0010
,  // measure 32
0000
0000
0100
0100
0000
0100
0000
0110
,  // measure 33
0000
0110
0000
0010
1001
0000
0000
0000
,  // measure 34
2010
0000
3001
0001
0001
0001
0001
0001
,  // measure 35
0001
0000
0001
0000
0001
0000
0001
0000
0001
0000
0100
0010
0000
1000
0100
0010
,  // measure 36
0000
0000
0100
0100
0100
0100
0100
0100
,  // measure 37
0100
0100
0100
0100
2000
0000
0000
0000
,  // measure 38
3020
0000
0130
0100
0100
0100
0100
0100
,  // measure 39
0100
0000
0100
0000
0100
0000
0100
0000
0100
0000
0010
1000
0000
0001
0010
0100
,  // measure 40
0000
0000
0010
0010
0010
0010
0010
0010
,  // measure 41
0010
0010
0010
0010
0200
0000
0000
0000
,  // measure 42
2300
0000
3001
0001
0001
0001
0001
0001
,  // measure 43
0001
0000
0001
0000
0001
0000
0001
0000
0001
0000
0100
0001
0000
0010
0100
1000
,  // measure 44
0000
0000
0010
0010
0010
0010
0010
0010
,  // measure 45
0010
0010
0010
0010
0200
0000
0000
0000
,  // measure 46
0302
0000
1003
1000
1000
1000
1000
1000
,  // measure 47
1000
0000
1000
0000
1000
0000
1000
0000
1000
0000
0100
0010
0000
0100
1000
0001
,  // measure 48
0000
0000
0100
0100
0100
0100
0100
0100
,  // measure 49
0100
0100
0100
0100
0020
0000
0000
0000
,  // measure 50
0030
0000
1000
0001
0000
0010
0000
0001
,  // measure 51
0000
0100
0000
0001
0010
0000
0010
0001
,  // measure 52
1000
0000
0001
0100
0000
0010
0000
1000
,  // measure 53
0000
0100
0000
0010
0100
0000
0100
0000
,  // measure 54
0010
0000
0100
1000
0000
0010
0000
0001
,  // measure 55
0000
0010
0000
1000
0001
0000
0001
0000
,  // measure 56
1000
0000
0001
0010
0000
1000
0000
0010
,  // measure 57
0000
0001
0000
1000
0001
0000
0001
0000
,  // measure 58
1100
0100
0010
0001
0000
0010
0000
0001
,  // measure 59
0100
0000
0010
1000
0000
0001
1000
0002
,  // measure 60
0010
0010
0100
0100
,  // measure 61
0013
0100
0000
0010
0000
0100
0000
1000
,  // measure 62
0001
1000
0100
0010
0000
0100
0000
1000
,  // measure 63
0010
0000
0100
0001
0000
1000
0000
0001
,  // measure 64
1000
0010
0100
0001
1000
0010
0100
0001
,  // measure 65
1000
0100
1000
0100
0010
0001
0010
0001
0100
0001
0100
0001
1000
0010
1000
0010
,  // measure 66
0000
0000
0100
0100
0000
0100
0000
0110
,  // measure 67
0000
0110
0000
0010
1001
0000
0000
0000
,  // measure 68
0120
0000
1030
1000
1010
1000
1000
1000
,  // measure 69
1010
0000
1000
0000
1000
0000
1000
0000
1010
0000
1000
0010
0000
0100
0001
1000
,  // measure 70
0000
0000
0001
0001
1001
0001
0001
0001
,  // measure 71
1001
0001
0001
0001
2001
0000
0000
0000
,  // measure 72
3200
0000
0310
0010
0011
0010
0010
0010
,  // measure 73
0011
0000
0010
0000
0010
0000
0010
0000
0011
0000
0001
0010
0000
0010
0100
1000
,  // measure 74
0020
0000
0130
0100
0110
0100
0100
0100
,  // measure 75
0110
0010
0110
0100
1001
0000
0000
0000
,  // measure 76
0210
0000
0301
0001
0101
0001
0001
0001
,  // measure 77
0101
0000
0001
0000
0001
0000
0001
0000
0101
0000
0001
0100
0000
0010
1000
0001
,  // measure 78
0000
0000
1000
1000
1001
1000
1000
1000
,  // measure 79
1001
1000
1000
1000
1002
0000
0000
0000
,  // measure 80
0023
0000
0130
0100
1100
0100
0100
0100
,  // measure 81
1100
0000
0100
0000
0100
0000
0100
0000
1100
0000
1000
0100
0000
0100
0010
0001
,  // measure 82
0200
0000
0310
0010
0110
0010
0010
0010
,  // measure 83
0110
0100
0110
0010
1001
0000
0000
0000
,  // measure 84
1000
0000
0001
0010
0000
1000
0000
0010
,  // measure 85
0000
0001
0000
1000
0010
0000
0100
0000
,  // measure 86
0001
0000
0100
0001
0000
0100
0000
1000
,  // measure 87
0000
0100
0000
0001
1000
0000
0010
0100
,  // measure 88
0001
0000
1000
0100
,  // measure 89
0000
0000
0010
0000
0000
0000
0001
0000
0100
0000
0000
0001
0000
0000
0000
0000
,  // measure 90
1000
0100
0010
0001
1000
0001
1000
0100
0010
0001
1000
0001
1000
0100
0010
0001
,  // measure 91
1000
0000
0000
0000
0000
0000
0010
0100
0001
0000
1000
0000
0010
0000
0100
0000
;

//---------------dance-single - ----------------
#NOTES:
     dance-single:
     :
     Medium:
     12:
     0.473810,0.554707,0.346157,0.128803,0.028176,412.000000,369.000000,43.000000,16.000000,0.000000,0.000000,0.473810,0.554707,0.346157,0.128803,0.028176,412.000000,369.000000,43.000000,16.000000,0.000000,0.000000:
0000
0000
0000
0000
,
0000
0000
0000
0000
,
0000
0000
0000
0000
,
0000
0000
0000
0000
,
1001
0000
1000
0010
0000
1000
0000
0100
,
0000
0010
0100
1000
0000
0001
0100
0000
,
0000
0000
0010
1000
0000
0000
0000
0001
,
0000
0010
0100
1000
0000
0001
0100
0000
,
1001
0000
0000
0000
0000
0001
0100
0010
,
0000
0000
0000
0000
0000
0100
0000
0010
,
1000
0000
0001
0000
0000
0000
0000
0000
0010
0000
0000
0100
0000
0000
1000
0000
,
0001
0000
0000
0000
0000
0000
0000
0000
0100
0000
0000
0010
0000
0000
1000
0000
,
0001
0000
0000
0010
0000
0000
0100
0000
0010
0000
0000
0001
0000
0000
1000
0000
,
0000
0000
0000
0000
0000
0000
0000
0000
0001
0000
0000
0010
0000
0000
0100
0000
,
0010
0000
0000
0001
0000
0000
0100
0000
0000
0000
0010
0000
0000
0000
0100
0000
,
0001
0010
0000
0100
0010
0000
0000
0001
,
1001
1000
0010
1000
,
0100
1000
0010
0100
,
0001
0010
0100
0010
,
0001
1000
0100
0010
,
1001
1000
0010
1000
,
0001
0010
0001
1000
,
0100
0010
0100
1000
,
0010
0100
0001
0000
,
1000
0001
0100
0001
0000
0010
0000
0100
,
1000
0000
0001
0010
0000
0100
0000
2000
,
0000
0000
0000
3000
0000
0000
0000
0000
,
0000
0000
0000
0000
,
0001
1000
0010
1000
0000
0001
0000
0010
,
0100
0000
0010
0001
0000
0100
0000
0020
,
0000
0000
0000
0000
0130
0001
0000
1000
,
0002
0000
0000
0000
,
0003
0000
1000
0001
0000
1000
0000
1001
,
0000
1001
0000
0010
1001
0000
0000
0000
,
2001
0000
3001
0100
0010
0100
0001
0100
,
0010
0100
0001
0100
0010
0000
0000
0000
,
0000
0000
1000
0010
0100
0010
1000
0010
,
0100
0010
1000
0010
0200
0000
0000
0000
,
0320
0000
1030
0001
0010
0001
1000
0010
,
1000
0001
0010
0001
1000
0000
0000
0000
,
0012
0000
1003
0001
0100
0001
1000
0100
,
1000
0100
0010
0001
1000
0000
0000
0000
,
1002
0000
1003
0010
0100
0010
1000
0010
,
0100
0010
1000
0010
0100
0000
0000
0000
,
0000
0000
0001
0100
0010
0100
0001
0100
,
0010
0100
0001
0100
0020
0000
0000
0000
,
0230
0000
0301
1000
0100
1000
0001
0100
,
0001
1000
0100
1000
0001
0000
0000
0000
,
2100
0000
3001
1000
0010
1000
0001
0010
,
0001
0010
0100
1000
0001
0000
0000
0000
,
0200
0000
0000
0000
,
0000
0000
0000
0300
,
0020
0000
0000
0000
,
0000
0000
0000
0030
,
1000
0001
0010
0001
,
1000
0100
0010
0010
,
0100
1000
0010
0100
,
0001
0010
0100
0100
,
1001
1000
0001
0100
0000
0001
0000
0010
,
0001
0000
0001
0100
0000
0010
1000
0100
,
0000
0100
1000
0010
,
0100
0001
0000
0100
0000
0001
0000
0001
,
1000
0010
0100
0010
0000
1000
0000
0100
,
1000
0000
0010
0100
0000
0001
0000
1000
,
0000
0000
0000
0000
0001
0100
0000
0100
,
0020
0000
0000
0000
,
0030
0000
1000
0001
0000
1000
0000
1001
,
0000
1001
0000
0100
1001
0000
0000
0000
,
0101
0010
1010
1000
,
1100
0100
0110
0000
,
1100
0001
0011
0100
,
1100
0001
0101
0000
,
2001
3010
1001
0100
,
0101
0010
1100
0000
,
1100
0010
0101
0010
,
0001
1000
0010
0100
0001
0000
0000
0000
,
1100
0100
0011
0100
,
1001
0010
0101
0000
,
0101
1000
1100
0010
,
0011
0100
1001
0000
,
2001
3010
1010
0001
,
0011
0100
1100
0000
,
1100
0010
0101
0010
,
1000
0010
0100
0001
1000
0000
0000
0000
,
0001
0000
1000
0100
0000
1000
0000
0010
,
0000
0100
0000
0001
0010
0000
0100
0000
,
0010
0000
0001
0100
0000
0010
0000
1000
,
0000
0001
0000
0010
0100
0000
0010
0000
,
0100
0000
1000
0100
,
0000
0000
1000
0000
0000
0000
0001
0000
0100
0000
0000
0100
0000
0000
0000
0000
,
0001
0010
0100
1000
0001
0010
0100
1000
,
0001
0000
0000
1000
0010
0001
0010
1000
;

//---------------dance-single - ----------------
#NOTES:
     dance-single:
     :
     Easy:
     7:
     0.259905,0.406785,0.289806,0.112702,0.000000,226.000000,190.000000,36.000000,14.000000,0.000000,0.000000,0.259905,0.406785,0.289806,0.112702,0.000000,226.000000,190.000000,36.000000,14.000000,0.000000,0.000000:
0000
0000
0000
0000
,
0000
0000
0000
0000
,
0000
0000
0000
0000
,
0000
0000
0000
0000
,
0220
0000
0000
0000
,
0000
0000
0000
0000
,
0330
0000
0000
0000
,
0000
0000
0000
1000
,
0101
0000
0000
0000
,
0000
0000
0000
0000
,
0001
0000
0000
0000
,
1000
0000
0000
0000
,
1100
0000
0000
0000
,
0100
0000
0000
0000
,
1000
0000
0000
0000
,
0010
0000
0100
0000
,
1001
0000
0001
0000
,
1000
0000
0010
0000
,
1000
0000
0100
0000
,
1000
0000
0001
0000
,
0011
0000
0001
0000
,
0100
0000
0001
0000
,
1000
0000
0100
0000
,
0010
0000
0100
0000
,
1001
0000
1000
0000
,
0001
0100
0010
1000
,
0100
0000
0000
0000
,
0000
0000
0000
0000
,
0011
0000
0010
0000
,
0001
0010
0001
1000
,
0010
0000
0100
0001
,
2000
0000
0000
0000
,
3000
0000
0001
1000
0000
0001
0000
1000
,
0000
1000
0000
0001
1000
0000
0000
0000
,
0002
1003
0010
1000
,
0100
0010
0100
0000
,
0000
1000
0010
1000
,
0001
0010
0100
0000
,
0020
0031
0100
0001
,
0010
0001
1000
0000
,
0000
0001
0010
0100
,
1000
0010
1000
0010
1000
0000
0000
0000
,
0200
0310
1000
0001
,
0010
0100
0010
0000
,
0000
0100
1000
0001
,
0100
0001
0010
0000
,
0200
0310
0100
1000
,
0001
0100
0010
0000
,
0100
0001
0010
0100
,
0010
0001
0010
0001
0010
0000
0000
0000
,
0002
0000
0000
0000
,
0000
0000
0000
0003
,
2000
0000
0000
0000
,
0000
0000
0000
3000
,
0020
0000
0000
0000
,
0000
0000
0000
0030
,
0200
0000
0000
0000
,
0000
0000
0000
0300
,
1001
0000
0001
0000
,
1000
0000
0010
0000
,
0100
0010
1000
0100
,
0010
0001
0000
0010
0000
0100
0000
0000
,
1000
0000
0100
0000
,
1000
0000
0001
0000
,
0100
0000
0010
0000
,
2000
0000
0000
0000
,
3000
0000
0001
1000
0000
0001
0000
1000
,
0000
1000
0000
0001
1000
0000
0000
0000
,
0101
0000
1010
0000
,
0101
0000
1010
0000
,
1100
0000
0011
0000
,
1100
0000
0011
0000
,
1001
0000
1010
0000
,
1001
0000
0011
0000
,
0110
0000
1100
0000
,
1000
0010
1000
0010
1000
0000
0000
0000
,
1100
0000
0011
0000
,
0101
0000
1010
0000
,
0101
0000
0011
0000
,
0110
0000
1100
0000
,
0110
0000
0011
0000
,
0101
0000
0110
0000
,
1010
0000
0101
0000
,
0001
0010
0001
0010
0001
0000
0000
0000
,
0200
0000
0000
0000
,
0000
0000
0000
0300
,
0020
0000
0000
0000
,
0000
0000
0000
0030
,
1000
0000
0001
0000
,
0000
1000
0000
0000
0010
0000
0000
0000
,
0100
0010
1000
0001
,
1000
0000
0000
0000
0001
0010
0100
0010
;

//---------------dance-single - ----------------
#NOTES:
     dance-single:
     :
     Beginner:
     3:
     0.108102,0.257807,0.064401,0.104652,0.000000,94.000000,86.000000,8.000000,13.000000,0.000000,0.000000,0.108102,0.257807,0.064401,0.104652,0.000000,94.000000,86.000000,8.000000,13.000000,0.000000,0.000000:
0000
0000
0000
0000
,
0000
0000
0000
0000
,
0000
0000
0000
0000
,
0000
0000
0000
0000
,
0110
0000
0000
0000
,
0000
0000
0000
0000
,
0000
0000
0000
0000
,
0000
0000
0000
0000
,
1000
0000
0000
0000
,
0000
0000
0000
0000
,
0001
0000
0000
0000
,
0000
0000
0000
0000
,
0110
0000
0000
0000
,
0000
0000
0000
0000
,
0001
0000
0000
0000
,
1000
0000
0001
0000
,
0110
0000
0000
0000
,
0000
0000
0000
0000
,
0100
0000
0000
0000
,
0001
0000
0000
0000
,
1001
0000
1000
0000
,
0001
0000
0000
0000
,
0010
0000
0000
0000
,
0100
0000
0010
0000
,
2000
0000
0000
0000
,
0000
0000
0000
0000
,
3000
0000
0000
0000
,
0000
0000
0000
0000
,
2000
0000
0000
0000
,
0000
0000
0000
0000
,
3000
0000
0001
0000
,
0200
0000
0000
0000
,
0300
0000
0000
0000
,
0000
0000
0000
0000
,
0010
2000
0000
0000
,
0000
0000
3000
0000
,
0000
0002
0000
0000
,
0000
0000
0003
0000
,
0000
0020
0000
0000
,
0000
0000
0030
0000
,
0000
0200
0000
0000
,
0000
0000
0300
0000
,
0010
2000
0000
0000
,
0000
0000
3000
0000
,
0000
0200
0000
0000
,
0000
0000
0300
0000
,
0010
0002
0000
0000
,
0000
0000
0003
0000
,
0000
0200
0000
0000
,
0000
0000
0300
0000
,
1001
0000
0000
0000
,
0000
0000
0000
0000
,
1000
0000
0000
0000
,
0000
0000
0000
0000
,
0010
0000
0000
0000
,
1000
0000
0000
0000
,
0100
0000
0000
0000
,
0010
0000
0000
0000
,
1001
0000
0000
0000
,
0000
0000
0000
0000
,
0100
0000
0010
0000
,
1000
0000
0000
0000
,
1001
0000
0000
0000
,
1000
0000
0000
0000
,
0001
0000
1000
0000
,
0020
0000
0000
0000
,
0030
0000
0000
0000
,
0000
0000
0000
0000
,
0001
0000
0001
0000
,
0001
0000
0001
0000
,
1000
0000
1000
0000
,
1000
0000
1000
0000
,
0001
0000
0001
0000
,
0001
0000
0001
0000
,
1000
0000
1000
0000
,
1000
1000
1000
0000
,
0010
0000
0100
0000
,
0010
0000
0100
0000
,
0010
0000
0100
0000
,
0010
0000
0100
0000
,
0010
0000
0100
0000
,
0010
0000
0100
0000
,
0010
0000
0100
0000
,
0010
0010
0010
0000
,
1001
0000
0000
0000
,
0000
0000
0000
0000
,
0100
0000
0000
0000
,
0000
0000
0000
0000
,
0010
0000
0000
0000
,
1000
0000
0000
0000
,
0002
0000
0000
0000
,
0003
0000
0100
0000
;
