#TITLE:Palpitation;
#SUBTITLE:;
#ARTIST:Zekk;
#TITLETRANSLIT:;
#SUBTITLETRANSLIT:;
#ARTISTTRANSLIT:;
#GENRE:;
#CREDIT:;
#MUSIC:Palptitation.ogg;
#BANNER:Palpitation.png;
#BACKGROUND:Palpitation-bg.png;
#CDTITLE:;
#SAMPLESTART:71.566;
#SAMPLELENGTH:15.000;
#SELECTABLE:YES;
#OFFSET:-0.051;
#BPMS:0.000=198.000
,69.000=99.000
,85.000=198.000
,181.000=99.000
,189.000=198.000
,201.000=99.000
,203.000=198.000
,270.000=99.000
,278.000=198.000
,291.000=99.000
,298.000=198.000
,323.021=99.000
,326.000=198.000
,343.000=99.000
;
#STOPS:64.000=0.909
,245.750=0.303
,290.000=0.909
,298.000=0.303
,326.000=0.303
;
#BGCHANGES:;
#FGCHANGES:;

//--------------- dance-single - Marten ----------------
#NOTES:
     dance-single:
     Marten:
     Easy:
     9:
     0,0,0,0,0:
0000
0000
0000
0000
,
0000
0000
0000
0000
,
0000
0000
0000
0000
,
0000
0000
0000
0000
,
0000
0000
0000
0000
,
0000
0000
0000
0000
,
0000
0000
0000
0000
,
0000
0000
0000
0000
,
0000
0000
0000
0000
,
1000
0100
1000
0100
,
0010
0001
0010
0001
,
1000
0010
0100
0001
,
1000
0100
0010
0001
,
1000
1000
1000
1000
,
0001
0001
0001
0001
,
0200
0000
0000
0000
,
0310
0000
0000
0101
,
1100
0000
0120
0000
0031
0200
0000
0310
,
1010
0000
0120
0000
1030
0200
0000
0310
,
0011
0000
1100
0000
1001
0000
0000
0010
0000
0000
0200
0000
0000
1000
0000
0000
,
0310
0000
0000
0000
0001
0000
0000
0001
0000
0000
0001
0000
0010
0000
0100
0000
,
0010
0100
1000
0000
1001
0000
0001
0000
,
0101
0001
0100
1000
,
0100
0001
1001
1000
,
1100
1000
0100
0001
,
0100
1000
1000
0001
,
0001
0100
0010
1000
,
0001
0011
0110
1100
,
1000
0002
0000
1000
,
0003
1000
0100
1000
,
1000
0001
0100
0001
,
0001
1000
0010
0100
,
0001
0010
0100
1000
,
0001
1000
0010
1000
,
1000
0001
0010
0001
,
0001
0000
2000
0000
0000
3002
0000
0000
,
1003
0010
0010
0100
,
0010
1000
0100
0010
,
0001
1000
0001
0000
0100
0000
0010
0000
,
1000
0001
1000
0000
0100
0000
0010
0000
,
0001
1000
0010
0100
,
0110
0010
1000
0001
,
0010
0100
0010
0000
0001
0000
1000
0000
,
0010
0100
0020
0000
2030
0000
3002
0000
,
1003
0000
0101
0000
0000
1100
0000
0000
,
0110
2001
0000
3002
,
0000
2003
3020
0230
,
0000
0301
0001
1000
,
1000
0100
0010
0001
,
1000
0001
0100
1000
,
0100
0000
0002
0000
1000
1000
1003
0000
,
0000
1100
0000
0000
0011
0000
1001
0000
,
0001
0100
0100
0001
,
1000
0100
0100
0010
,
0001
0000
1000
0010
1000
0000
0002
0000
,
0003
0000
0010
0000
0001
0000
0100
0100
,
0010
0000
2000
0000
0000
3001
0000
0010
,
0100
0000
2000
0000
0000
3001
0000
0010
,
0010
0000
0100
0000
0010
0000
0001
1000
,
0001
1000
0100
0000
0000
0000
2000
0000
,
0000
3020
0000
0000
0230
0000
0000
0302
,
0000
0013
0101
1100
,
1001
0000
1000
0001
2000
0000
3010
0000
,
0100
0000
0001
0000
1000
0001
1000
0000
,
0002
0000
0000
1003
0000
0100
0010
0000
,
0002
0000
0000
1003
0000
0010
0010
0000
,
1000
0001
1000
0100
,
0020
0030
0012
0000
,
2003
0000
3010
0100
0020
0000
2030
0000
,
3002
2003
3001
0001
,
1000
1000
0010
0100
,
0001
1000
0001
0100
,
1000
0000
0000
0000
0000
0000
0000
0000
0100
0000
0000
0000
0000
0000
0000
0000
0002
0003
0000
0000
0000
0000
0000
0000
1000
0000
0000
0000
0100
0000
0000
0000
,
0110
0010
0010
0010
0001
2000
3010
0100
,
0101
0000
0000
0000
0100
0000
0000
0000
0100
0000
0000
0000
0100
0000
0000
0000
0220
0330
0000
0000
0000
0000
0000
0000
0010
0000
0000
0000
0000
0000
0000
0000
,
1000
0100
1000
0010
,
0100
0001
0010
0100
,
0010
0000
0001
0000
1000
0001
1000
0000
,
0010
0200
0300
0001
,
1001
0000
1000
0000
0010
1000
0010
0000
,
0010
0000
0110
0000
0200
0000
0301
0010
,
0110
0000
0000
0000
0100
0000
0000
0000
0100
0000
0000
0000
0100
0000
0000
0000
2002
3003
0000
0000
0000
0000
0000
0000
1000
0000
0000
0000
0000
0000
0000
0000
,
1000
0001
0001
1000
,
0010
0001
0010
1000
,
0001
0000
0100
0000
0001
0000
0000
0000
1000
0000
0100
0000
2000
0000
0000
3020
,
0000
0000
0230
0000
0000
0302
0000
0000
1003
0000
0000
0000
0200
0000
0000
0000
,
0000
0000
0000
0300
;

//--------------- dance-single - Marten ----------------
#NOTES:
     dance-single:
     Marten:
     Medium:
     14:
     0,0,0,0,0:
0000
0000
0000
0000
,
0000
0000
0000
0000
,
0000
0000
0000
0000
,
0000
0000
0000
0000
,
0000
0000
0000
0000
,
0000
0000
0000
0000
,
0000
0000
0000
0000
,
0000
0000
0000
0000
,
0000
0000
0000
0000
,
0001
0010
0100
1000
,
0010
0100
0001
1000
,
0001
0010
1000
0010
,
0001
0100
1000
0100
,
0001
0010
0100
0010
0001
0010
0100
1000
,
0010
0100
0010
1000
0010
0100
0001
1000
,
0001
0001
0010
0010
0100
0100
1000
1000
,
0020
0030
0000
0000
0000
0000
0000
0000
0100
0000
0000
0000
0001
0000
0000
0000
1000
0000
0000
0000
0100
0000
0000
0000
0110
0000
0000
0000
0000
0000
0000
0000
,
0011
0000
0000
0000
0000
0000
0000
0000
2001
0000
0000
0000
0000
0000
0000
3001
0010
0000
0000
0000
0200
0000
0000
0000
0000
0000
0000
0000
1300
0000
0000
0000
,
1001
0000
0000
0000
0000
0000
0000
0000
0000
0000
0000
0000
0000
0000
0000
0000
0000
0000
0000
0000
0000
0000
0000
0000
1020
0000
0000
0000
0000
0000
0000
0000
0000
0000
0000
0000
0000
0000
0000
0000
0000
0000
0000
0000
0000
0130
0000
0000
0001
0000
0000
0000
0000
0000
0000
0000
0010
0000
0000
0000
0000
0000
0000
0000
0001
0000
0000
0000
0000
0000
0000
0000
0010
0000
0000
0000
0000
0000
0000
0000
0001
0000
0000
0000
0000
0000
0000
0000
0010
0000
0000
0000
0000
0000
0000
0000
,
0110
0000
0000
0000
1100
0000
0000
0000
0201
0000
0000
0000
0310
0000
0000
0100
0000
0000
0001
0000
0020
0000
0000
0000
0000
0000
1000
0000
0000
0000
1030
0000
,
0010
0000
0001
0000
1000
0000
0000
0000
1010
0000
0000
0101
0000
0000
0011
0000
0000
1100
0000
0000
1001
0000
0000
0000
0001
0000
0100
0000
1000
0000
0100
0000
,
0001
0010
0100
0000
2000
0000
3000
0000
1200
0000
0000
0000
0310
0000
0000
0000
,
0001
0000
0100
0002
0000
0000
0023
0000
0000
0230
0000
0000
1300
0000
0010
0000
,
0001
0010
0200
0300
0201
0000
0310
0000
,
1000
0000
0100
2000
0000
0000
3020
0000
0000
0230
0000
0000
0301
0000
0010
0000
,
1000
0000
0010
0001
0100
0001
0010
0001
,
0100
0010
1000
0100
1000
0010
1000
0100
,
0010
0001
1001
0000
0101
0000
1100
0000
,
1000
0001
1000
0001
2000
0000
0000
0000
0000
0000
0000
0000
0010
0000
0000
0010
,
3000
1000
0100
0001
,
0100
0010
0000
0000
0001
0000
0000
0000
0100
0000
0000
0000
1000
0000
0000
0000
,
0100
0010
0100
0000
0001
0000
0000
0000
0010
0000
0000
0000
1000
0000
0000
0000
,
0010
0000
0001
0000
1000
0000
0010
0100
,
0001
1000
0001
0000
0100
0000
1000
0000
,
0100
0010
0000
0000
1000
0000
0000
0000
0100
0000
0000
0000
0001
0000
0000
0000
,
0100
0010
0100
0000
2000
0000
0000
3020
0000
0000
0230
0000
0000
0302
0000
0000
,
1003
0000
0001
0010
1000
0001
0100
1000
,
0020
0000
1030
0100
0010
0001
0100
0010
,
0001
0010
1000
0100
0010
0001
1000
0100
,
0001
0100
0010
0001
0100
0010
1000
0100
,
0010
0000
1000
0000
0010
0000
0001
0000
1000
0000
0000
0000
0010
1000
0010
0000
,
0100
0000
0001
1000
0001
0000
0010
0000
0100
0000
0001
0000
0100
0000
1000
0000
,
0001
0100
0001
0100
1000
0100
0010
1000
,
0100
0010
0022
0033
2200
3300
0220
0330
,
0010
0000
0001
0000
2000
0000
0000
3200
0000
0000
0302
0000
0000
0203
0000
0000
,
0320
0030
0012
0000
0000
0000
2003
0000
,
0000
3020
0230
0302
,
0000
0000
1003
0100
0010
0100
1000
0100
,
0010
0100
1000
0001
0100
0010
0100
0001
,
0100
0000
0010
0000
0100
0001
0100
0000
0001
0000
1000
0000
0100
1000
0100
0000
,
0010
0000
0001
0000
2000
0000
0000
0000
0001
0000
3001
0000
2000
0000
0000
3020
,
0000
0000
0032
0000
0000
0023
0000
0000
2030
0000
3000
0000
1001
0000
0000
0000
,
0101
0000
0000
0000
0021
0000
0000
0230
0000
0000
1300
0000
1001
0000
0000
0000
,
1100
0000
0000
0000
1020
0000
0000
0230
0000
0000
0301
0000
1001
0000
0000
0000
,
0011
0000
0000
0000
1020
0000
0000
1030
0100
0000
0020
0000
0001
0000
0000
0000
,
0130
0000
1000
0000
0001
0000
0000
0100
0010
0000
1000
0000
0010
0000
0010
0000
,
1010
0000
2001
0000
3100
0010
1000
0010
,
0001
1000
0000
0000
1002
0000
0000
0000
0103
0000
0010
0000
0210
0000
0000
0000
,
0301
0010
0110
0010
0010
0000
0001
0100
,
1000
0100
0002
0000
1003
0100
0020
0000
,
0031
0010
0002
0000
0000
0000
0103
0010
0200
0000
0000
0000
0310
1000
0020
0000
,
0000
0000
1030
0000
0100
0000
0000
0100
0011
0000
0000
0000
1010
0000
0000
0000
,
1002
0000
0000
0103
0010
0000
2000
0000
0001
0000
0000
0000
3100
0000
0010
0000
,
0001
0000
0000
0100
0001
0000
1000
0000
0010
0000
1000
0000
1100
0000
0000
0000
,
2001
0000
0000
0000
3010
0000
1000
0000
0100
0000
0010
0000
0001
0010
0000
0000
,
0002
0000
0103
0001
1000
0010
1000
0010
,
0001
0010
0001
0010
1000
0100
0001
0100
,
2000
3000
1002
0000
,
2003
0000
3010
0100
0102
0000
0023
0000
,
0230
0000
2300
0000
3001
1000
0010
1000
,
0001
1000
0010
1000
0001
0010
0001
1000
,
0001
0010
0001
1000
0010
0010
0100
0100
,
0001
0000
0000
0000
0010
0000
0000
0000
1000
0000
0000
0000
0010
0000
0000
0000
0002
0003
0000
0000
0000
0000
0000
0000
1100
0000
0000
0000
0010
0000
0001
0000
,
1000
0000
0010
1000
0010
1000
0010
1000
0100
0010
0002
0003
0002
0023
2030
3020
,
0031
0000
0000
0000
0100
0000
0001
0000
0100
0000
0001
0000
0100
0000
0001
0000
2000
3000
0000
0000
0000
0000
0000
0000
0001
0000
0000
0000
0100
0000
0000
0000
,
0001
0010
1000
0010
0001
1000
0100
1000
,
0010
0001
0010
1000
0001
0001
1000
0100
,
0010
0001
0100
0000
0100
0100
0010
1000
,
0100
0010
0200
0000
0300
0000
0010
0000
,
0101
0000
0000
0010
0000
0000
1000
0000
1100
0000
0100
0000
1000
0000
0100
0000
,
1000
0000
0100
0000
1000
0000
0010
0000
0200
0000
0300
0000
0002
0203
2300
3200
,
0301
0000
0000
0000
0010
0000
0001
0000
0010
0000
0001
0000
0010
0000
0001
0000
2000
3000
0000
0000
0000
0000
0000
0000
0001
0000
0000
0000
0100
0000
0000
0000
,
1000
0100
0001
0100
1000
0100
0001
1000
,
0100
0000
0001
0000
0100
0000
1000
0000
0100
0000
0001
0000
0100
1000
0100
0000
,
1000
0000
0001
0000
0100
0001
0100
0000
0010
0000
1000
0000
0001
0000
0010
0100
,
0000
1000
0001
0000
0100
0010
0000
1000
0001
0000
0000
0000
0200
0000
0000
0000
,
0000
0000
0000
0300
;

//--------------- dance-single - Marten ----------------
#NOTES:
     dance-single:
     Marten:
     Hard:
     17:
     0,0,0,0,0:
0000
0000
0000
0000
,
0000
0000
0000
0000
,
0000
0000
0000
0000
,
0000
0000
0000
0000
,
0000
0000
0000
0000
,
0000
0000
0000
0000
,
0000
0000
0000
0000
,
0000
0000
0000
0000
,
0000
0000
0000
0000
,
1000
0100
0010
0001
,
0100
0010
1000
0001
,
1000
0100
0001
0100
,
1000
0010
0001
0100
,
1000
0010
1000
0100
1000
0010
1000
0100
,
0010
0001
0100
0001
0010
0001
0100
0010
,
1000
0010
1000
0010
1000
0001
1000
0001
0100
0001
0100
0001
1000
0100
0010
0001
,
2000
3000
0000
0000
0000
0000
0000
0000
0001
0000
0000
0000
0010
0000
0000
0000
0100
0000
0000
0000
1000
0000
0000
0000
1100
0000
0000
0000
0000
0000
0000
0000
,
0110
0000
0000
0000
0010
0000
0000
0000
0012
0000
0000
0000
0000
0000
0000
1003
0010
0000
0100
0000
0002
0000
0000
0000
0000
0000
0000
0000
0013
0000
0000
0000
,
0110
0000
0000
0000
0000
0000
0000
0000
0000
0000
0000
0000
0100
0000
0000
0000
0000
0000
0000
0000
0000
0000
0000
0000
1200
0000
0000
0000
0000
0000
0000
0000
0000
0000
0000
0000
0000
0000
0000
0000
0000
0000
0000
0000
0000
0310
0000
0000
0100
0000
0000
0000
1000
0000
0000
0000
0010
0000
0000
0000
1000
0000
0000
0000
0010
0000
0000
0000
1000
0000
0000
0000
0010
0000
0000
0000
1000
0000
0000
0000
0010
0000
0000
0000
1000
0000
0000
0000
0010
0000
0000
0000
0100
0000
0000
0000
,
0001
0000
0000
0000
1001
0000
0000
0000
0201
0000
0000
0000
0310
0000
0000
0001
0000
0000
0010
0000
2000
0000
0000
0000
0000
0000
0001
0000
0000
0000
3001
0000
,
0010
0000
0001
0000
0100
0000
0000
0000
0101
0000
0000
1100
0000
0000
0011
0000
0000
1010
0000
0000
0010
0000
0100
0000
0001
0010
0001
0010
0100
0010
0100
0010
,
0001
1000
0001
1000
0100
0000
0000
0000
1000
0000
0000
0000
0000
0000
0000
0000
1010
0000
0000
0000
0000
0000
0000
0000
0020
0000
0000
0000
0000
0000
0000
0000
,
0130
0000
0001
2000
0000
0000
3200
0000
0000
0302
0000
0000
0103
1000
0100
1000
,
0001
1000
0100
0000
0011
0000
0020
0000
,
0130
0000
1000
0002
0000
0000
0203
0000
0000
2300
0000
0000
3100
0001
0100
0001
,
1000
0000
0001
0010
0100
0010
0001
0010
,
0100
0000
1000
0000
0010
0000
0100
0000
0010
0000
1000
0000
0010
0000
0100
0010
,
1000
1000
1010
0000
0101
0000
1100
0000
,
0100
0010
0100
0010
0002
0000
0000
0000
0000
0000
0000
0000
0100
0000
0000
0100
,
0003
0000
0000
0000
0001
0000
1000
0100
0000
0000
0100
0010
0000
0000
0010
0001
,
0000
0000
0001
1000
0000
0000
0001
0100
0000
0000
0100
0010
0000
0000
0010
1000
,
0000
0000
1000
0001
0000
0000
0100
0010
0000
0000
0100
1000
0000
0000
0100
0010
,
0000
0000
0100
0001
0000
0000
1000
0100
0000
0000
0010
0100
0000
0000
0001
0100
,
0000
0000
0010
0100
0010
0000
0001
0010
0000
0000
0100
0010
0000
0000
1000
0010
,
0000
0000
0001
1000
0000
0000
0010
0100
0000
0000
0010
0001
0000
0000
0010
0100
,
0000
0000
0010
1000
0002
0000
0000
0023
0000
0000
0230
0000
0000
2300
0000
0000
,
3001
0000
0000
0000
1000
0100
1000
0100
0010
0100
0010
0100
0010
0001
0010
0001
,
2000
0000
3001
0100
0001
0010
1000
0010
,
0100
1000
0100
0000
1000
0000
0010
0000
0100
0000
1000
0000
0100
0000
0001
0000
,
1000
0001
1000
0000
0100
0000
0010
0000
0001
0000
0100
0000
0010
0000
1000
0000
,
0001
0000
0010
0000
1000
0000
0010
0000
0001
0000
0000
0000
1000
0100
0010
0100
,
1000
0000
1000
0001
0100
0000
0001
0000
0100
0000
1000
0000
0100
0000
0010
0000
,
1000
0001
1000
0000
0100
0000
0010
0000
0001
0000
0100
0000
0010
0000
0001
0000
,
0010
0100
0010
0000
2020
0000
3030
0000
2002
0000
3003
0000
0022
0000
0033
0000
,
0001
0010
0001
0010
0200
0000
0000
2300
0000
0000
3020
0000
0000
0230
0000
0000
,
0302
0003
2001
0000
0000
0000
3002
0000
,
0000
0023
0230
2300
,
0000
0000
3001
1000
0010
1000
0001
1000
,
0100
1000
0001
0010
0001
1000
0001
0100
,
0001
0000
1000
0000
0010
0100
0010
0100
0001
0100
0001
0100
0001
1000
0001
1000
,
0100
1000
0100
0010
0002
0000
0000
0000
0100
0000
0103
0000
2000
0000
0000
3200
,
0000
0000
0302
0000
0000
2003
0000
0000
3010
0000
0000
0000
1010
0000
0000
0000
,
1100
0000
0000
0000
0120
0000
0000
1030
0010
0000
0001
0000
0011
0000
0000
0000
,
0101
0000
0000
0000
0120
0000
0000
0031
0010
0000
1000
0000
1100
0000
0000
0000
,
0101
0000
0000
0000
2001
0000
0000
3100
0001
0000
0200
0000
0010
0000
0000
0000
,
1300
0000
0010
0000
0100
0000
0001
1000
0001
0000
0010
0000
0100
0000
0100
0000
,
1001
0000
1020
0000
0130
0001
1000
0100
,
0001
0100
0000
0000
0020
0000
0000
0000
0130
0000
1000
0000
1001
0000
0001
0000
,
1000
0000
0010
0000
0110
0000
0100
0000
0100
0000
0010
1000
0001
0000
0010
0000
,
1000
0010
0000
0000
0002
0000
0000
0000
1003
0010
1000
0010
0200
0000
0000
0000
,
0301
1000
0200
0000
0000
0000
0310
0001
2000
0000
0000
0000
3010
1000
0002
0000
,
0000
0000
0013
0000
0100
0000
0000
0100
1001
0000
0000
0000
1010
0000
0000
0000
,
0012
0000
0000
0103
1000
0000
0200
0000
0010
0000
0000
0000
0301
0000
0010
0000
,
0100
0000
1000
0001
1000
0000
0010
0000
0100
0000
1000
0000
0100
0001
0000
0000
,
0021
0000
0000
0000
0130
0000
1000
0000
0100
0000
0001
0000
0100
1000
0000
0000
,
1020
0000
0130
0010
1000
1000
0001
0001
,
0010
0010
0100
0100
1000
0010
0001
0010
,
2000
3000
1020
0000
,
2030
0000
3100
0010
0012
0000
0203
0000
,
0320
0000
0000
0000
0100
0000
0000
0000
2030
0000
0000
0001
0000
0000
0001
0000
3001
0000
0000
0000
0100
0000
0000
0000
0010
0000
0000
0000
0100
0000
0000
0000
,
0001
0100
0010
1000
0100
0010
0100
1000
,
0100
0000
0010
0000
0100
0000
1000
0000
0001
0010
0001
0010
0100
0010
0100
0010
,
0100
0000
1000
0000
0100
0000
1000
0000
0001
0000
0100
0000
0010
0000
1000
0000
0002
0003
0000
0000
0000
0000
0000
0000
1000
0000
0000
0000
0100
0000
0010
0001
,
1000
0000
0010
0000
0100
0000
0100
0000
0100
0000
0100
0000
0100
0000
0100
0000
0001
0010
0100
0010
0001
0000
0000
0000
0002
0000
0203
0000
2300
0000
3200
0000
,
0310
0000
1000
0000
0100
0000
0100
0000
0100
0000
0100
0000
0100
0000
0100
0000
2002
3003
0000
0000
0000
0000
0000
0000
1000
0000
0000
0000
0100
0000
1000
0000
,
0001
0000
0100
0000
1000
0000
0100
0000
0010
0000
1000
0000
0001
0000
0010
0001
,
1000
0000
0100
0000
0001
0000
0100
1000
0001
0000
0001
0000
0100
0000
1000
0000
,
0100
0000
0010
1000
0001
0000
0010
0000
1000
0000
1000
0000
0010
0000
0001
0000
,
1000
0100
0002
0000
0000
0000
0103
0000
,
0011
0000
0000
0100
0000
0000
1000
0000
1010
0000
0010
0000
0010
0000
0010
0000
,
0110
0000
0010
0000
1000
0100
0010
0100
1000
0000
0000
0000
2000
3020
0032
0023
,
0130
0000
0001
0000
0010
0000
0010
0000
0010
0000
0010
0000
0010
0000
0010
0000
2002
3003
0000
0000
0000
0000
0000
0000
0001
0000
0000
0000
0010
0000
0000
0000
,
1000
0010
0001
0010
0100
1000
0010
0001
,
0010
0000
1000
0000
0010
0000
0001
0000
0010
0000
1000
0000
0001
0100
0001
0100
,
0010
0100
0010
0100
0010
1000
0010
1000
0001
0010
0100
1000
0001
0000
0100
1000
,
0000
0100
0001
0000
1000
0100
0000
0001
0100
0000
0000
0000
0020
0000
0000
0000
,
0000
0000
0000
0030
;
