#TITLE:Paint It Blue;
#SUBTITLE:(HC Senator Mix);
#ARTIST:DJ Sick feat. Dr. D.O.P.E & BULLDOZER;
#TITLETRANSLIT:;
#SUBTITLETRANSLIT:;
#ARTISTTRANSLIT:;
#CREDIT:;
#BANNER:Paint It Blue (HC Senator Mix).png;
#BACKGROUND:Paint It Blue (HC Senator Mix)-bg.png;
#LYRICSPATH:;
#CDTITLE:;
#MUSIC:Paint It Blue (HC Senator Mix).ogg;
#OFFSET:-0.206;
#SAMPLESTART:93.634;
#SAMPLELENGTH:12.000;
#SELECTABLE:YES;
#BPMS:0.000=133.190;
#STOPS:;
#BGCHANGES:;

//---------------dance-single - ----------------
#NOTES:
     dance-single:
     :
     Hard:
     13:
     0.584,0.559,0.150,0.062,0.617: // measure 1
0000
0000
0000
0000
,  // measure 2
0000
0000
0000
0000
,  // measure 3
0000
0000
0000
0000
,  // measure 4
0000
0000
0000
0000
,  // measure 5
1000
0000
0000
0000
0100
0000
0000
0010
0000
0000
1000
0000
0010
0000
0001
0000
,  // measure 6
0100
0000
0000
0000
0010
0000
0000
0001
0000
0000
0010
0000
1000
0000
0001
0000
,  // measure 7
0010
0000
0000
0000
0100
0000
0000
1000
0000
0000
0001
0000
0100
0000
0010
0000
,  // measure 8
0000
1000
0001
1000
0000
0010
0100
0010
0000
0000
1000
0000
0100
0000
0010
0000
,  // measure 9
1001
0000
0000
1000
0010
0000
0000
0010
0100
0000
0001
0000
0010
0000
0100
0000
,  // measure 10
1000
0000
0000
1000
0001
0000
0000
0001
0100
0000
0010
0000
1000
0000
0100
0000
,  // measure 11
0010
0000
0000
0010
0100
0000
0000
1000
0001
0000
0010
0000
0100
0000
1000
0000
,  // measure 12
0010
0000
0000
0100
0010
0000
0000
1000
0001
0000
0010
0000
0100
0000
1000
0000
,  // measure 13
0010
0000
0100
0001
0100
0000
1000
0000
0100
0000
0010
0000
1000
0000
0001
1000
,  // measure 14
0001
0000
0100
0000
0000
0000
0000
0000
0001
0100
0000
0010
0100
0000
0001
1000
,  // measure 15
0100
0000
0100
0010
0000
0010
0000
1000
0000
0000
0000
0010
0001
0000
1000
0000
,  // measure 16
0010
0000
0100
0000
0010
0100
0000
0100
0001
0000
1000
0000
0100
0000
0000
0000
,  // measure 17
0011
0000
0000
0101
0000
0000
1000
0000
2020
0000
3030
0000
0000
0000
0000
0001
,  // measure 18
0000
0001
0010
0000
0010
0100
0000
1000
0000
0000
0001
0000
1001
0000
0000
0000
,  // measure 19
1000
0010
0100
0010
0000
0010
0000
1000
0000
0000
0000
0000
1001
0000
0001
0010
,  // measure 20
0000
0000
MMMM
0000
0000
0000
0000
0000
0010
0100
0000
0100
0000
0000
0000
0000
,  // measure 21
1000
0000
1000
0000
1000
0001
0000
0100
0000
0000
0100
0010
0100
1000
0100
0000
,  // measure 22
0001
1000
0000
0000
0100
0010
0110
0000
,  // measure 23
0001
0100
1000
0100
0001
1000
0001
0000
,  // measure 24
1000
0000
1000
0000
1000
0000
1000
0000
0010
0100
0000
0001
0000
0000
0000
0000
,  // measure 25
1000
0000
0001
0000
0010
0100
0010
0100
1000
0000
0000
0000
0010
0000
0100
0001
,  // measure 26
1000
0000
0000
0000
0000
0000
0100
0000
0000
0000
0000
0000
0000
0000
0000
0000
0000
0000
0010
0000
0000
0001
0000
0000
1000
0000
0000
0000
0010
0000
0000
0000
0100
0000
0000
0000
1000
0000
0000
0000
0000
0000
0100
0000
0000
0000
0000
0000
,  // measure 27
0000
0000
0000
0001
0000
1000
0100
0000
0000
0000
0010
0000
0001
0000
1000
0000
,  // measure 28
1020
0100
0001
0100
,  // measure 29
1030
1000
0100
1000
0000
0010
0000
0001
,  // measure 30
0000
0010
0000
1000
0000
0100
0000
0010
,  // measure 31
0001
0001
0010
0001
0000
0100
0000
0010
,  // measure 32
1000
0000
0000
1000
0000
0100
0000
0000
0000
0100
0000
0010
0000
0000
0000
0000
0000
0000
0000
0000
0000
0001
0000
0000
,  // measure 33
1000
0000
1000
0000
0010
0000
0100
0010
0000
0010
0100
0000
0001
0000
1000
0000
,  // measure 34
1001
0000
0000
0000
0001
0000
0010
0100
0000
0100
0010
0000
0001
0000
1000
0000
,  // measure 35
0010
0000
0010
0000
0100
0000
0001
1000
0000
1000
0001
0000
0010
0000
0100
0000
,  // measure 36
0110
0000
0000
0000
1000
0000
0001
1000
0000
1000
0001
0000
0100
0000
0010
0000
,  // measure 37
1000
0000
0100
0010
0000
0000
0010
0001
1000
0000
1000
0001
0100
0000
0100
0010
,  // measure 38
1000
0000
0001
0000
1000
0000
0000
1000
0010
0000
0100
0010
0000
0001
0000
0010
,  // measure 39
0100
0000
0100
0001
0000
1000
0000
0100
0000
0000
0000
0010
0001
0000
1000
0000
,  // measure 40
1001
0000
1000
0000
0010
0100
0000
0100
0001
0000
0001
0000
1000
0000
0000
0000
,  // measure 41
1200
0000
0000
0001
0300
0100
0010
0000
0001
0000
0100
0000
0000
0000
0010
0000
,  // measure 42
0001
0000
0000
0000
0010
0000
0001
0000
0000
0000
0000
0000
0010
0000
0000
0100
0000
0000
0000
0000
0000
0001
0000
0000
0000
0000
0000
1000
0000
0000
0000
0000
0000
1100
0000
0000
0000
0000
0000
0000
0000
0000
0000
0000
0000
0000
0000
0000
,  // measure 43
0100
0001
0100
1000
0000
0001
0000
0100
0000
0000
0000
0000
0110
0000
0010
0100
,  // measure 44
0000
0000
MMMM
0000
0000
0000
0000
0000
0001
1000
0000
0100
0000
0000
0000
0000
,  // measure 45
0010
0000
0010
0000
0010
0001
0000
0100
0000
0000
0010
1000
0010
0000
0100
0001
,  // measure 46
1000
0000
0100
0000
0000
0000
0000
0000
0100
0000
0010
0000
0000
0010
0000
0010
,  // measure 47
0001
0000
1000
0010
0000
0100
0010
0000
0001
0000
0000
0000
0020
0000
0030
0001
,  // measure 48
0020
0000
0030
0100
0020
0000
0030
1000
0010
1000
0000
0001
0000
0000
0000
0001
,  // measure 49
0010
0000
0010
0100
0000
0100
1000
0000
1000
0000
0010
0100
0001
0000
0001
0010
,  // measure 50
0100
0000
0010
0000
0000
0000
0000
0001
1000
0001
0000
0100
0000
0000
0000
0000
,  // measure 51
0100
0000
1000
0100
0000
0000
0010
1000
0001
0000
0010
0000
0100
0000
1000
0000
,  // measure 52
1001
0000
0000
0000
0000
0000
1000
0000
0001
0000
1000
0000
0001
0000
0000
0100
0000
0000
0010
0000
0000
1000
0000
0000
,  // measure 53
0001
0000
1000
0001
1000
0000
0010
0100
0000
0010
0100
0000
0001
0000
1000
0000
,  // measure 54
0100
0000
0010
0100
0010
0000
0001
1000
0000
0001
1000
0000
0010
0000
0100
0000
,  // measure 55
0001
0000
1000
0001
1000
0000
0100
0010
0000
0100
0000
1000
0001
0000
0100
0000
,  // measure 56
0010
0000
1000
0100
0000
0010
1000
0000
0000
0000
0010
0000
0001
0000
1000
0000
,  // measure 57
0010
0000
0100
0001
1000
0000
0100
0010
0000
0100
1000
0000
0001
0000
0100
0000
,  // measure 58
0010
0000
1000
0100
0010
0000
0100
1000
0000
0001
0100
0000
0010
0000
0100
0000
,  // measure 59
0001
0000
1000
0001
0010
0000
0100
1000
0000
0001
0000
0100
0000
0001
1000
0000
,  // measure 60
0100
0000
0010
0001
0000
1000
0010
0000
0000
0000
0100
0000
0001
0000
1000
0000
,  // measure 61
1100
0001
0100
0101
0000
0000
0000
0000
;

//---------------dance-single - ----------------
#NOTES:
     dance-single:
     :
     Medium:
     10:
     0.461,0.452,0.123,0.088,0.048: // measure 1
0000
0000
0000
0000
,  // measure 2
0000
0000
0000
0000
,  // measure 3
0000
0000
0000
0000
,  // measure 4
0000
0000
0000
0000
,  // measure 5
1000
0000
0000
0000
0001
0000
0000
0001
0000
0000
0000
0000
0100
0000
0000
0000
,  // measure 6
0010
0000
0000
0000
1000
0000
0000
1000
0000
0000
0000
0000
0001
0000
0000
0000
,  // measure 7
0010
0000
0000
0000
0100
0000
0000
0100
0000
0000
0000
0000
1000
0000
0000
0000
,  // measure 8
0000
0010
0000
0010
0000
0010
0100
0001
,  // measure 9
2001
0100
3010
0000
,  // measure 10
0020
0001
1030
0000
,  // measure 11
1002
0100
0013
0000
,  // measure 12
0020
1000
0032
0000
,  // measure 13
1003
1000
0010
0100
0010
1000
0001
0010
,  // measure 14
0100
1000
0000
0000
1000
0001
0100
0001
,  // measure 15
1000
1000
0010
0100
0001
0000
0001
0010
,  // measure 16
0100
0001
0100
0000
0100
0010
0001
0000
,  // measure 17
1000
0000
0000
1000
0000
0000
1000
0000
0010
0000
0100
0000
0000
0000
0000
0000
,  // measure 18
0001
1000
0001
0001
0010
0100
1100
0000
,  // measure 19
1000
0000
0010
0000
0100
0000
1000
0000
0100
0000
0000
0000
0110
0000
0010
0100
,  // measure 20
0000
0001
0000
0000
1000
0100
1000
0000
,  // measure 21
0001
0001
0010
0010
1000
0010
0001
1000
,  // measure 22
0001
0100
0010
0000
0010
0100
1001
0000
,  // measure 23
0000
1000
0100
0010
0100
1000
0000
0000
,  // measure 24
0010
0010
0010
0010
1000
0100
0001
0000
,  // measure 25
0001
0100
1000
0001
1001
0000
1000
0010
,  // measure 26
0100
0000
0000
0000
0000
0000
0000
0000
0100
0000
0000
0100
0000
0000
0100
0000
,  // measure 27
0000
0000
0100
0001
1000
0100
0010
0001
,  // measure 28
1001
0000
0000
0000
1000
0001
1000
0001
,  // measure 29
0100
0100
1000
0100
0000
0001
0000
1000
,  // measure 30
0000
0100
0000
0001
0000
0100
0000
1000
,  // measure 31
0100
0100
0010
1000
0000
0001
0000
0010
,  // measure 32
0000
0100
0000
0001
0000
0100
0000
1000
,  // measure 33
0010
0010
0100
0001
0000
0001
1000
0100
,  // measure 34
1000
0000
0010
0100
0000
0100
0001
1000
,  // measure 35
0010
0010
1000
0001
0000
0001
0010
0100
,  // measure 36
0010
0000
0001
1000
0010
0100
0100
0010
,  // measure 37
1000
0100
0001
0100
1000
0010
0001
0010
,  // measure 38
0100
0100
0000
0000
0001
1000
0100
0010
,  // measure 39
0001
0001
1000
1000
0010
0000
0100
0010
,  // measure 40
0110
1000
0001
0000
0001
0010
0100
0000
,  // measure 41
2000
0000
0000
3010
0000
0000
0100
0000
1000
0000
0100
0000
0000
0000
0001
0000
,  // measure 42
0010
0100
0001
0100
1000
0001
0100
0000
,  // measure 43
1000
0100
0010
1000
0001
0000
0010
0100
,  // measure 44
1000
1001
0000
0000
0001
0001
0100
0000
,  // measure 45
0010
0010
0010
1000
0100
0001
0100
1000
,  // measure 46
0010
0100
0000
0000
1000
0100
0001
0000
,  // measure 47
0010
1000
0010
0001
1000
0000
0020
0030
,  // measure 48
0020
0030
0020
0030
0010
0100
1001
0000
,  // measure 49
1000
1000
0001
0010
0100
1000
0010
1000
,  // measure 50
0001
0001
0000
0000
0010
0100
1001
0000
,  // measure 51
1000
1000
0010
0100
0001
1000
0100
0010
,  // measure 52
1002
0000
1000
0000
0010
0000
0103
0001
,  // measure 53
1000
1000
0010
1000
0001
0100
0010
1000
,  // measure 54
0001
0001
0010
0001
0100
0010
1000
0001
,  // measure 55
0100
0100
0010
1000
0100
0010
0001
1000
,  // measure 56
0001
0000
0100
0000
0010
0100
0000
0001
1000
0000
0000
0000
0000
0000
1000
0000
,  // measure 57
0001
0001
0010
0100
1000
0010
0100
1000
,  // measure 58
0100
0100
0010
1000
0100
0010
0001
1000
,  // measure 59
0010
0010
0100
0001
0010
1000
0010
0001
,  // measure 60
1000
0000
0010
0100
0000
0001
1000
0000
0000
0000
0000
0000
0000
0000
0100
0000
,  // measure 61
0110
0010
0001
1001
0000
0000
0000
0000
;

//---------------dance-single - ----------------
#NOTES:
     dance-single:
     :
     Easy:
     7:
     0.286,0.319,0.194,0.097,0.000: // measure 1
0000
0000
0000
0000
,  // measure 2
0000
0000
0000
0000
,  // measure 3
0000
0000
0000
0000
,  // measure 4
0000
0000
0000
0000
,  // measure 5
1000
0000
0000
0000
,  // measure 6
1000
0000
0000
0000
,  // measure 7
1000
0000
0000
0000
,  // measure 8
0000
1000
0000
1000
0000
0002
0000
0000
,  // measure 9
0103
0010
1000
0000
,  // measure 10
0100
0010
1000
0000
,  // measure 11
0010
0100
1000
0000
,  // measure 12
0010
0100
2000
0000
,  // measure 13
3100
0001
1000
0100
,  // measure 14
0010
0000
0010
0001
,  // measure 15
1000
0010
0100
0000
,  // measure 16
0100
0001
1000
0100
,  // measure 17
0010
0001
1000
0000
,  // measure 18
1000
0010
0100
0110
,  // measure 19
0001
0010
0100
1000
,  // measure 20
0002
0003
0000
0000
0001
0000
0001
0000
,  // measure 21
1000
1000
1000
0000
1000
0000
0010
0000
,  // measure 22
0100
0000
0001
1000
,  // measure 23
0000
0100
0010
0000
,  // measure 24
0001
0001
0001
0001
0001
0000
1001
0000
,  // measure 25
1000
0010
0110
0100
,  // measure 26
0101
0000
0002
2003
,  // measure 27
3100
0010
0001
0100
,  // measure 28
0110
0000
0000
0000
,  // measure 29
1000
0000
1000
0000
0000
0100
0000
0100
,  // measure 30
0000
0010
0000
0010
0000
0100
0000
0000
,  // measure 31
1000
0000
1000
0000
0000
0010
0000
0010
,  // measure 32
0000
0100
0000
0100
0000
0010
0000
0000
,  // measure 33
0001
0000
0001
0000
0000
0010
0000
0000
,  // measure 34
0100
0000
0001
0000
0000
1000
0000
0000
,  // measure 35
0100
0000
0100
0000
0000
0010
0000
0000
,  // measure 36
0001
0000
0100
0000
0000
0010
0000
0000
,  // measure 37
1000
0100
1100
0100
,  // measure 38
0010
0000
0001
0100
,  // measure 39
0110
0010
1001
1000
,  // measure 40
0100
0010
0100
1000
,  // measure 41
0020
0130
0101
0000
,  // measure 42
0001
0000
1000
0000
0100
0010
0100
0000
,  // measure 43
1000
0001
0100
0010
,  // measure 44
2020
3030
0000
0000
1000
0000
0001
0000
,  // measure 45
0010
0010
0010
0000
0010
0000
0001
0000
,  // measure 46
0100
0000
0010
1000
,  // measure 47
0001
0010
0100
1001
,  // measure 48
0110
1001
0001
0001
,  // measure 49
1000
0010
1010
0001
,  // measure 50
0010
0010
0000
0000
0001
0000
1000
0000
,  // measure 51
0010
0100
0001
0010
,  // measure 52
0110
0000
0000
0000
,  // measure 53
0100
1000
0010
0110
,  // measure 54
0100
0001
0010
0110
,  // measure 55
0100
1000
0010
0110
,  // measure 56
0100
0001
2002
3003
,  // measure 57
0001
0010
0100
1001
,  // measure 58
1000
0010
0100
1001
,  // measure 59
0001
0010
0100
1001
,  // measure 60
1000
0000
0010
0000
0200
0000
0300
0100
,  // measure 61
0001
0001
1000
0001
0000
0000
0000
0000
;

//---------------dance-single - Copied from----------------
#NOTES:
     dance-single:
     Copied from:
     Edit:
     9:
     0.593,0.559,0.150,0.062,0.639:
0000
0000
0000
0000
,
0000
0000
0000
0000
,
0000
0000
0000
0000
,
0000
0000
0000
0000
,
1000
0000
0000
0000
0100
0000
0000
0010
0000
0000
1000
0000
0010
0000
0001
0000
,
0100
0000
0000
0000
0010
0000
0000
0001
0000
0000
0010
0000
1000
0000
0001
0000
,
0010
0000
0000
0000
0100
0000
0000
1000
0000
0000
0001
0000
0100
0000
0010
0000
,
0000
1000
0001
1000
0000
0010
0100
0010
0000
0000
1000
0000
0100
0000
0010
0000
,
1001
0000
0000
1000
0010
0000
0000
0010
0100
0000
0001
0000
0010
0000
0100
0000
,
1000
0000
0000
1000
0001
0000
0000
0001
0100
0000
0010
0000
1000
0000
0100
0000
,
0010
0000
0000
0010
0100
0000
0000
1000
0001
0000
0010
0000
0100
0000
1000
0000
,
0010
0000
0000
0100
0010
0000
0000
1000
0001
0000
0010
0000
0100
0000
1000
0000
,
0010
0000
0100
0001
0100
0000
1000
0000
0100
0000
0001
0100
0001
0000
0001
0010
,
0001
0000
0100
0000
0000
0000
0000
0000
0001
0100
0000
0010
0100
0000
0001
0000
,
1000
0100
0000
0100
0010
0000
0010
1000
0000
0000
0000
0010
0001
0000
1000
0000
,
0010
0000
0100
0000
0010
0100
0000
0100
0001
0000
1000
0000
0100
0000
0000
0000
,
0011
0000
0000
0101
0000
0000
1000
0000
2020
0000
3030
0000
0000
0000
0000
0001
,
0000
0001
0010
0000
0010
0100
0000
1000
0000
0000
0001
0000
1001
0000
0000
0000
,
1000
0010
0100
0010
0000
0010
0000
1000
0000
0000
0000
0000
1001
0000
0001
0010
,
0000
0000
MMMM
0000
0000
0000
0000
0000
0010
0100
0000
0100
0000
0000
0000
0000
,
1000
0000
1000
0000
1000
0001
0000
0100
0000
0000
0000
0100
0010
0100
0000
0000
,
0001
1000
0000
0000
0100
0010
0110
0000
,
0001
0100
1000
0100
0001
1000
0001
0000
,
1000
0000
1000
0000
1000
0000
1000
0000
0010
0100
0000
0001
0000
0000
0000
0000
,
1000
0000
0001
0000
0010
0100
0010
0100
1000
0000
0000
0000
0010
0000
0100
0001
,
1000
0000
0000
0000
0000
0000
0100
0000
0000
0000
0000
0000
0000
0000
0000
0000
0000
0000
0010
0000
0000
0001
0000
0000
1000
0000
0000
0000
0010
0000
0000
0000
0100
0000
0000
0000
1000
0000
0000
0000
0000
0000
0100
0000
0000
0000
0000
0000
,
0000
0000
0000
0001
0000
1000
0100
0000
0000
0000
0010
0000
0001
0000
1000
0000
,
1020
0100
0001
0100
,
1030
1000
0100
1000
0000
0010
0000
0001
,
0000
0010
0000
1000
0000
0100
0000
0010
,
0001
0001
0010
0001
0000
0100
0000
0010
,
1000
0010
1000
0010
0000
0100
0010
0100
0010
0000
0001
0010
0001
0010
0000
0100
0000
0000
0000
0000
0000
0001
0000
0000
,
1000
0000
1000
0000
0010
0000
0100
0010
0000
0010
0100
0000
0001
0000
1000
0000
,
1001
0000
0000
0000
0001
0000
0010
0100
0000
0100
0010
0000
0001
0000
1000
0000
,
0010
0000
0010
0000
0100
0000
0001
1000
0000
1000
0001
0000
0010
0000
0100
0000
,
0110
0000
0000
0000
1000
0000
0001
1000
0000
1000
0001
0000
0100
0000
0010
0000
,
1000
0000
0100
0010
0000
0000
0010
0001
1000
0000
1000
0001
0100
0000
0100
0010
,
1000
0000
0001
0000
1000
0000
0000
1000
0010
0000
0100
0010
0000
0001
0000
0010
,
0100
0000
0100
0001
0000
1000
0000
0100
0000
0000
0000
0010
0001
0000
1000
0000
,
1001
0000
1000
0000
0010
0100
0000
0100
0001
0000
0001
0000
1000
0000
0000
0000
,
1200
0000
0000
0001
0300
0100
0010
0000
0001
0000
0100
0000
0000
0000
0000
0010
,
0000
0001
0010
0001
0000
0010
0100
0000
0001
0000
1000
0000
1100
0000
0000
0000
,
0100
0001
0100
1000
0000
0001
0000
0100
0000
0000
0000
0000
0110
0000
0010
0100
,
0000
0000
MMMM
0000
0000
0000
0000
0000
0001
1000
0000
0100
0000
0000
0000
0000
,
0010
0000
0010
0000
0010
0001
0000
0100
0000
0000
0010
1000
0010
0000
0100
0001
,
1000
0000
0100
0000
0000
0000
0000
0000
0100
0000
0010
0000
0000
0010
0000
0010
,
0001
0000
1000
0010
0000
0100
0010
0000
0001
0000
0000
0000
0020
0000
0030
0001
,
0020
0000
0030
0100
0020
0000
0030
1000
0010
1000
0000
0001
0000
0000
0000
0001
,
0010
0000
0010
0100
0000
0100
1000
0000
1000
0000
0010
0100
0001
0000
0001
0010
,
0100
0000
0010
0000
0000
0000
0000
0001
1000
0001
0000
0100
0000
0000
0000
0000
,
0100
0000
1000
0100
0000
0000
0010
1000
0001
0000
0010
0000
0100
0000
1000
0000
,
1001
0000
0000
0000
0000
0000
1000
0000
0001
0000
1000
0000
0001
0000
0000
0100
0000
0000
0010
0000
0000
1000
0000
0000
,
0001
0000
1000
0001
1000
0000
0010
0100
0000
0010
0100
0000
0001
0000
1000
0000
,
0100
0000
0010
0100
0010
0000
0001
1000
0000
0001
1000
0000
0010
0000
0100
0000
,
0001
0000
1000
0001
1000
0000
0100
0010
0000
0100
0000
1000
0001
0000
0100
0000
,
0010
0000
1000
0100
0000
0010
1000
0000
0000
0000
0010
0000
0001
0000
1000
0000
,
0010
0000
0100
0001
1000
0000
0100
0010
0000
0100
1000
0000
0001
0000
0100
0000
,
0010
0000
1000
0100
0010
0000
0100
1000
0000
0001
0100
0000
0010
0000
0100
0000
,
0001
0000
1000
0001
0010
0000
0100
1000
0000
0001
0000
0100
0000
0001
1000
0000
,
0100
0000
0010
0001
0000
1000
0010
0000
0000
0000
0100
0000
0001
0000
1000
0000
,
1100
0001
0100
0101
0000
0000
0000
0000
;
