#VERSION:0.83;
#TITLE:PRANK;
#SUBTITLE:;
#ARTIST:BEMANI Sound Team "SYUNN";
#TITLETRANSLIT:;
#SUBTITLETRANSLIT:;
#ARTISTTRANSLIT:SYUNN;
#GENRE:;
#CREDIT:;
#MUSIC:PRANK.ogg;
#BANNER:PRANK.png;
#BACKGROUND:PRANK-bg.png;
#CDTITLE:./CDTITLES/DANCERUSH.PNG;
#SAMPLESTART:18.462;
#SAMPLELENGTH:15.000;
#SELECTABLE:YES;
#OFFSET:0.000;
#BPMS:0.000=130.000
,100.000=260.000
,103.000=130.000
,136.000=260.000
,138.000=130.000
,152.000=260.000
,153.000=130.000
,162.000=260.000
,163.000=130.000
,164.000=260.000
,165.000=130.000
,167.000=260.000
,168.000=130.000
,196.000=260.000
,199.000=130.000
;
#STOPS:100.000=0.05769230769230769230769230769231
,100.250=0.05769230769230769230769230769231
,100.500=0.05769230769230769230769230769231
,100.750=0.05769230769230769230769230769231
,101.000=0.05769230769230769230769230769231
,101.250=0.05769230769230769230769230769231
,101.500=0.05769230769230769230769230769231
,101.750=0.05769230769230769230769230769231
,102.000=0.05769230769230769230769230769231
,102.250=0.05769230769230769230769230769231
,102.500=0.05769230769230769230769230769231
,102.750=0.05769230769230769230769230769231
,136.000=0.11538461538461538461538461538462
,136.500=0.11538461538461538461538461538462
,137.000=0.11538461538461538461538461538462
,137.500=0.11538461538461538461538461538462
,152.000=0.11538461538461538461538461538462
,152.500=0.11538461538461538461538461538462
,162.000=0.23076923076923076923076923076923
,164.000=0.23076923076923076923076923076923
,167.000=0.05769230769230769230769230769231
,167.250=0.05769230769230769230769230769231
,167.500=0.05769230769230769230769230769231
,167.750=0.05769230769230769230769230769231
,196.000=0.05769230769230769230769230769231
,196.250=0.05769230769230769230769230769231
,196.500=0.05769230769230769230769230769231
,196.750=0.05769230769230769230769230769231
,197.000=0.05769230769230769230769230769231
,197.250=0.05769230769230769230769230769231
,197.500=0.05769230769230769230769230769231
,197.750=0.05769230769230769230769230769231
,198.000=0.05769230769230769230769230769231
,198.250=0.05769230769230769230769230769231
,198.500=0.05769230769230769230769230769231
,198.750=0.05769230769230769230769230769231
;
#SCROLLS:0.000=1.000,
40.000=0.500,
40.750=2.000,
41.000=1.000,
56.000=0.500,
56.750=2.000,
57.000=1.000,
79.000=0.500,
79.750=2.000,
80.000=1.000,
95.000=0.500,
95.750=2.000,
96.000=1.000,
104.000=0.900,
104.500=0.800,
105.000=0.700,
105.500=0.600,
106.000=0.500,
106.500=0.400,
107.000=0.300,
107.500=0.200,
108.000=0.100,
112.000=0.200,
113.000=0.300,
114.000=0.400,
115.000=0.500,
116.000=0.600,
117.000=0.700,
118.000=0.800,
119.000=0.900,
120.000=1.000,
136.000=0.500,
137.500=2.000,
138.000=1.000,
147.000=0.500,
147.750=2.000,
148.000=1.000,
151.000=0.500,
151.750=2.000,
152.000=1.000,
153.000=2.000,
154.000=1.000,
168.000=0.500,
168.750=2.000,
169.000=1.000,
175.000=0.500,
175.750=2.000,
176.000=1.000,
184.000=0.500,
184.750=2.000,
185.000=1.000,
191.000=0.500,
191.750=2.000,
192.000=1.000
;
#DISPLAYBPM:130.000;
#JACKET:PRANK-jacket.png;
#BGCHANGES:;
#FGCHANGES:;

//--------------- dance-single - t7r ----------------
#NOTEDATA:;
#STEPSTYPE:dance-single;
#DESCRIPTION:t7r;
#DIFFICULTY:Beginner;
#METER:2;
#RADARVALUES:0,0,0,0,0;
#NOTES:
0000
0000
0000
0000
,
0000
0000
0000
0000
,
0000
0000
0000
0000
,
0000
0000
0000
0000
,
0000
0000
0000
0000
,
0000
0001
0000
0000
,
0000
1000
0000
0000
,
0000
0010
0000
0000
,
0100
0000
0100
0000
,
0010
0000
0000
0000
,
1000
0000
1000
0000
,
1000
0000
0000
0000
,
0001
0000
0001
0000
,
0001
0000
0000
0000
,
0100
0000
0100
0000
,
0100
0000
0000
0000
,
0010
0000
0010
0000
,
0010
0000
0000
0000
,
1000
1000
0000
0000
,
1000
0000
0000
0000
,
0001
0000
0001
0000
,
0001
0000
0000
0000
,
0010
0010
0000
0000
,
0010
0000
0010
0000
,
0100
0000
0100
0000
,
0100
0000
0000
0000
,
0010
0000
0000
0000
,
0000
0000
0000
0000
,
0001
0000
0000
0000
,
0000
0000
0000
0000
,
1000
0000
1000
0000
,
0001
0000
0001
0000
,
0100
0000
0100
0000
,
0010
0010
0010
0000
,
0000
0000
1000
0000
,
0000
0000
0000
0000
,
0001
0000
0001
0000
,
0010
0000
0010
0000
,
0100
0000
0100
0000
,
0000
0000
0000
0000
,
0010
0000
0010
0000
,
0010
0000
0010
0000
,
0000
0001
0000
0000
,
0001
0000
0000
0000
,
1000
0000
1000
0000
,
1000
0000
0000
0000
,
0010
0000
0010
0000
,
0010
0000
0000
0000
,
0100
0000
0100
0000
,
0100
0100
0100
0000
,
1001
0000
0000
0000
;

//--------------- dance-single - t7r ----------------
#NOTEDATA:;
#STEPSTYPE:dance-single;
#DESCRIPTION:t7r;
#DIFFICULTY:Easy;
#METER:7;
#RADARVALUES:0,0,0,0,0;
#NOTES:
0000
0000
0000
0000
,
0000
0000
0000
0000
,
0000
0000
0000
0000
,
0000
0000
0000
0000
,
0000
0000
0000
0000
,
0020
0000
1030
0000
1000
1000
0000
0000
,
0000
0000
0000
0002
0000
0000
0013
0000
,
0001
0000
0100
0000
0010
0010
0000
0000
,
1000
0000
0100
0100
0000
0000
0010
0000
,
2002
0000
0000
3003
,
2000
3100
0010
0010
,
0001
0100
0010
1000
,
0001
0100
2010
3001
,
1000
0100
0012
1003
,
0002
0103
0010
0010
,
1000
0100
0010
0001
,
1000
0010
0102
1003
,
0001
0010
0010
0000
0100
0000
1000
0000
,
0001
0120
2030
3002
,
0103
1000
0100
0002
,
0013
0100
0010
0000
0001
0000
0001
0000
,
0100
0010
0100
0000
1000
0000
1000
0000
,
0210
0302
2003
3100
,
0001
0100
2000
3020
,
0130
0001
0100
0010
,
1000
1000
1000
0000
1000
0000
1000
0000
,
2002
0000
0000
0000
,
3003
0000
0000
0000
,
0020
0000
0000
0000
,
0030
0000
0000
0000
,
1000
0100
0001
0010
,
0001
0100
1000
0010
,
1000
1000
1000
0000
0001
0001
0001
0000
,
0100
0010
1000
0001
,
2002
0000
3003
0000
0010
0100
0100
0000
,
0000
0100
0100
0000
0000
0000
0100
0000
,
1001
0100
1000
0100
,
1001
0100
0001
0100
,
0010
0000
0000
0000
0100
0010
0010
0000
,
0000
0010
0010
0000
0000
0000
0010
0000
,
1001
0100
1010
0000
,
1001
0100
0011
0000
,
1000
0200
0302
0203
,
1300
0000
0010
0000
0100
0001
0100
0000
,
0001
0010
1000
0000
0001
0000
0001
0000
,
1000
0010
0001
0000
1000
0000
1000
0000
,
0010
0200
2300
3200
,
0301
0000
0010
0000
0100
1000
0001
0000
,
1000
0100
0001
0000
1000
0000
1000
0000
,
0001
0100
1000
0010
,
1001
0000
0000
0000
;

//--------------- dance-single - t7r ----------------
#NOTEDATA:;
#STEPSTYPE:dance-single;
#DESCRIPTION:t7r;
#DIFFICULTY:Medium;
#METER:9;
#RADARVALUES:0,0,0,0,0;
#NOTES:
0000
0000
0000
0000
,
0000
0000
0000
0000
,
0000
0000
0000
0000
,
0000
0000
0000
0000
,
0000
0000
0000
0000
,
0010
0000
1000
0100
0010
0001
0000
0000
,
0000
0000
0000
0210
0000
0301
1000
0000
,
0001
0000
0010
0001
1000
0010
0000
0000
,
0100
0100
0001
0001
1000
0100
0010
0000
,
2002
0000
0000
3003
,
2010
0000
0000
0000
3001
0000
0000
0000
0110
0000
0000
1000
0000
0000
0110
0000
,
0000
0001
0000
0000
1000
0000
0000
0100
0010
0000
0001
0000
0100
0000
0000
0000
,
0010
1000
0001
0000
0120
0000
1030
0000
,
0100
1000
0001
0000
0120
0000
0031
0000
,
0012
0000
0000
0000
1003
0000
0000
0000
0110
0000
0000
1000
0000
0000
0110
0000
,
0000
0001
0000
0000
1000
0000
0000
0000
0100
0000
0010
0000
0001
0000
0000
0000
,
1000
0010
0100
0000
2001
0000
3010
0000
,
1000
0100
0020
0000
0001
0000
0130
0000
,
2100
0000
0000
0000
3001
0000
0000
0000
0100
0000
0000
0010
0000
0000
0001
0000
,
0010
1000
0100
0000
0010
0000
1002
0000
,
1003
0000
0100
0000
0010
0000
0000
1000
0000
0000
1000
0000
0000
0110
0000
0000
,
0001
0000
0100
0000
0010
0000
0000
0001
0000
0000
0001
0000
0000
0110
0000
0000
,
0102
0000
0000
0000
1003
0000
0000
0000
0100
0000
0000
0010
0000
0000
1000
0000
,
0001
0100
1000
0000
0010
0100
0002
0000
,
1003
0000
0010
0000
0001
0000
0000
0010
0000
0000
0010
0000
0000
0010
0000
0000
,
1000
1000
0001
0001
0100
0100
0100
0000
,
0220
0000
0000
0000
,
0330
0000
0000
0000
,
0020
0000
0000
0000
,
0030
0000
0000
0000
,
1000
0100
0001
0110
,
0001
0100
1000
0110
,
1000
1000
0100
0100
0001
0001
0100
0100
,
1000
1000
0010
0010
0200
0000
0310
0000
,
1000
1000
0001
0001
0200
0010
0010
0000
,
0000
0000
0000
0010
0000
0000
0310
0000
0000
0000
0000
0000
0010
0000
0000
0000
0010
0000
0000
0000
0010
0000
0000
0000
,
1000
0001
0100
0100
1000
0001
1000
0000
,
0001
1000
0100
0100
0001
1000
0001
0000
,
0010
0000
0110
0000
2000
0001
0001
0000
,
0000
0000
0000
0001
0000
0000
3001
0000
0000
0000
0000
0000
0001
0000
0000
0000
0001
0000
0000
0000
0001
0000
0000
0000
,
1001
0010
0101
1000
,
1100
0000
0010
0000
1001
0001
0100
0100
,
0010
0000
0000
0000
2000
0000
0000
0000
3200
0000
0000
0302
0000
0000
1003
0000
,
0010
0001
0100
0000
0010
1000
0100
0000
,
0010
0000
1001
0000
0100
1000
0001
0000
,
0100
0000
1010
0000
0001
0010
0100
0010
,
0001
0000
0000
0000
2000
0000
0000
0000
3020
0000
0000
0032
0000
0000
1003
0000
,
0100
0001
0010
0000
0100
1000
0001
0000
,
1000
0000
0010
0000
0100
0000
0000
0001
0100
0000
0010
0000
1000
0001
0000
0000
,
1000
0000
1000
0000
0001
0000
0001
0000
0100
0010
0100
0000
0010
0000
0010
0000
,
1001
0000
0000
0000
;

//--------------- dance-single - t7r ----------------
#NOTEDATA:;
#STEPSTYPE:dance-single;
#DESCRIPTION:t7r;
#DIFFICULTY:Hard;
#METER:14;
#RADARVALUES:0,0,0,0,0;
#NOTES:
0000
0000
0000
0000
,
0000
0000
0000
0000
,
0000
0000
0000
0000
,
0000
0000
0000
0000
,
0000
0000
0000
0000
,
0010
0000
0000
0000
1000
0100
0000
1000
0100
0000
0010
0000
0000
0000
0000
0000
,
0000
0000
0000
0000
0000
0000
1001
0000
0000
0000
0000
0000
0010
0000
0000
1000
,
0001
0000
0000
0000
0010
0001
0000
0010
0001
0000
0100
0000
0000
0000
0000
0000
,
0010
0100
0010
0000
0100
0010
0100
0000
0001
0000
0001
0000
1000
0000
1000
0000
,
2001
0000
0000
0000
0000
0000
0000
0000
0000
0000
0000
0000
0000
0000
0000
0000
0000
0000
0000
0000
0000
0000
0000
0000
0000
0000
0000
0000
0000
0000
0000
0001
3000
0000
0000
0000
1000
0000
0000
0000
0000
0000
0001
0000
0000
0000
0000
0000
1000
0000
0000
0000
0000
0000
0000
0000
0000
0000
0000
0000
0000
0000
0000
0000
,
2100
0000
0000
0000
3001
0000
0000
0000
1100
0000
0000
0101
0000
0000
1100
0000
,
0001
0100
0000
0000
1100
0000
0010
0001
1000
0001
0010
0000
0001
0000
0100
0000
,
0110
0000
0001
0000
2010
0000
0000
0000
3200
0000
0000
0301
0100
0000
0010
0000
,
0110
0000
1000
0000
0002
0000
0000
0000
0203
0000
0000
1300
0100
0000
0010
0000
,
2010
0000
0000
0000
3001
0000
0000
0000
1010
0000
0000
0011
0000
0000
1010
0000
,
0001
0010
0000
0000
0101
0000
1000
0001
0100
0001
1000
0000
0010
0000
0100
0000
,
1001
0000
0010
0000
0201
0000
0000
0000
0320
0000
0000
1030
0010
0000
0001
0000
,
0010
0000
0100
0001
0100
0001
0100
1000
0100
1000
0100
0000
0010
0100
0001
0000
,
0011
0000
0100
0000
1002
0000
0000
1003
0100
0000
0010
1000
0000
0001
0100
0000
,
0010
0000
0001
0100
1000
0000
0100
0000
0010
0000
1000
0000
1001
0000
0000
0000
,
0101
0000
0010
0000
1001
0000
1000
0100
1000
0000
0001
0000
1000
0100
0000
0100
,
0001
0000
0110
0000
1000
0000
0001
0100
0001
0000
1000
0000
0010
0100
0000
0000
,
1100
0000
0010
0000
2001
0000
0000
3001
0010
0000
0100
0001
0000
1000
0010
0000
,
0100
0000
1000
0010
0001
0000
0010
0000
0100
0000
0001
0000
1001
0000
0000
0000
,
0001
0000
0100
0000
1000
0000
0001
0010
0100
0000
1000
0000
0001
0010
0000
0000
,
1000
0100
1000
0100
0010
0100
0010
0100
0010
0001
0010
0001
1000
0000
0001
0000
,
2002
0000
0000
0000
,
3003
0000
0000
0000
,
0020
0000
0000
0000
0031
0000
0100
0001
0000
1000
0000
0001
0010
0000
0000
0000
,
0200
0000
0000
0000
1300
0000
0010
0100
0000
0001
0000
1000
0010
0000
0000
0000
,
1000
0000
0100
1000
0100
0000
1000
0000
0010
0000
0100
0001
0100
0000
0000
0000
,
0001
0000
0010
0001
0010
0000
0001
0000
1000
0000
0010
1000
0010
0000
1000
0000
,
0001
0001
0100
0100
1000
1000
0010
0010
,
0001
0010
0001
0010
0100
0010
0100
0010
0100
0000
1000
0010
0100
0000
0010
0000
,
0100
0100
0010
0010
2001
0010
0010
0000
,
0000
0000
0000
0100
0000
0000
3100
0000
0010
0000
0001
0000
1000
0000
0000
0000
0010
0000
0000
0000
0010
0000
0100
0000
,
0001
0100
1100
0100
0101
0001
0011
0000
,
1000
0100
0101
0100
1100
1000
0010
0100
,
0001
0001
0010
0000
1002
0100
0100
0000
,
0000
0000
0000
0100
0000
0000
0103
0000
0010
0000
1000
0000
0001
0000
0000
0000
0001
0000
1000
0000
0010
0000
0001
0000
,
0010
1000
0101
0010
1001
0000
1100
0010
,
1001
0000
0000
0000
0110
0000
0001
0000
1100
0000
0001
0000
1000
0001
1000
0001
,
1000
0000
0100
0000
0001
0200
0000
0310
2000
0000
3001
0200
0000
0310
2000
0000
,
3010
0000
0001
1000
0100
0000
1000
0001
0100
0000
0001
0000
0012
0000
0000
0000
,
1003
0000
0010
0000
0100
0000
1000
1000
0100
0000
0001
0000
0010
0001
0000
1000
,
0001
0000
0010
0000
0100
0000
0001
0001
0100
0000
0010
0000
0001
1000
0000
0010
,
1000
0000
0010
0000
0001
0020
0000
0130
2000
0000
3001
0020
0000
0130
2000
0000
,
3100
0000
0010
1000
0100
0000
0010
0001
1000
0000
0001
0000
0210
0000
0000
0000
,
0301
0000
1100
0000
0101
0000
1000
0001
0100
0000
0001
0000
1000
0100
0000
0100
,
0001
0100
0001
0100
1000
0100
1000
0100
0010
0100
0010
0000
1001
0000
0010
0000
,
1001
0000
0000
0000
;

//--------------- dance-single - t7r ----------------
#NOTEDATA:;
#STEPSTYPE:dance-single;
#DESCRIPTION:t7r;
#DIFFICULTY:Challenge;
#METER:15;
#RADARVALUES:0,0,0,0,0;
#NOTES:
0000
0000
0000
0000
,
0000
0000
0000
0000
,
0000
0000
0000
0000
,
0000
0000
0000
0000
,
0000
0000
0000
0000
,
0001
0000
0000
0000
1000
0100
1000
0100
1000
0100
1000
0000
0000
0000
0000
0000
,
0000
0000
0000
0000
0000
0000
1001
0000
0000
0000
0000
0000
0010
0100
0010
0100
,
0001
0000
0000
0000
0010
0100
0010
0100
0010
0100
0010
0000
0000
0000
0000
0000
,
0001
0100
0001
0100
0001
0100
0001
0000
1000
0000
0110
0000
0001
0000
0100
0000
,
1010
0000
0000
0000
0000
0000
0000
0000
0000
0000
0000
0000
0000
0000
0000
0000
0000
0000
0000
0000
0000
0000
0000
0000
0010
0000
0000
0000
0000
0000
0000
0000
0000
0000
0000
0000
0000
0000
0000
0000
0000
0000
0000
0000
0000
0000
0000
0000
4000
0000
0000
0000
0000
0000
0000
0000
0000
0000
0000
0000
0000
0000
0000
3001
0000
0000
0000
0000
0000
0000
0000
0000
0100
0000
0000
0000
0000
0000
0000
0000
0000
0000
0010
0000
0000
0000
0000
0000
0000
0000
0000
0000
0000
1000
0000
0000
0000
0000
0000
0000
0000
0000
0000
0000
0000
0000
0000
0000
0100
0000
0000
0000
0000
0000
0000
0000
0000
0000
0000
0000
0000
0000
0000
0000
0000
0000
0010
0000
0000
0000
0000
0000
0000
0000
0000
0000
0000
0000
0000
0000
0000
0000
0000
0000
1001
0000
0000
0000
0000
0000
0000
0000
0000
0000
0000
0000
0000
0000
0000
0000
0000
0000
0000
0000
0000
0000
0000
0000
0010
0000
0000
0000
0000
0000
0000
0000
0000
0000
0000
0000
0000
0000
0000
0000
0000
0000
0000
0000
0000
0000
0000
0000
,
0210
0000
0000
0000
0000
0000
0000
0000
0000
0000
0000
0000
0000
0000
0000
0000
0301
0100
0000
0000
0000
0000
0000
0000
000M
0000
0000
0000
0000
0000
0000
0000
1000
0010
0000
0000
0000
0000
0000
0000
M000
0000
0000
0000
0001
0100
0000
0000
0000
0000
0000
0000
000M
0000
0000
0000
1000
0010
0000
0000
0000
0000
0000
0000
,
1000
0100
0000
0001
0100
0000
0010
0100
0010
1000
0010
0000
0001
0100
0010
0000
,
0110
0000
1000
0000
0102
0000
0000
0000
0013
0000
0000
1100
0001
0000
0000
0000
,
0110
0000
0001
0000
2100
0000
0000
0000
3010
0000
0000
0101
1000
0001
0010
0000
,
0210
0000
0000
0000
0000
0000
0000
0000
0000
0000
0000
0000
0000
0000
0000
0000
1300
0010
0000
0000
0000
0000
0000
0000
M000
0000
0000
0000
0000
0000
0000
0000
0001
0100
0000
0000
0000
0000
0000
0000
000M
0000
0000
0000
1000
0010
0000
0000
0000
0000
0000
0000
M000
0000
0000
0000
0001
0100
0000
0000
0000
0000
0000
0000
,
0001
0010
0000
1000
0010
0000
0001
0100
1000
0100
0010
0000
1000
0100
0001
0000
,
0110
0000
0001
0000
2010
0000
0000
0000
3200
0000
0000
0301
0100
1000
0010
0000
,
0110
0000
1MM0
0100
0010
1000
0001
0100
0010
0001
1000
0000
M010
0001
1000
0000
,
0110
0000
0000
0000
0000
0000
0000
0000
0001
0000
0000
0000
0000
0000
0000
0000
1000
0020
0000
0000
0000
0000
0000
0000
0000
0000
0000
0000
0000
0000
0000
0000
1030
0100
0000
0000
0000
0000
0000
0000
M000
0000
0000
0000
0100
0001
0000
0000
0000
0000
0000
0000
0M00
0000
0000
0000
1000
0100
0000
0000
0000
0000
0000
0000
,
0110
0000
0001
0100
010M
1000
0001
0000
0110
0000
0001
0000
1010
0000
0000
0000
,
0101
0000
1000
0000
0110
0000
0001
0010
0100
0000
0001
0100
1000
0001
0000
0000
,
1010
0000
0001
0000
0110
0000
1000
0100
0010
0000
1000
0100
0001
1000
0001
0000
,
0110
0000
0000
0000
0000
0000
0000
0000
1000
0000
0000
0000
0000
0000
0000
0000
0001
0200
0000
0000
0000
0000
0000
0000
0000
0000
0000
0000
0000
0000
0000
0000
0301
0010
0000
0000
0000
0000
0000
0000
000M
0000
0000
0000
0010
1000
0000
0000
0000
0000
0000
0000
00M0
0000
0000
0000
0001
0010
0000
0000
0000
0000
0000
0000
,
0110
0000
0001
0001
1000
0000
0010
0100
1000
0001
0010
0000
0210
0000
0000
0000
,
0301
0000
1000
0000
0110
0000
0001
0100
1000
0000
0100
0000
0011
1000
0000
0000
,
0001
0010
0001
0010
1000
0010
1000
0010
0001
1000
0001
1000
0010
0000
0010
0000
,
0200
0000
0000
0000
,
0300
0000
0000
0000
,
0020
1000
0000
0130
,
0002
0010
0000
1003
,
0100
0000
1000
0100
0001
0000
0100
0000
0010
0000
0001
0100
1000
0000
0000
0000
,
0100
0000
0001
0010
1000
0000
0010
0000
0001
0000
1000
0010
0001
0000
0000
0000
,
0010
0010
0100
0100
0001
0001
0010
0010
,
0001
0000
0000
1000
0000
0000
0001
0000
0000
1000
0000
0000
0001
0000
0000
1000
0000
0000
0001
0000
0000
1000
0000
0000
0040
0000
0000
0000
0000
0000
0130
0000
0001
0000
0100
0000
0010
0000
0000
0100
0000
0000
0010
0000
0000
0000
0000
0000
,
1000
0000
0000
0100
0000
0000
0001
0000
0000
0010
0000
0000
1001
0000
0000
0100
0000
0000
0010
0000
0001
0000
1000
0000
,
0001
0000
0000
0100
0000
0000
0001
0000
0010
0000
1000
0000
0010
0000
0000
0000
0010
0000
0000
0000
0001
0000
1000
0000
,
0010
0100
0101
0001
0100
1000
0110
0000
,
1000
0000
0100
0000
0101
0000
0001
0100
0010
0000
0001
0000
1001
0000
0000
0000
,
0010
0000
0000
0010
0000
0000
0110
0000
0000
0000
0000
0000
0001
0000
0000
0100
0000
0000
0010
0000
1000
0000
0010
0000
,
0001
0000
0010
0000
0010
0100
0001
0000
0001
0000
0010
1000
,
0020
0000
0031
0100
0011
0000
1000
0100
,
1010
0000
0000
0000
0001
0000
0100
0000
1001
0000
0010
0000
0010
0100
0010
0100
,
0001
0000
0000
0000
0000
0000
0000
0000
0000
0000
0000
0000
0000
0000
0000
0000
1000
0010
0000
0000
0000
0000
0000
0000
M000
0000
0000
0000
0000
0000
0000
0000
0001
0010
0000
0000
0000
0000
0000
0000
000M
0000
0000
0000
1000
0100
0000
0000
0000
0000
0000
0000
M000
0000
0000
0000
0001
0100
0000
0000
0000
0000
0000
0000
,
0110
0000
0000
0001
1000
0100
1000
0000
0000
0100
0000
0000
0001
0000
0000
1000
0000
0000
0020
0000
0000
0000
0000
0000
,
0031
0000
0110
0000
1000
0000
0010
0010
0100
0000
0010
0000
1100
0001
0000
0000
,
1000
0000
0110
0000
0001
0000
0010
0010
0100
0000
0010
0000
0101
1000
0000
0000
,
0110
0000
0000
0000
0000
0000
0000
0000
0000
0000
0000
0000
0000
0000
0000
0000
0001
0100
0000
0000
0000
0000
0000
0000
000M
0000
0000
0000
0000
0000
0000
0000
1000
0010
0000
0000
0000
0000
0000
0000
M000
0000
0000
0000
0001
0010
0000
0000
0000
0000
0000
0000
000M
0000
0000
0000
1000
0100
0000
0000
0000
0000
0000
0000
,
0110
0000
0000
0000
0000
0000
1000
0000
0001
0000
0100
0000
0001
0000
0000
0010
0000
0000
0100
0000
0000
0000
0000
0000
1000
0000
0000
0010
0000
0000
0100
0000
0000
0000
0000
0000
0012
0000
0000
0000
0000
0000
0000
0000
0000
0000
0000
0000
,
1003
0000
0101
0000
1000
0000
0001
0100
010M
1000
0001
0000
1010
0001
0000
0000
,
1000
0100
0001
MM00
0001
0010
1000
00MM
1000
0100
1000
0100
0010
0000
1001
0000
,
0010
0000
0000
0000
;

//--------------- dance-single - t7r no 64ths ----------------
#NOTEDATA:;
#STEPSTYPE:dance-single;
#DESCRIPTION:t7r no 64ths;
#DIFFICULTY:Edit;
#METER:15;
#RADARVALUES:0,0,0,0,0;
#NOTES:
0000
0000
0000
0000
,
0000
0000
0000
0000
,
0000
0000
0000
0000
,
0000
0000
0000
0000
,
0000
0000
0000
0000
,
0001
0000
0000
0000
1000
0100
1000
0100
1000
0100
1000
0000
0000
0000
0000
0000
,
0000
0000
0000
0000
0000
0000
1001
0000
0000
0000
0000
0000
0010
0100
0010
0100
,
0001
0000
0000
0000
0010
0100
0010
0100
0010
0100
0010
0000
0000
0000
0000
0000
,
0001
0100
0001
0100
0001
0100
0001
0000
1000
0000
0110
0000
0001
0000
0100
0000
,
1010
0000
0000
0000
0000
0000
0000
0000
0000
0000
0000
0000
0000
0000
0000
0000
0000
0000
0000
0000
0000
0000
0000
0000
0010
0000
0000
0000
0000
0000
0000
0000
0000
0000
0000
0000
0000
0000
0000
0000
0000
0000
0000
0000
0000
0000
0000
0000
4000
0000
0000
0000
0000
0000
0000
0000
0000
0000
0000
0000
0000
0000
0000
3001
0000
0000
0000
0000
0000
0000
0000
0000
0100
0000
0000
0000
0000
0000
0000
0000
0000
0000
0010
0000
0000
0000
0000
0000
0000
0000
0000
0000
0000
1000
0000
0000
0000
0000
0000
0000
0000
0000
0000
0000
0000
0000
0000
0000
0100
0000
0000
0000
0000
0000
0000
0000
0000
0000
0000
0000
0000
0000
0000
0000
0000
0000
0010
0000
0000
0000
0000
0000
0000
0000
0000
0000
0000
0000
0000
0000
0000
0000
0000
0000
1001
0000
0000
0000
0000
0000
0000
0000
0000
0000
0000
0000
0000
0000
0000
0000
0000
0000
0000
0000
0000
0000
0000
0000
0010
0000
0000
0000
0000
0000
0000
0000
0000
0000
0000
0000
0000
0000
0000
0000
0000
0000
0000
0000
0000
0000
0000
0000
,
0220
0000
0330
0000
0101
0000
0000
0000
101M
0000
0000
M101
0000
0000
101M
0000
,
1000
0100
0000
0001
0100
0000
0010
0100
0010
1000
0010
0000
0001
0100
0010
0000
,
0110
0000
1000
0000
0102
0000
0000
0000
0013
0000
0000
1100
0001
0000
0000
0000
,
0110
0000
0001
0000
2100
0000
0000
0000
3010
0000
0000
0101
1000
0001
0010
0000
,
0220
0000
0330
0000
1010
0000
0000
0000
M101
0000
0000
101M
0000
0000
M101
0000
,
0001
0010
0000
1000
0010
0000
0001
0100
1000
0100
0010
0000
1000
0100
0001
0000
,
0110
0000
0001
0000
2010
0000
0000
0000
3200
0000
0000
0301
0100
1000
0010
0000
,
0110
0000
1MM0
0100
0010
1000
0001
0100
0010
0001
1000
0000
M010
0001
1000
0000
,
0110
0000
0001
0000
2020
0000
3030
0000
1100
0000
0000
M101
0000
0000
110M
0000
,
0110
0000
0001
0100
0100
1000
0001
0000
0110
0000
0001
0000
1010
0000
0000
0000
,
0101
0000
1000
0000
0110
0000
0001
0010
0100
0000
0001
0100
1000
0001
0000
0000
,
1010
0000
0001
0000
0110
0000
1000
0100
0010
0000
1000
0100
0001
1000
0001
0000
,
0110
0000
1000
0000
0202
0000
0303
0000
0011
0000
0000
101M
0000
0000
M011
0000
,
0110
0000
0001
0001
1000
0000
0010
0100
1000
0001
0010
0000
0210
0000
0000
0000
,
0301
0000
1000
0000
0110
0000
0001
0100
1000
0000
0100
0000
0011
1000
0000
0000
,
0001
0010
0001
0010
1000
0010
1000
0010
0001
1000
0001
1000
0010
0000
0010
0000
,
0200
0000
0000
0000
,
0300
0000
0000
0000
,
0020
1000
0000
0130
,
0002
0010
0000
1003
,
0100
0000
1000
0100
0001
0000
0100
0000
0010
0000
0001
0100
1000
0000
0000
0000
,
0100
0000
0001
0010
1000
0000
0010
0000
0001
0000
1000
0010
0001
0000
0000
0000
,
0010
0010
0100
0100
0001
0001
0010
0010
,
0001
0000
0000
1000
0000
0000
0001
0000
0000
1000
0000
0000
0001
0000
0000
1000
0000
0000
0001
0000
0000
1000
0000
0000
0040
0000
0000
0000
0000
0000
0130
0000
0001
0000
0100
0000
0010
0000
0000
0100
0000
0000
0010
0000
0000
0000
0000
0000
,
1000
0000
0000
0100
0000
0000
0001
0000
0000
0010
0000
0000
1001
0000
0000
0100
0000
0000
0010
0000
0001
0000
1000
0000
,
0001
0000
0000
0100
0000
0000
0001
0000
0010
0000
1000
0000
0010
0000
0000
0000
0010
0000
0000
0000
0001
0000
1000
0000
,
0010
0100
0101
0001
0100
1000
0110
0000
,
1000
0000
0100
0000
0101
0000
0001
0100
0010
0000
0001
0000
1001
0000
0000
0000
,
0010
0000
0000
0010
0000
0000
0110
0000
0000
0000
0000
0000
0001
0000
0000
0100
0000
0000
0010
0000
1000
0000
0010
0000
,
0001
0000
0010
0000
0010
0100
0001
0000
0001
0000
0010
1000
,
0020
0000
0031
0100
0011
0000
1000
0100
,
1010
0000
0000
0000
0001
0000
0100
0000
1001
0000
0010
0000
0010
0100
0010
0100
,
0001
0000
0000
0000
101M
0000
0000
0000
0M11
0000
0000
110M
0000
0000
M101
0000
,
0110
0000
0000
0001
1000
0100
1000
0000
0000
0100
0000
0000
0001
0000
0000
1000
0000
0000
0020
0000
0000
0000
0000
0000
,
0031
0000
0110
0000
1000
0000
0010
0010
0100
0000
0010
0000
1100
0001
0000
0000
,
1000
0000
0110
0000
0001
0000
0010
0010
0100
0000
0010
0000
0101
1000
0000
0000
,
0110
0000
0000
0000
M101
0000
0000
0000
101M
0000
0000
M011
0000
0000
110M
0000
,
0110
0000
0000
0000
0000
0000
1000
0000
0001
0000
0100
0000
0001
0000
0000
0010
0000
0000
0100
0000
0000
0000
0000
0000
1000
0000
0000
0010
0000
0000
0100
0000
0000
0000
0000
0000
0012
0000
0000
0000
0000
0000
0000
0000
0000
0000
0000
0000
,
1003
0000
0101
0000
1000
0000
0001
0100
0100
1000
0001
0000
1010
0001
0000
0000
,
1000
0100
0001
MM00
0001
0010
1000
00MM
1000
0100
1000
0100
0010
0000
1001
0000
,
0010
0000
0000
0000
;
