#TITLE:POMPEIUS;
#SUBTITLE:;
#ARTIST:BLACK DECEPTION;
#TITLETRANSLIT:;
#SUBTITLETRANSLIT:;
#ARTISTTRANSLIT:;
#GENRE:Techranz;
#CREDIT:;
#BANNER:POMPEIUS.png;
#BACKGROUND:POMPEIUS-bg.png;
#LYRICSPATH:;
#CDTITLE:cdtitle.png;
#MUSIC:POMPEIUS.mp3;
#OFFSET:-0.028000;
#SAMPLESTART:86.706604;
#SAMPLELENGTH:15.000000;
#SELECTABLE:YES;
#BPMS:0.000000=155.000000
;
#STOPS:
;
#BGCHANGES:;
#KEYSOUNDS:;
#ATTACKS:;

//---------------dance-single - ----------------
#NOTES:
     dance-single:
     :
     Beginner:
     3:
     0.120647,0.180613,0.008362,0.025085,0.000000,101.000000,100.000000,1.000000,3.000000,0.000000,0.000000,0.120647,0.180613,0.008362,0.025085,0.000000,101.000000,100.000000,1.000000,3.000000,0.000000,0.000000:
0000
0000
0000
0000
,
0000
0000
0000
0000
,
0000
0000
0000
0000
,
0000
0000
0000
0000
,
0000
0000
0000
0000
,
0000
0000
0000
0000
,
0000
0000
0000
0000
,
0000
0000
0002
0000
,
1003
0000
0000
0000
,
1000
0000
0000
0000
,
0001
0000
0000
0000
,
0001
0000
0000
0000
,
1000
0000
0000
0000
,
1000
0000
0000
0000
,
0001
0000
0000
0000
,
0001
0000
0000
0000
,
0100
0000
0000
0000
,
0100
0000
0000
0000
,
0010
0000
0010
0000
,
0010
0000
0000
0000
,
0100
0000
0100
0000
,
0100
0000
0000
0000
,
0010
0000
0000
0000
,
0010
0000
0000
0000
,
1000
0000
0000
0000
,
0001
0000
0000
0000
,
1000
0000
0000
0000
,
0010
0000
0000
0000
,
1000
0000
0000
0000
,
0001
0000
0000
0000
,
1000
0000
0000
0000
,
0100
0000
0000
0000
,
1000
0000
1000
0000
,
0001
0000
0100
0000
,
0001
0000
0001
0000
,
1000
0000
0001
0000
,
1000
0000
1000
0000
,
0100
0000
0010
0000
,
0100
0000
0000
0000
,
0010
0000
0100
0000
,
0010
0000
0000
0000
,
0000
0001
0000
0000
,
0000
0001
0000
0000
,
0000
0001
0000
0000
,
0000
1000
0000
0000
,
0000
1000
0000
0000
,
0000
1000
0000
0000
,
0000
1000
0000
0000
,
1001
0000
0001
0000
,
1000
0000
0001
0000
,
1000
0000
0001
0000
,
1000
0000
0001
0000
,
0010
0000
0100
0000
,
0010
0000
0100
0000
,
1000
0000
0001
0000
,
0020
0000
0000
0000
,
0130
0000
0100
0000
,
0100
0000
1000
0000
,
0001
0000
0001
0000
,
0001
0000
0100
0000
,
0010
0000
0010
0000
,
0010
0000
1000
0000
,
0100
0000
0100
0000
,
0100
0000
0010
0000
,
0001
0000
1000
0000
,
0001
0000
1000
1000
,
0001
0000
0100
0000
,
0001
0000
0010
0010
,
0001
0000
1000
0000
,
0001
0000
0100
0100
,
0001
0000
0010
0000
,
0100
0000
2000
0000
,
3000
0000
0000
0000
;

//---------------dance-single - ----------------
#NOTES:
     dance-single:
     :
     Easy:
     5:
     0.228155,0.331123,0.150510,0.066894,0.000000,191.000000,173.000000,18.000000,8.000000,0.000000,0.000000,0.228155,0.331123,0.150510,0.066894,0.000000,191.000000,173.000000,18.000000,8.000000,0.000000,0.000000:
0000
0000
0000
0000
,
0000
0000
0000
0000
,
0000
0000
0000
0000
,
0000
0000
0000
0000
,
0000
0000
0000
0000
,
0000
0000
0000
0000
,
0000
0000
0000
0000
,
0000
0000
0002
0000
,
1003
0000
0001
1000
,
1000
0000
0100
0010
,
0001
0000
1000
1000
,
1000
0000
0001
0001
,
0010
0000
0100
0100
,
1000
0000
0010
1000
,
0100
0000
0010
0001
,
0100
0001
1000
0001
,
1000
0000
0000
0011
,
0001
0000
0000
1100
,
1000
0000
0000
1010
,
0001
0000
0000
0101
,
1000
0000
0000
1001
,
0001
0000
0000
0110
,
0100
0010
0100
0010
,
2010
0000
0000
0000
,
3100
1000
0001
0000
,
1000
0010
1000
0000
,
0001
0010
0100
0000
,
1000
0010
0100
0000
,
0001
0010
0001
0000
,
0001
0010
0100
0000
,
0010
0001
0100
0000
,
0001
1000
0001
0000
,
0100
0010
1000
0000
,
0010
1000
0010
0000
,
0100
0010
0100
0000
,
0001
1000
0100
0000
,
0010
0001
0010
0000
,
0001
0100
0001
0000
,
1000
0010
0100
0000
,
0010
0100
0010
0100
,
0001
0000
0000
0000
0000
1000
0000
0000
,
0000
0000
0000
0000
0000
0010
0000
0000
,
0000
0000
0000
0000
0000
1000
0000
0000
,
0000
0000
0000
0000
0000
0100
0000
0000
,
0000
0000
0000
0000
0000
1000
0000
0000
,
0000
0000
0000
0000
0000
0010
0000
0000
,
0000
0000
0000
0000
0000
1000
0000
0000
,
0000
0000
0000
0000
0000
0001
0000
0000
,
1000
0010
1000
0010
,
1000
0001
1000
0001
,
2000
0000
0000
0000
,
3002
0000
1000
0000
,
0203
0000
0320
0000
,
0000
0030
1001
0000
,
0100
0000
0100
0000
,
0200
0000
0000
0000
,
0301
1000
0000
0100
,
0001
1000
0000
1000
,
0001
0101
1001
1001
,
0000
1000
0100
0010
,
0001
1000
0000
0100
,
0010
0010
0000
0001
,
0100
1100
0110
0110
,
0000
0100
0001
1000
,
0001
0001
0001
1000
,
0010
0100
0100
0100
,
0001
0001
0100
0100
,
0010
0010
1000
1000
,
0001
0000
0101
0101
,
0000
0001
0010
0100
,
1000
0000
1100
1100
,
1000
0001
2000
0010
,
3000
0000
0000
0000
;

//---------------dance-single - ----------------
#NOTES:
     dance-single:
     :
     Medium:
     10:
     0.358358,0.451531,0.275936,0.100340,0.000000,300.000000,267.000000,33.000000,12.000000,0.000000,0.000000,0.358358,0.451531,0.275936,0.100340,0.000000,300.000000,267.000000,33.000000,12.000000,0.000000,0.000000:
0000
0000
0000
0000
,
0000
0000
0000
0000
,
0000
0000
0000
0000
,
0000
0000
0000
0000
,
0000
0000
0000
0000
,
0000
0000
0000
0000
,
0000
0000
0000
0000
,
0000
0000
0002
0000
,
1003
0001
1000
0010
,
1000
0001
1000
0010
,
1000
0001
0010
0001
,
0010
0100
0010
0100
,
1000
0001
1000
0100
,
1000
0001
1000
0010
,
1000
0001
0010
0100
,
1000
0010
0100
0001
,
0100
0101
1000
0101
,
1000
0101
1000
0101
,
1000
0011
1000
0011
,
1000
0011
1000
0011
,
0001
0100
1000
0100
,
0001
0010
1000
0010
,
0001
0100
0001
0100
0001
0100
0001
0000
,
0001
1000
0001
1000
0001
1000
0001
0000
,
1000
0001
0101
1000
,
0001
1000
1100
0001
,
1000
0001
1001
0100
,
0010
1000
0110
0001
,
1000
0001
0101
0001
,
1000
0100
1001
0001
,
1000
0010
0110
0100
,
0001
0010
0011
1000
,
0010
1000
0001
0000
0010
0000
0010
0000
,
0001
0100
0010
1000
0001
0000
1000
0000
,
0001
0000
0010
0100
1000
0000
0001
0000
,
1000
0000
0100
0010
0001
0000
1000
0000
,
0001
0000
0100
0010
0100
0010
0100
0010
,
1000
0001
0001
1000
,
0001
0000
0100
0001
0100
0000
0010
1000
,
0010
1000
0010
0000
0200
0000
0000
0000
,
0301
0000
1000
0000
0001
0001
0000
0000
,
1000
0000
0010
0000
0100
0100
0000
0000
,
0001
0000
1000
0000
0001
0001
0000
0000
,
0100
0000
0001
0010
0100
1000
0000
0000
,
0100
0000
0010
0000
0100
0100
0000
0000
,
1000
0000
0001
0000
0100
0100
0000
0000
,
0010
0000
1000
0000
0001
0001
0000
0000
,
0001
0000
1000
0100
0010
0001
0000
0000
,
1000
0000
0001
0000
0100
0100
0000
0000
,
0010
0000
0100
0000
0010
0010
0000
0000
,
0200
0000
0000
0000
0010
0010
0000
0000
,
0302
0000
0000
0000
0100
0100
0000
0000
,
2003
0000
3002
0000
,
0000
0000
0003
0000
1001
1000
0000
0000
,
0020
0000
0000
0000
0100
0100
0030
0000
,
2002
0000
0000
3003
,
1000
1000
0001
0001
,
0100
0100
0010
0010
,
1000
1010
1001
1010
,
1000
0001
0100
0001
,
0010
0010
0100
0100
,
1000
1000
0001
0001
,
1000
0101
1001
0101
,
0001
0100
0001
1000
,
0100
0010
0100
0000
0101
0000
0101
0000
,
0001
0001
1000
1000
,
0010
0100
0010
0000
0011
0000
0011
0000
,
1000
1000
0001
0001
,
0200
0000
0300
0000
0100
0100
0110
0000
,
0000
0101
1100
0101
,
0002
0000
0003
0000
0001
0001
1001
0000
,
0100
0010
0100
0010
0200
0000
0000
0000
,
0300
0000
0000
0000
;

//---------------dance-single - ----------------
#NOTES:
     dance-single:
     :
     Hard:
     13:
     0.524398,0.692348,0.359553,0.091979,0.255032,439.000000,396.000000,43.000000,11.000000,0.000000,0.000000,0.524398,0.692348,0.359553,0.091979,0.255032,439.000000,396.000000,43.000000,11.000000,0.000000,0.000000:
// measure 0
0000
0000
0000
0000
,  // measure 1
0000
0000
0000
0000
,  // measure 2
0000
0000
0000
0000
,  // measure 3
0000
0000
0000
0000
,  // measure 4
0000
0000
0000
0000
,  // measure 5
0000
0000
0000
0000
,  // measure 6
0000
0000
0000
0000
,  // measure 7
0000
0000
0000
0000
2002
0000
0000
3003
,  // measure 8
1000
1000
0001
1000
0100
0000
1000
0000
,  // measure 9
0001
0000
1000
0000
0010
0000
1000
1000
,  // measure 10
0001
1000
0001
0000
0100
0000
0001
0000
,  // measure 11
1000
1000
0100
0000
0010
0000
0001
0000
,  // measure 12
0100
0100
0001
0100
0010
0000
1000
0000
,  // measure 13
0001
0000
0100
0000
0001
0000
1000
0001
,  // measure 14
0001
0100
0001
0000
0100
0000
0010
0000
,  // measure 15
1000
1000
0001
0000
0010
0000
0100
0000
,  // measure 16
1000
0100
0000
0000
0101
0000
0000
0000
0010
0100
0000
0000
0101
0000
0000
0000
,  // measure 17
1000
0100
0000
0000
1010
0000
0000
0000
0001
0100
0000
0000
1010
0000
0000
0000
,  // measure 18
0001
0010
0000
0000
1100
0000
0000
0000
0001
0100
0000
0000
1100
0000
0000
0000
,  // measure 19
1000
0100
0000
0000
0011
0000
0000
0000
1000
0010
0000
0000
0011
0000
0000
0000
,  // measure 20
0001
0010
0000
0000
1001
0000
0000
0000
1000
0010
0000
0000
1001
0000
0000
0000
,  // measure 21
0100
0010
0000
0000
1001
0000
0000
0000
0001
0010
0000
0000
1001
0000
0000
0000
,  // measure 22
1000
0001
0000
0000
0110
0000
0000
0000
0010
1000
0000
0000
0110
0000
0000
0000
,  // measure 23
0100
0010
0000
0000
0110
0000
0000
0000
0001
0100
0000
0000
0110
0000
0000
0000
,  // measure 24
1000
0000
0000
0000
0001
0000
0100
0000
0001
0000
1000
0001
1000
0000
0000
0000
,  // measure 25
0001
0000
0000
0000
1000
0000
0100
0000
0010
0000
0100
0010
0100
0000
0000
0000
,  // measure 26
1000
0000
0000
0000
0001
0000
0100
0000
0001
0000
1000
0001
1000
0000
0000
0000
,  // measure 27
0010
0000
0000
0000
0100
0000
0010
0000
0100
0000
0010
1000
0010
0000
0000
0000
,  // measure 28
1000
0000
0000
0000
0001
0000
1000
0000
0001
0000
1000
0001
1000
0000
0000
0000
,  // measure 29
0001
0000
0000
0000
0100
0000
0010
0000
0100
0000
0001
0010
0001
0000
0000
0000
,  // measure 30
0010
0000
0000
0000
0100
0000
1000
0000
0100
0000
0010
0001
0010
0000
0000
0000
,  // measure 31
1000
0000
0000
0000
0001
0000
0010
0000
0001
0000
1000
0001
1000
0000
0000
0000
,  // measure 32
0010
0000
0000
0000
1000
0000
0010
0000
1000
0000
0100
0010
0100
0000
0000
0000
,  // measure 33
1000
0000
0000
0000
0001
0000
0010
0000
0100
0000
1000
0001
1000
0000
0000
0000
,  // measure 34
0001
0000
0000
0000
0100
0000
0001
0000
0010
0000
0001
1000
0001
0000
0000
0000
,  // measure 35
1000
0000
0000
0000
0010
0000
1000
0000
0100
0000
0010
0001
0010
0000
0000
0010
,  // measure 36
1000
0000
0000
0000
0010
0000
0100
0000
0001
0000
1000
0001
1000
0000
0000
0000
,  // measure 37
0011
0000
0000
0000
1000
0000
0100
0000
0010
0000
0001
1000
0001
0000
0000
0001
,  // measure 38
1000
0000
0000
0000
0100
0000
0010
0000
0001
0000
0100
0010
0100
0000
0000
0000
,  // measure 39
1001
0000
0000
0000
0001
0000
1100
0000
0001
0000
0100
0010
0000
0000
1001
0000
,  // measure 40
0000
0000
0000
0000
1000
0000
0001
0000
1000
0000
0010
0100
0000
0000
0001
0000
,  // measure 41
0000
0000
0000
0000
1000
0000
0001
0000
1000
0000
0010
0100
0000
0000
0001
0000
,  // measure 42
0000
0000
0000
0000
0001
0000
0010
0000
0001
0000
1000
0100
0000
0000
1000
0000
,  // measure 43
0000
0000
0000
0000
0001
0000
0100
0000
0001
0000
1000
0100
0000
0000
0010
0000
,  // measure 44
0000
0000
0000
0000
0001
0000
1000
0000
0100
0000
1000
0001
0000
0000
0100
0000
,  // measure 45
0000
0000
0000
0000
0010
0000
1000
0000
0001
0000
0100
0010
0000
0000
1000
0000
,  // measure 46
0000
0000
0000
0000
0001
0000
0010
0000
0100
0000
1000
0001
0000
0000
1000
0000
,  // measure 47
0000
0000
0000
0000
0010
0000
1000
0000
0001
0000
0010
0100
0000
0000
1000
0000
,  // measure 48
0001
0000
1000
0000
0010
0000
0100
0010
0000
0000
1000
0001
0000
0000
1000
0000
,  // measure 49
0000
0000
0001
0000
0100
0000
0001
0010
0000
0000
0001
1000
0000
0000
0001
0000
,  // measure 50
0200
0010
0010
0000
,  // measure 51
0302
0000
1000
0000
1000
0000
0103
0100
,  // measure 52
0020
0000
2030
0000
,  // measure 53
0000
0000
3010
0010
0220
0000
0000
0000
,  // measure 54
0330
0000
0000
0000
1000
0000
0001
0000
1000
0000
0010
0100
0000
0000
0010
0000
,  // measure 55
0200
0000
0000
0000
0020
0000
0000
0330
,  // measure 56
0001
0000
0100
0000
0001
0000
1000
0100
0000
0000
1000
0000
0001
0000
0000
0000
,  // measure 57
0100
0000
0001
0000
0010
0000
0100
0010
0000
0000
0001
0000
1000
0000
0001
0000
,  // measure 58
1000
0000
0010
0000
0000
0000
1000
0000
0000
0001
0000
0000
0000
0000
0110
0000
,  // measure 59
0000
0000
1000
0100
0001
0100
1000
0000
,  // measure 60
0001
0000
1000
0000
0100
0000
0001
0010
0000
0000
0001
0000
1000
0000
0000
0000
,  // measure 61
0001
0000
1000
0000
0100
0000
1000
0010
0000
0000
1000
0000
0001
0000
1000
0000
,  // measure 62
0100
0000
0010
0000
0000
0000
0001
0000
0000
1000
0000
0000
0000
0000
0110
0000
,  // measure 63
0000
0000
1000
0010
0001
0010
1000
0000
,  // measure 64
0001
1000
0000
0000
1010
0000
0000
0000
0001
0010
0001
0000
1001
0000
0000
0000
,  // measure 65
0100
0001
0000
0000
0001
0000
1001
0000
0001
0000
0101
0000
0001
0000
1001
0000
,  // measure 66
0100
0010
0000
0000
1100
0000
0000
0000
0001
0100
0001
0000
0011
0000
0000
0000
,  // measure 67
1000
0010
0000
0000
1000
0000
1100
0000
1000
0000
1001
0000
1000
0000
1100
0000
,  // measure 68
1000
0000
0000
0000
0001
0000
0001
0000
1001
0000
1001
0000
0110
0000
0000
0010
,  // measure 69
0100
0001
1000
0011
0010
1010
0010
0011
,  // measure 70
1000
0000
0000
0000
0010
0000
0010
0000
0110
0000
0110
0000
1001
0000
0000
0001
,  // measure 71
1000
0001
1000
0001
2000
0000
0000
0000
,  // measure 72
3000
0000
0000
0000
;
