#TITLE:POLꞰAMAИIA;
#SUBTITLE:;
#ARTIST:かめりあ feat. ななひら;
#TITLETRANSLIT:POLKAMANIA;
#SUBTITLETRANSLIT:;
#ARTISTTRANSLIT:Camellia feat. Nanahira;
#GENRE:;
#CREDIT:;
#BANNER:POLKAMANIA.png;
#BACKGROUND:POLKAMANIA-bg.png;
#LYRICSPATH:;
#CDTITLE:;
#MUSIC:POLKAMANIA.ogg;
#OFFSET:-0.001000;
#SAMPLESTART:51.738007;
#SAMPLELENGTH:12.375000;
#SELECTABLE:YES;
#BPMS:0.000000=160.000000
,4.500000=80.000000
,5.500000=160.000000
,198.500000=80.000000
,199.500000=160.000000
,233.000000=80.000000
,237.000000=160.000000
;
#STOPS:5.500000=0.375000
;
#BGCHANGES:0.000=POLKAMANIA.avi=1.000=0=0=1=====,
300.000=POLKAMANIA-bg.png=1.000=1=0=1===CrossFade==,
99999=-nosongbg-=1.000=0=0=0 // don't automatically add -songbackground-
;
#KEYSOUNDS:;
#ATTACKS:;

//---------------dance-single - ----------------
#NOTES:
     dance-single:
     :
     Hard:
     17:
     0.859923,1.058108,0.675479,0.350565,0.760983,704.000000,625.000000,79.000000,41.000000,0.000000,0.000000,0.859923,1.058108,0.675479,0.350565,0.760983,704.000000,625.000000,79.000000,41.000000,0.000000,0.000000:
// measure 0
0000
0000
0000
0000
,  // measure 1
0000
0000
0000
0000
,  // measure 2
2001
3010
1002
0013
,  // measure 3
2001
3010
1002
0013
,  // measure 4
2001
3010
1002
0013
,  // measure 5
2001
0000
3010
0000
2001
0100
3100
0000
,  // measure 6
1002
0013
2001
3010
,  // measure 7
1002
0013
2001
3010
,  // measure 8
1002
0013
2001
3010
,  // measure 9
1001
0000
0000
0000
0110
0000
0000
0000
1001
0000
0000
1001
0000
0000
1001
0000
,  // measure 10
0001
0100
0200
0300
0100
0100
0001
0200
,  // measure 11
0000
0310
0100
0001
0100
0001
1000
0000
,  // measure 12
0000
0010
0020
0030
0010
0010
1000
0020
,  // measure 13
0000
1030
1000
1000
0100
0010
0001
0000
,  // measure 14
1000
0100
1000
0100
0010
0001
0010
0001
,  // measure 15
0100
0001
0001
1000
0001
0010
0100
0000
,  // measure 16
0010
0001
0010
0001
1000
0100
1000
0100
1000
0010
1000
0010
0100
0001
0100
0001
,  // measure 17
0010
0100
0100
0100
0010
0100
0110
0000
,  // measure 18
2001
0000
0000
0000
3010
1000
0100
0000
0010
0001
0100
0000
0010
1000
0100
0000
,  // measure 19
0010
0000
0100
0010
0100
1000
0001
1000
0001
0100
0000
0001
0100
0000
0010
0000
,  // measure 20
1002
0000
0000
0000
1003
0100
0010
0000
0100
1000
0010
0000
0100
0001
0010
0000
,  // measure 21
0100
0010
0001
0010
0100
0000
0100
0000
,  // measure 22
2001
0000
0000
0000
3100
0010
0001
0000
0010
0001
1000
0000
0100
0010
0001
1000
,  // measure 23
0001
0000
0100
0010
0100
0010
0100
0000
0100
0010
0000
0010
1000
0000
0100
0000
,  // measure 24
1002
0000
0000
0000
1003
0100
1000
0100
0010
0100
1000
0100
1000
0010
1000
0010
,  // measure 25
0100
1000
0100
0001
0101
0000
1100
0000
,  // measure 26
1001
0000
0000
0000
1000
0010
1000
0010
1000
0010
1000
0010
1000
0010
1000
0010
,  // measure 27
0100
0000
0010
0100
0001
0010
0100
1000
0010
0100
0010
1000
0001
0010
0100
1000
,  // measure 28
0001
0000
0001
0000
0010
0100
0010
0100
0010
0100
0010
0100
0010
0100
0010
0100
,  // measure 29
1000
0000
0000
0100
0000
0000
0010
0000
0000
0001
0000
0000
0100
0000
0010
0000
1000
0000
0100
0000
0010
0000
0001
0000
,  // measure 30
1001
0000
0000
0000
0001
0010
0001
0010
0001
0010
0001
0010
0001
0010
0001
0010
,  // measure 31
0001
0000
1000
0001
0010
0001
1000
0100
1000
0100
0010
0100
1000
0001
0010
0100
,  // measure 32
1000
0000
1000
0000
1000
0000
1000
0000
1000
0001
1000
0001
1000
0001
1000
0001
,  // measure 33
0020
0000
0000
0000
0000
0130
0010
0001
,  // measure 34
1001
0001
1001
1000
1001
0001
0010
0100
,  // measure 35
0000
0000
0010
0000
0001
0100
0000
0010
0000
0000
0100
0000
0010
1000
0000
0001
,  // measure 36
0000
1000
0100
0010
0100
1000
0010
0100
,  // measure 37
0000
0010
1000
0001
0010
0011
1100
0000
,  // measure 38
1001
1000
1001
0001
1001
1000
0100
0010
,  // measure 39
0000
0000
0100
0000
0010
0100
0000
1000
0000
0000
0010
0000
0100
0001
0000
0010
,  // measure 40
0100
0000
0100
0000
0010
0001
0000
1000
0001
0000
0001
0000
1000
0001
0000
0100
,  // measure 41
0020
1030
0200
0310
,  // measure 42
1002
0013
2001
3010
,  // measure 43
1002
0000
0013
0000
2001
0010
3010
0000
,  // measure 44
1001
0000
1000
0001
0010
0000
0100
0000
0011
0000
0001
0100
0010
0000
1000
0000
,  // measure 45
0101
0000
0100
0010
1000
0000
0001
0000
0011
0000
0010
0000
0001
0100
0000
0001
,  // measure 46
2001
3010
1002
0013
,  // measure 47
2001
0000
3010
0000
1002
0010
0013
0000
,  // measure 48
1100
0000
1000
0000
0100
0000
0010
0000
0100
0000
0100
0010
0000
0000
0000
0000
,  // measure 49
0000
0000
0100
0000
1000
0000
0010
0100
0000
0000
0202
0000
0000
0000
0000
0000
,  // measure 50
0303
0000
0000
0000
1010
0000
0000
1010
0000
0000
1010
0000
0000
1010
0000
0000
,  // measure 51
1001
0000
0000
0000
0011
0000
0000
0011
0000
0000
0011
0000
0000
0011
0000
0000
,  // measure 52
1001
0000
0000
0000
1100
0000
0000
1100
0000
0000
1100
0000
0000
1100
0000
0000
,  // measure 53
1001
0000
0000
0000
0101
0000
0000
0101
0000
0000
0101
0000
0000
0101
0000
0000
,  // measure 54
1001
0000
0001
0100
0200
0301
0010
0010
,  // measure 55
0100
0020
0031
0010
1000
0010
0001
0100
,  // measure 56
0010
0000
0100
0001
0002
0103
0001
0001
,  // measure 57
0100
0002
1003
0001
0001
0001
0010
0100
,  // measure 58
1000
0000
1001
0010
0010
0010
0110
1001
,  // measure 59
0110
0000
1001
0000
0110
0000
0000
0000
0001
0100
0010
0000
0100
0001
0010
0000
,  // measure 60
0100
0010
0001
1000
0100
0000
0010
0001
0100
0000
0010
0000
1000
0010
0000
1000
,  // measure 61
0001
0010
0000
0100
0010
0000
0010
0000
0010
0001
0100
0000
0001
0100
0010
0000
,  // measure 62
0100
0001
1000
0100
0010
0000
0001
0000
0010
0100
1000
0001
0100
0000
0000
0000
,  // measure 63
0100
0000
0000
0000
1001
0000
0000
0000
1000
0001
0010
0000
0100
0010
0001
0000
,  // measure 64
0010
0100
1000
0000
0001
0000
0010
0100
1000
0010
0100
0001
1000
0000
0000
0001
,  // measure 65
0010
0100
0000
0100
1000
0000
1000
0001
0000
1000
0001
1000
0001
0000
1000
0001
,  // measure 66
0000
1000
0001
1000
0001
0000
1000
0000
0010
0000
0100
0000
0001
0000
1000
0000
,  // measure 67
0100
0000
0000
0000
1002
0000
0000
0000
1003
0100
0010
0001
1000
0100
0010
0001
,  // measure 68
1000
0100
0010
0001
2000
0000
3001
0010
0100
1000
0001
0010
0100
1000
0001
0010
,  // measure 69
0100
0000
0000
1000
0000
0000
0001
0000
0000
0010
0000
0000
0100
0000
0000
1000
0000
0000
0001
0000
1000
0000
0001
0000
1000
0000
0000
0000
0000
0000
0000
0000
0000
1000
0000
0000
0010
0000
0000
0100
0000
0000
0000
0000
0000
0100
0000
0000
,  // measure 70
0001
0000
0000
0000
0000
0000
0001
0000
0000
0000
0000
0000
0001
0000
0000
0000
0000
0000
0001
0000
0000
0000
0000
0000
1000
0000
0000
0000
0000
0000
0000
0000
0000
0001
0000
0000
0010
0000
0000
0100
0000
0000
1000
0000
0001
0000
1000
0000
,  // measure 71
0001
0010
0001
0100
0010
0000
0000
0000
0100
0010
1000
0001
0100
0010
1000
0001
,  // measure 72
0100
0010
1000
0001
1000
0000
0001
0000
1000
0010
0100
0001
1000
0010
0100
0001
,  // measure 73
1000
0000
0000
0010
0000
0000
0100
0000
0000
0001
0000
0000
1000
0000
0000
0100
0000
0000
0000
0000
0000
0100
0000
0000
0010
0000
0000
0000
0000
0000
0010
0000
0001
0000
0010
0000
0001
0000
0000
0000
0000
0000
0010
0000
0000
0100
0000
0000
,  // measure 74
0000
0100
0010
0000
0100
1000
0010
0100
0001
0010
0100
1000
0010
0000
0100
0000
,  // measure 75
1001
0000
0000
0000
;

//---------------dance-single - ----------------
#NOTES:
     dance-single:
     :
     Medium:
     13:
     0.637613,0.737469,0.572875,0.350565,0.218034,522.000000,455.000000,67.000000,41.000000,0.000000,0.000000,0.637613,0.737469,0.572875,0.350565,0.218034,522.000000,455.000000,67.000000,41.000000,0.000000,0.000000:
0000
0000
0000
0000
,
0000
0000
0000
0000
,
1002
0013
2001
3010
,
1002
0013
2001
3010
,
1002
0013
2001
3010
,
1002
0000
0013
0000
1002
0010
0013
0000
,
2001
3010
1002
0013
,
2001
3010
1002
0013
,
2001
3010
1002
0013
,
1001
0000
0000
0000
0110
0000
0000
0000
1001
0000
0000
0001
0000
0000
0010
0000
,
0100
1000
1000
0000
1000
1000
0001
1000
,
0000
0100
0010
0100
1000
0001
0100
0000
,
0000
0010
0010
0000
0010
0010
0100
0010
,
0000
0100
0100
0100
0010
1000
0001
0000
,
1000
0100
1000
0100
0010
0001
0010
0001
,
0100
0001
0100
0001
1000
0010
1000
0010
,
0100
0001
0001
0010
1000
1000
0010
1000
,
0010
0001
0001
0001
1000
0010
1001
0000
,
0201
0310
0010
0010
,
1000
0000
0000
0000
0100
0000
0010
0100
0000
0100
1000
0000
0001
0000
1000
0000
,
0010
1000
0010
0001
,
0010
0100
0010
1000
1001
0000
0110
0000
,
1001
0001
0001
0001
,
0010
0000
0000
0000
0100
0000
1000
0001
0000
0100
0010
0000
1000
0000
0100
0000
,
0010
0200
0320
0032
,
0103
0010
1000
0001
0020
0000
0230
0000
,
1300
0000
0001
0001
1000
1000
0001
0001
,
0000
1000
0010
0100
0010
1000
0001
0010
,
0000
0000
0100
0100
0010
0010
0100
0100
,
0010
0000
0000
0001
0000
0000
0100
0000
0000
0010
0000
0000
1000
0000
0010
0000
0100
0000
0001
0000
0010
0000
0100
0000
,
0010
0000
0100
0100
1000
1000
0010
0010
,
0000
0100
0010
1000
0001
0010
0100
1000
,
0001
0000
1000
0000
0010
0000
0100
0000
0001
1000
0001
1000
0001
1000
0001
1000
,
0001
0000
0000
0000
0000
1000
0010
0100
,
0001
1000
0001
1000
0010
0100
0001
0010
,
0000
0000
0100
0000
0010
0001
0000
0100
0000
0000
0010
0000
1000
0100
0000
0010
,
0000
0100
0010
0001
0100
0001
1000
0100
,
0000
1000
0010
0100
0001
0010
1001
0000
,
1000
0001
1000
0001
0100
0001
0010
0100
,
0000
0000
0010
0000
0001
0100
0000
0010
0000
0000
0100
0000
0010
1000
0000
0100
,
0000
0000
0010
0000
0100
1000
0000
0010
0100
0000
0010
0000
0100
0001
0000
1000
,
0001
0010
0100
1000
0100
0010
0100
1000
,
2001
3010
1002
0013
,
2001
3010
1002
0013
,
1002
0000
0103
0001
0020
0000
0130
1000
,
0002
0000
0000
0000
1003
0000
0010
0000
0100
0010
0000
1000
0100
0000
1000
0000
,
1002
0013
2001
3010
,
1002
0013
2001
3010
,
1000
0000
0010
0000
1000
0000
0100
0000
1000
0000
0001
0010
0000
0000
0000
0000
,
0000
0000
0100
0000
0010
0000
0001
0100
0000
0000
2020
0000
0000
0000
0000
0000
,
3030
0000
0000
0000
0001
0000
0000
1000
0000
0000
0100
0000
0000
0010
0000
0000
,
0011
0000
0000
0000
0001
0000
0000
0010
0000
0000
0100
0000
0000
0010
0000
0000
,
0110
0000
0000
0000
0100
0000
0000
1000
0000
0000
0010
0000
0000
0100
0000
0000
,
0101
0000
0000
0000
0001
0000
0000
1000
0000
0000
0100
0000
0000
0010
0000
0000
,
0011
0000
0000
1000
2000
3000
1000
2000
,
3001
2000
0000
3100
0010
0100
1000
0010
,
0200
0000
0300
0001
0002
0003
0001
0002
,
1003
0002
0000
0013
0010
0010
0100
1000
,
0010
0000
1001
1000
1000
1000
1100
0011
,
0101
1010
1001
0000
1010
0000
1001
0000
,
0011
0000
0000
0000
0110
0000
0000
0000
1100
0000
0000
0000
0110
0000
0000
0010
,
0000
0001
0101
0100
0110
0000
1001
0000
,
1010
0000
0001
0100
0010
1000
1100
0000
,
1100
1001
1010
0101
,
0011
0000
0000
0000
0110
0000
0000
0100
0000
0000
1000
0000
1010
0000
0000
0010
,
0000
0000
0100
0000
0110
0000
0100
0010
0000
0010
0100
0000
0001
0000
1000
0001
,
0000
0001
1000
0000
0100
0000
0001
0000
0100
0000
1000
0000
0002
0000
0000
0000
,
0003
0000
0110
0000
1000
0100
0010
0001
,
1000
0100
0000
0010
0100
1000
0001
0010
,
0100
0000
1000
0000
0010
0000
0010
0000
0010
0000
0000
0100
0010
0100
0000
0010
,
0100
0010
1000
0100
1000
0001
0101
0000
,
0101
0000
0011
0000
0001
0100
0010
1000
,
0001
0100
0000
0010
0100
0001
1000
0010
,
0100
0000
0001
0000
1000
0100
0000
0010
0001
0000
0100
0000
0010
0100
0000
0001
,
1000
0001
1000
0100
0010
0001
1000
0001
,
0110
0000
0000
0000
;

//---------------dance-single - ----------------
#NOTES:
     dance-single:
     :
     Easy:
     9:
     0.445841,0.577150,0.701130,0.222310,0.000000,365.000000,283.000000,82.000000,26.000000,0.000000,0.000000,0.445841,0.577150,0.701130,0.222310,0.000000,365.000000,283.000000,82.000000,26.000000,0.000000,0.000000:
0000
0000
0000
0000
,
0000
0000
0000
0000
,
1002
0013
2001
3010
,
1002
0013
2001
3010
,
1002
0013
2001
3010
,
1002
0000
0013
0000
0001
1000
0001
0000
,
1002
0013
2001
3010
,
1002
0013
2001
3010
,
1002
0013
2001
3010
,
1001
0110
1001
0110
,
0001
0100
0010
1000
,
0000
0000
0001
0000
1000
0100
0020
0000
,
0030
0100
0010
0001
,
0000
1000
0010
1000
0010
0100
0002
0000
,
0103
0001
0010
0010
,
0100
0000
1000
0000
0100
0010
0200
0000
,
0310
0001
1000
1000
,
0000
0001
0010
0100
0010
0001
1000
0000
,
1001
0010
0010
0010
,
1000
0010
1000
0100
,
0110
0010
0010
0010
,
0100
0010
0011
0011
,
1001
0001
0001
0001
,
1000
0001
0100
0010
,
1000
0020
0230
0320
,
0130
0010
1000
0001
,
0000
1100
0000
0101
,
0000
1100
0000
0101
,
0000
1010
0000
0011
,
0000
1000
0101
0101
,
0001
1010
0000
0011
,
0000
1100
0000
0101
,
0001
0000
0100
0000
0010
0100
0010
0100
,
0020
0000
0000
1030
,
0001
0001
1000
0001
,
0010
0001
0100
0010
,
1000
0100
0001
0100
,
1000
0000
1000
0000
0001
1000
0010
0000
,
1000
1000
0010
1000
,
0001
0010
0001
0100
,
0110
0100
0110
0010
,
0110
0010
0100
0001
,
1000
0000
1000
0000
,
1000
0000
1000
0000
,
1001
0010
1001
0100
,
0001
0100
0010
1000
,
0001
0000
0001
0000
,
0001
0000
0001
0000
,
1000
0001
0100
0010
,
1000
0000
0010
0000
0000
0202
0000
0000
,
0303
0000
0001
0000
1000
0000
0100
1000
,
0100
0000
1000
0000
0010
0000
0100
0010
,
0100
0000
0010
0000
1000
0000
0001
0100
,
0001
0000
0100
0000
0010
0000
1000
0010
,
1000
0010
0001
0010
,
1000
0000
0100
0000
0001
0000
0100
1000
,
0010
0100
0001
1000
,
0100
0000
0000
0010
0100
1000
0010
0100
,
0001
0000
1001
0000
0000
0000
2000
3200
,
0320
0032
1003
0000
0101
0000
0101
0000
,
0101
1010
0101
0101
,
0101
1001
1100
1100
,
1100
1000
0100
0110
,
0110
1001
0011
0011
,
0011
1001
1010
1010
,
1010
1001
0110
1001
,
0110
0001
0100
0010
,
1000
0001
1100
0000
,
0110
0000
1001
0000
,
0110
0000
1000
0001
1001
0000
0000
0000
,
1100
0000
0000
1000
0100
0010
0011
0000
,
0011
0000
1100
0000
,
0011
0000
0101
0000
,
1010
1001
0110
1001
,
1010
0000
0000
0001
0010
0100
1000
0010
,
0100
0000
0000
0000
;

//---------------dance-single - ----------------
#NOTES:
     dance-single:
     :
     Beginner:
     6:
     0.227196,0.352703,0.111155,0.008550,0.000000,186.000000,173.000000,13.000000,1.000000,0.000000,0.000000,0.227196,0.352703,0.111155,0.008550,0.000000,186.000000,173.000000,13.000000,1.000000,0.000000,0.000000:
0000
0000
0000
0000
,
0000
0000
0000
0000
,
1000
0000
1000
0000
,
1000
0000
1000
0000
,
0001
0000
0001
0000
,
0001
0000
0001
1000
,
0001
0000
0001
0000
,
0001
0000
0001
0000
,
1000
0000
1000
0000
,
0110
0000
1001
0000
,
1000
0000
1000
1000
,
0000
0000
0000
0000
,
0001
0000
0001
0001
,
0000
0000
0000
0000
,
0100
0000
0100
0100
,
0000
0000
0000
0000
,
0010
0000
0010
0010
,
0100
0000
0000
0000
,
1001
0000
1000
0000
,
0001
0000
1000
0000
,
0010
0000
1000
0000
,
0100
1000
0010
0010
,
0100
0000
0010
0000
,
1000
0000
0001
0000
,
0010
0000
0001
0000
,
0100
0010
1000
0001
,
0000
1000
0000
1000
,
0000
0001
0000
0001
,
0000
0100
0000
0100
,
0010
1000
0001
0001
,
0010
0100
0000
0100
,
0000
0010
0000
0010
,
0010
0010
0010
0010
,
0200
0000
0000
0300
,
1001
0000
1000
0000
,
0001
0000
0100
0000
,
0001
0000
0010
0000
,
0001
0001
0001
0000
,
1000
0000
0001
0000
,
0100
0000
0010
0000
,
1000
0000
0100
0000
,
0010
0000
0000
0000
,
0100
0000
0100
0000
,
0100
0000
0000
0000
,
1001
0000
0110
0000
,
1001
0000
0110
0000
,
0001
0000
0001
0000
,
0001
0000
0001
0000
,
1001
0000
0010
0000
,
1001
0000
0000
0000
0000
0100
0000
0000
,
0000
0010
0000
0010
,
0010
0000
0000
0000
,
0000
1000
0000
1000
,
1000
0000
0000
0000
,
0000
0001
0000
0001
,
0001
0000
0000
0000
,
0000
0010
0000
0010
,
0010
0100
0000
0000
,
0000
0000
1001
0000
0000
0000
1000
0010
,
0100
0001
1000
0000
1000
0000
1000
0000
,
1000
0001
0001
0001
,
0001
1000
1000
1000
,
1000
0001
1000
0010
,
0010
0100
0010
0010
,
0010
0100
0010
0100
,
0010
0100
0100
0010
,
0010
0100
0010
1000
,
0001
1001
0001
0000
,
0001
0000
1000
0000
,
1000
0000
0010
0000
,
0010
0100
0010
1000
,
1000
0001
0010
0000
,
0010
0000
0100
0000
,
0100
1000
0000
0100
,
0000
0010
0001
1000
,
1001
0000
0000
0000
;
