#VERSION:0.83;
#TITLE:PLAYBALL;
#SUBTITLE:;
#ARTIST:KASAI HARCORES;
#TITLETRANSLIT:;
#SUBTITLETRANSLIT:;
#ARTISTTRANSLIT:;
#GENRE:;
#ORIGIN:;
#CREDIT:;
#BANNER:playball.png;
#BACKGROUND:playball-bg.png;
#PREVIEWVID:;
#JACKET:playball-jacket.png;
#CDIMAGE:;
#DISCIMAGE:;
#LYRICSPATH:;
#CDTITLE:cdtitle.png;
#MUSIC:PLAYBALL.ogg;
#OFFSET:0.006000;
#SAMPLESTART:67.743866;
#SAMPLELENGTH:16.941177;
#SELECTABLE:YES;
#BPMS:0.000=170.000,
128.000=85.000,
144.000=170.000;
#STOPS:;
#DELAYS:;
#WARPS:;
#TIMESIGNATURES:0.000=4=4;
#TICKCOUNTS:0.000=4;
#COMBOS:0.000=1;
#SPEEDS:0.000=1.000=0.000=0;
#SCROLLS:0.000=1.000;
#FAKES:;
#LABELS:0.000=Song Start;
#BGCHANGES:;
#KEYSOUNDS:;
#ATTACKS:
;

//---------------dance-single - ----------------
#NOTEDATA:;
#CHARTNAME:;
#STEPSTYPE:dance-single;
#DESCRIPTION:;
#CHARTSTYLE:;
#DIFFICULTY:Hard;
#METER:12;
#RADARVALUES:0.540227,0.597900,0.178859,0.170342,0.085171,444.000000,423.000000,21.000000,20.000000,0.000000,0.000000,0.000000,0.000000,0.000000,0.540227,0.597900,0.178859,0.170342,0.085171,444.000000,423.000000,21.000000,20.000000,0.000000,0.000000,0.000000,0.000000,0.000000;
#CREDIT:Pandemonium X;
#NOTES:
// measure 0
0000
0000
0000
0000
,  // measure 1
0000
0000
0000
0000
,  // measure 2
0000
0000
0000
0000
,  // measure 3
0000
0000
0000
0000
,  // measure 4
1000
0001
0100
0000
0010
1000
0100
0000
,  // measure 5
0010
0100
1000
0000
0010
0001
0100
0000
,  // measure 6
0010
1000
0010
0001
0010
1000
0001
0010
,  // measure 7
0220
0300
0030
0000
,  // measure 8
1000
0000
0001
0000
0010
0100
0000
0010
,  // measure 9
0000
0001
0100
0001
0000
0100
0010
1000
,  // measure 10
0001
0000
0010
0000
0100
0010
0000
0100
,  // measure 11
0000
1000
0001
0100
0000
0010
1000
0100
,  // measure 12
0010
0000
0100
0000
1000
0001
0000
0010
,  // measure 13
0000
0100
1000
0100
0000
1000
0100
0010
,  // measure 14
0100
0000
0010
0000
0001
0100
0000
0010
,  // measure 15
0000
0100
0001
0010
0100
1000
0100
0010
,  // measure 16
0001
0000
0100
0000
0010
1000
0000
0100
,  // measure 17
0000
0010
0100
0010
0000
0100
1000
0010
,  // measure 18
0100
0000
0010
0000
1000
0001
0000
0010
,  // measure 19
0100
0010
0001
0010
0000
0100
0010
0001
,  // measure 20
1000
0000
0010
0000
0100
0010
0000
1000
,  // measure 21
0000
0100
1000
0100
0000
0010
0100
1000
,  // measure 22
0001
0000
0100
0000
0010
1000
0000
0001
,  // measure 23
1000
0100
0010
0001
0010
1000
0010
0001
,  // measure 24
1000
1000
0001
0001
,  // measure 25
1000
1000
0001
0001
,  // measure 26
1000
0000
1000
0000
0010
0000
0010
0100
,  // measure 27
0000
0100
0010
1000
0000
1000
0001
0010
,  // measure 28
0100
0100
1000
1000
,  // measure 29
0010
0010
1000
1000
,  // measure 30
0100
0000
0010
0000
0100
0010
0000
0100
,  // measure 31
0000
0010
0001
0100
0010
1000
0001
0010
,  // measure 32
0001
0001
0101
0000
0100
0100
1100
0000
,  // measure 33
1000
1000
1100
0000
0001
0001
0101
0000
,  // measure 34
0001
1000
0110
0000
1000
0001
0110
0000
,  // measure 35
1000
0001
0110
0000
0020
0000
0000
0000
,  // measure 36
2030
3100
2000
3001
,  // measure 37
1000
0001
0010
0000
0100
0000
0010
0000
,  // measure 38
0002
0013
0002
1003
,  // measure 39
0002
0000
0103
0000
0001
0010
0100
1000
,  // measure 40
0200
0310
0200
1300
,  // measure 41
0200
0310
0200
1300
,  // measure 42
0200
1300
0020
1030
,  // measure 43
2002
3000
0003
0000
,  // measure 44
1000
0000
0000
0010
0000
0000
1000
0000
0100
0000
0000
0010
0000
0000
0100
0000
,  // measure 45
1000
0010
0100
0001
1000
0100
0001
0100
,  // measure 46
1000
0000
0000
0100
0000
0000
1000
0000
0010
0000
0000
1000
0000
0000
0001
0000
,  // measure 47
0010
0000
0000
0010
0000
0000
0100
0000
1000
0000
0100
0000
0010
0000
0001
0000
,  // measure 48
0010
0000
0000
0001
0000
0000
0100
0000
0010
0000
0000
1000
0000
0000
0001
0000
,  // measure 49
0010
0100
0010
0001
1000
0100
0001
0100
,  // measure 50
1000
0000
0000
0100
0000
0000
1000
0000
0100
0000
0000
0010
0000
0000
0100
0000
,  // measure 51
1000
0000
0100
0000
0001
0000
0100
0000
1000
0000
0010
1000
0010
0000
0100
0000
,  // measure 52
0001
0000
0000
0010
0000
0000
0001
0000
0100
0000
0000
0010
0000
0000
0100
0000
,  // measure 53
0010
0100
0001
1000
0001
0100
1000
0100
,  // measure 54
0001
0000
0000
1000
0000
0000
0100
0000
0010
0000
0000
0100
0000
0000
1000
0000
,  // measure 55
0100
0000
0000
0100
0000
0000
0010
0000
0100
0000
1000
0000
0100
0000
0010
0000
,  // measure 56
0001
0000
0000
0010
0000
0000
0001
0000
0100
0000
0000
0010
0000
0000
0100
0000
,  // measure 57
0001
1000
0100
0010
0001
0010
1000
0010
,  // measure 58
0001
0000
0000
0010
0000
0000
0001
0000
0100
0000
0000
0010
0000
0000
0100
0000
,  // measure 59
0001
0000
0010
0000
1000
0000
0010
0000
0001
0000
0100
0010
0100
0000
0001
0000
,  // measure 60
1000
0001
1000
0010
1000
0001
1000
0010
,  // measure 61
1000
0001
1000
0010
1000
0000
1001
0000
,  // measure 62
0001
1000
0001
0100
0001
1000
0001
0100
,  // measure 63
0001
1000
0001
0100
0001
0000
1001
0000
,  // measure 64
0100
0010
0100
1000
0100
0010
0100
1000
,  // measure 65
0100
0010
0100
1000
0100
0000
0110
0000
,  // measure 66
0010
0100
0010
0001
0010
0100
0010
0001
,  // measure 67
1001
0110
1001
0000
,  // measure 68
1000
0010
0100
0001
1000
0010
0100
0001
,  // measure 69
1000
0010
0100
0001
1000
0000
1001
0000
,  // measure 70
0001
0010
0100
1000
0001
0010
0100
1000
,  // measure 71
0001
0010
0100
1000
0001
0000
1001
0000
,  // measure 72
1000
0100
0001
0100
1000
0100
0001
0100
,  // measure 73
1000
0100
0001
0100
1100
0000
0101
0000
,  // measure 74
0001
0010
1000
0010
0001
0010
1000
0010
,  // measure 75
0220
0300
0030
0000
,  // measure 76
2002
0000
0000
0000
,  // measure 77
0000
0000
0000
0000
,  // measure 78
3003
0000
0000
0000
;

//---------------dance-single - ----------------
#NOTEDATA:;
#CHARTNAME:;
#STEPSTYPE:dance-single;
#DESCRIPTION:;
#CHARTSTYLE:;
#DIFFICULTY:Easy;
#METER:7;
#RADARVALUES:0.302965,0.582569,0.144791,0.042585,0.000000,249.000000,232.000000,17.000000,5.000000,0.000000,0.000000,0.000000,0.000000,0.000000,0.302965,0.582569,0.144791,0.042585,0.000000,249.000000,232.000000,17.000000,5.000000,0.000000,0.000000,0.000000,0.000000,0.000000;
#CREDIT:Pandemonium X;
#NOTES:
// measure 0
0000
0000
0000
0000
,  // measure 1
0000
0000
0000
0000
,  // measure 2
0000
0000
0000
0000
,  // measure 3
0000
0000
0000
0000
,  // measure 4
1000
0000
1000
0000
,  // measure 5
0001
0000
0001
0000
,  // measure 6
1000
0001
0100
0010
,  // measure 7
1001
0000
0000
0000
,  // measure 8
1000
0000
0010
0000
,  // measure 9
1000
0100
0010
0000
,  // measure 10
0100
0000
1000
0000
,  // measure 11
0001
0100
0001
0010
,  // measure 12
0100
0000
0010
0000
,  // measure 13
0001
1000
0100
0000
,  // measure 14
0010
0000
0100
0000
,  // measure 15
0010
0001
1000
0010
,  // measure 16
0100
0000
0010
0000
,  // measure 17
1000
0001
0010
0001
,  // measure 18
1000
0000
0100
0000
,  // measure 19
1000
0010
1000
0001
,  // measure 20
0100
0000
0001
0000
,  // measure 21
0010
0001
0010
0100
,  // measure 22
1000
0000
0100
0000
,  // measure 23
1000
0010
0100
0001
,  // measure 24
1000
0000
0000
0000
,  // measure 25
0001
0000
0000
0000
,  // measure 26
0100
0000
0000
0000
,  // measure 27
0001
0000
0010
0000
,  // measure 28
0001
0000
0000
0000
,  // measure 29
1000
0000
0000
0000
,  // measure 30
0010
0000
0000
0000
,  // measure 31
0100
0000
0010
0000
,  // measure 32
1000
1000
1001
0000
0001
0001
1001
0000
,  // measure 33
1000
1000
1001
0000
0001
0001
1001
0000
,  // measure 34
0010
0010
0110
0000
0100
0100
0110
0000
,  // measure 35
0010
0010
0110
0000
2000
0000
0000
0000
,  // measure 36
3100
0000
1000
0000
,  // measure 37
0010
1000
0010
0000
,  // measure 38
0100
0000
0001
0000
,  // measure 39
0010
0000
0001
0000
,  // measure 40
1001
0000
0010
0000
,  // measure 41
1001
0000
0100
0000
,  // measure 42
1001
0010
1001
0100
,  // measure 43
1001
0000
0000
0000
,  // measure 44
0001
0100
0001
0010
,  // measure 45
0001
0001
0001
2000
,  // measure 46
3001
0010
0100
0010
,  // measure 47
0001
1000
0010
0100
,  // measure 48
0010
1000
0100
0010
,  // measure 49
0001
0001
0001
2000
,  // measure 50
3100
1000
0010
0100
,  // measure 51
0001
0100
1000
0100
,  // measure 52
0001
0010
0001
1000
,  // measure 53
0100
0100
0100
2000
,  // measure 54
3010
0100
0010
1000
,  // measure 55
0001
0010
0100
0010
,  // measure 56
0001
1000
0010
1000
,  // measure 57
0100
0100
0100
2000
,  // measure 58
3100
1000
0010
0100
,  // measure 59
0001
0010
1000
0010
,  // measure 60
0000
0001
0000
1000
0000
0010
0000
1000
,  // measure 61
0000
0001
0000
0010
0100
0000
1000
0000
,  // measure 62
0000
0100
0000
1000
0000
0010
0000
0100
,  // measure 63
0000
0010
0000
1000
0001
0000
0010
0000
,  // measure 64
0000
0100
0000
0010
0000
0001
0000
0100
,  // measure 65
0000
0010
0000
1000
0010
0000
0100
0000
,  // measure 66
0000
0010
0000
1000
0000
0001
0000
0010
,  // measure 67
0100
1001
0100
1001
,  // measure 68
1000
0001
0000
0010
0000
0001
0000
1000
,  // measure 69
0000
0010
0000
0100
0010
0000
1000
0000
,  // measure 70
0000
0100
0000
0010
0000
0100
0000
1000
,  // measure 71
0000
0001
0000
0100
0001
0000
0010
0000
,  // measure 72
0000
0100
0000
0010
0000
0001
0000
0010
,  // measure 73
0000
0100
0000
1000
0100
0000
1000
0000
,  // measure 74
0000
0100
0000
1000
0000
0010
0000
0100
,  // measure 75
1001
0000
0000
0000
,  // measure 76
0110
0000
0000
0000
;

//---------------dance-single - ----------------
#NOTEDATA:;
#CHARTNAME:;
#STEPSTYPE:dance-single;
#DESCRIPTION:;
#CHARTSTYLE:;
#DIFFICULTY:Challenge;
#METER:15;
#RADARVALUES:0.725169,1.068043,0.212927,0.204410,0.634523,596.000000,571.000000,25.000000,24.000000,0.000000,0.000000,0.000000,0.000000,0.000000,0.725169,1.068043,0.212927,0.204410,0.634523,596.000000,571.000000,25.000000,24.000000,0.000000,0.000000,0.000000,0.000000,0.000000;
#CREDIT:PandyAkita;
#NOTES:
// measure 0
0000
0000
0000
0000
,  // measure 1
0000
0000
0000
0000
,  // measure 2
0000
0000
0000
0000
,  // measure 3
0000
0000
0000
0000
,  // measure 4
1000
0000
0001
0000
0010
0000
0001
1000
0010
0000
0100
0000
0010
0000
1000
0010
,  // measure 5
0100
0000
0001
1000
0100
0000
0010
0001
1000
0000
0010
0100
0001
0000
1000
0100
,  // measure 6
0010
0100
0010
0100
0010
0100
0010
0100
1000
0001
1000
0001
1000
0001
1000
0001
,  // measure 7
0200
0010
0020
0330
,  // measure 8
1001
0000
1010
0000
0100
0002
0000
0010
,  // measure 9
0000
1003
0001
0100
0000
0010
0100
0001
,  // measure 10
0101
0000
0011
0000
0100
2000
0000
0010
,  // measure 11
0000
3001
1000
0010
0000
0100
0001
1000
,  // measure 12
0110
0000
0101
0000
0010
0200
0000
0001
,  // measure 13
0000
1300
0001
0100
0000
0010
1000
0001
,  // measure 14
0110
0000
1100
0000
0100
0020
0000
1000
,  // measure 15
0000
0031
0010
0100
1000
0010
0100
0010
,  // measure 16
1000
0001
1000
0100
1000
0001
1000
0010
,  // measure 17
1000
0001
0010
0100
0000
1000
0100
0010
,  // measure 18
0001
1000
0001
0100
0001
1000
0001
0010
,  // measure 19
0001
1000
0010
0100
0000
0001
0100
0010
,  // measure 20
1000
0000
0001
0000
0010
0000
0001
1000
0010
0000
0100
0000
0010
0000
1000
0010
,  // measure 21
0100
0000
0001
1000
0100
0000
0010
0001
1000
0000
0010
0100
0001
0000
1000
0100
,  // measure 22
0010
0100
0010
0100
0010
0100
0010
0100
1000
0001
1000
0001
1000
0001
1000
0001
,  // measure 23
1000
0010
0100
0001
1000
0010
0100
0001
1000
0010
0100
0001
1000
0010
0100
0001
,  // measure 24
1000
0000
0100
0000
0010
0001
0000
0010
,  // measure 25
0000
0100
1000
0010
0000
0100
0001
1000
,  // measure 26
0100
0000
0010
0000
0100
1000
0000
0001
,  // measure 27
0000
0100
0010
1000
0000
0001
0010
0100
,  // measure 28
1000
0000
0100
0000
0010
0001
0000
0010
,  // measure 29
0000
0100
1000
0010
0000
0100
0010
0100
,  // measure 30
0001
0000
0010
0000
0100
1000
0000
0001
,  // measure 31
0000
1000
0010
0100
0001
0010
0100
0010
,  // measure 32
0001
1000
1001
0000
1000
0001
1001
0000
,  // measure 33
0001
0010
1001
0000
1000
0010
1001
0000
,  // measure 34
0001
0100
1001
0000
1000
0100
1001
0000
,  // measure 35
0001
1000
1001
0000
0002
0000
0000
0000
,  // measure 36
2003
0000
0000
3010
0000
0000
0100
0000
0002
0000
0000
0013
0000
0000
0100
0000
,  // measure 37
0010
0001
0100
0001
0010
1000
0010
0001
,  // measure 38
2000
0000
0000
3010
0000
0000
1000
0000
0200
0000
0000
0310
0000
0000
0001
0000
,  // measure 39
0200
0000
0000
0310
0000
0000
0100
0000
0010
0000
1000
0000
0100
0000
0010
0000
,  // measure 40
0210
1300
0012
0103
,  // measure 41
2010
3100
1002
0103
,  // measure 42
0001
0000
0100
0000
0010
0000
1000
0000
0001
1000
0001
1000
0001
1000
0001
1000
,  // measure 43
0020
0100
0200
0330
,  // measure 44
1001
0000
0001
0100
0000
0001
1000
0000
0001
0000
1000
0100
0000
1000
0001
0000
,  // measure 45
1000
0000
0100
0000
0010
0000
0100
0000
1000
0000
0001
0100
0001
1000
0001
0010
,  // measure 46
0001
0000
1000
0001
0000
0100
0001
0000
0010
0000
0100
0010
0000
0100
1000
0000
,  // measure 47
0010
0000
1000
0010
0000
0010
0100
0000
0010
0000
1000
0010
1000
0001
1000
0100
,  // measure 48
1000
0000
0001
0100
0000
0001
1000
0000
0010
0000
1000
0001
0000
0010
0100
0000
,  // measure 49
0010
0000
0001
0000
0100
0000
0010
0000
1000
0000
0001
0010
0001
1000
0001
0100
,  // measure 50
0001
0000
1000
0100
0000
1000
0010
0000
1000
0000
0001
0100
0000
0100
0001
0000
,  // measure 51
0010
0000
0000
1000
0000
0000
0010
0000
0000
0001
0000
0000
1000
0000
0000
0010
1000
0010
1000
0000
0000
0001
0000
0000
,  // measure 52
1000
0000
0100
0010
0000
0010
0001
0000
0010
0000
0001
0010
0000
0010
0100
0000
,  // measure 53
0010
0000
0001
0000
0100
0000
0001
0000
1000
0000
0001
0100
0001
0010
0100
0010
,  // measure 54
0001
0000
0010
0100
0000
0100
1000
0000
0100
0000
1000
0100
0000
0100
0010
0000
,  // measure 55
0100
0000
1000
0010
0000
0100
0001
0000
0100
0000
0010
1000
0010
0100
0010
1000
,  // measure 56
0001
0000
0010
0001
0000
0001
1000
0000
0001
0000
1000
0010
0000
0010
0100
0000
,  // measure 57
0010
0000
1000
0000
0100
0000
0010
0000
0001
0000
0010
0001
0100
0001
0010
0100
,  // measure 58
1000
0001
1000
0000
0001
0100
0001
0000
1000
0010
1000
0000
0001
0100
0001
0000
,  // measure 59
1000
0000
0000
0100
0000
0000
0001
0000
0000
0100
0000
0000
1000
0000
0000
0001
1000
0001
1000
0000
0000
0001
0000
0000
,  // measure 60
1000
0000
0010
1000
0000
0000
0001
0100
0000
0000
0010
1000
0000
0000
0001
0100
,  // measure 61
0000
0000
0010
1000
0000
0000
0001
0100
0010
0000
0000
0000
1001
0000
0000
0000
,  // measure 62
0000
0000
1000
0100
0000
0000
0010
0001
0000
0000
1000
0100
0000
0000
0010
0001
,  // measure 63
0000
0000
1000
0100
0000
0000
0010
0001
0100
0000
0000
0000
0010
0100
0010
0100
,  // measure 64
0000
0000
0001
0100
0000
0000
0010
1000
0000
0000
0001
0100
0000
0000
0010
1000
,  // measure 65
0000
0000
0001
0100
0000
0000
0010
1000
0001
0000
0000
0000
0110
0000
0000
0000
,  // measure 66
0000
0000
0001
0010
0000
0000
0100
1000
0000
0000
0001
0010
0000
0000
0100
1000
,  // measure 67
0020
0100
2030
0010
,  // measure 68
3000
0000
0001
0100
0000
0000
0010
1000
0000
0000
0100
0010
0000
0000
0100
1000
,  // measure 69
0000
0000
0010
0100
0000
0000
0010
1000
0001
0000
0000
0000
1001
0000
0000
0000
,  // measure 70
0000
0000
1000
0100
0000
0000
0010
0100
0000
0000
1000
0010
0000
0000
0100
0001
,  // measure 71
0000
0000
0010
0100
0000
0000
0010
0001
0100
0000
0000
0000
0001
0100
0001
0100
,  // measure 72
0001
0000
1000
0100
0000
0000
1000
0010
0000
0000
0010
0100
0000
0000
0010
1000
,  // measure 73
0000
0000
0010
0100
0000
0000
0010
1000
0001
0000
0000
0000
1001
0000
0000
0000
,  // measure 74
2000
0000
0000
0010
0000
0000
0001
0000
3002
0000
0000
0010
0000
0000
1003
0000
,  // measure 75
0020
0100
0200
0330
,  // measure 76
1001
0000
0000
0000
;

//---------------dance-single - ----------------
#NOTEDATA:;
#CHARTNAME:;
#STEPSTYPE:dance-single;
#DESCRIPTION:;
#CHARTSTYLE:;
#DIFFICULTY:Medium;
#METER:9;
#RADARVALUES:0.403953,0.564683,0.195893,0.281064,0.076654,332.000000,309.000000,23.000000,33.000000,0.000000,0.000000,0.000000,0.000000,0.000000,0.403953,0.564683,0.195893,0.281064,0.076654,332.000000,309.000000,23.000000,33.000000,0.000000,0.000000,0.000000,0.000000,0.000000;
#CREDIT:TonyAkita;
#NOTES:
// measure 0
0000
0000
0000
0000
,  // measure 1
0000
0000
0000
0000
,  // measure 2
0000
0000
0000
0000
,  // measure 3
0000
0000
0000
0000
,  // measure 4
1000
0001
0010
0000
0100
1000
0010
0000
,  // measure 5
0101
1001
1100
1001
,  // measure 6
0001
1000
0001
1000
0001
1000
0001
1000
,  // measure 7
0020
0200
0030
0300
,  // measure 8
0001
0000
1000
0000
0001
0010
0000
0100
,  // measure 9
0000
1000
0000
0010
0000
0000
0100
0000
,  // measure 10
0001
0000
0100
0000
0010
1000
0000
0001
,  // measure 11
0000
1000
0010
0100
0000
0000
0001
0000
,  // measure 12
1000
0000
0001
0000
1000
0010
0000
0100
,  // measure 13
0000
0001
0000
0010
0000
0000
0100
0000
,  // measure 14
1000
0000
0100
0000
0010
0001
0000
1000
,  // measure 15
0000
0001
0010
0100
,  // measure 16
1000
0000
0010
0000
1000
0100
0000
0001
,  // measure 17
0000
0100
0000
1000
0000
0000
0100
0000
,  // measure 18
0010
0000
0001
0000
0010
0100
0000
1000
,  // measure 19
0000
0001
0100
0010
0000
0000
0100
0000
,  // measure 20
0001
0000
0010
0000
0001
0100
0000
1000
,  // measure 21
0000
0100
0000
0001
0000
0000
0100
0000
,  // measure 22
0010
0000
1000
0000
0010
0100
0000
0001
,  // measure 23
0000
1000
0100
0010
,  // measure 24
0001
0100
0002
0000
,  // measure 25
2003
0000
3200
0000
,  // measure 26
1300
0010
2000
0000
,  // measure 27
3200
0000
0320
0000
,  // measure 28
1030
0010
0002
0000
,  // measure 29
0203
0000
0320
0000
,  // measure 30
0031
0010
2000
0000
,  // measure 31
3001
0000
1000
0010
0100
0001
1000
0100
,  // measure 32
0010
0010
0010
0000
0100
0100
0100
0000
,  // measure 33
0010
0001
1000
0000
0010
1000
0001
0000
,  // measure 34
0100
0001
0010
0000
0100
1000
0010
0000
,  // measure 35
0100
0001
1000
0000
0020
0000
0000
0030
,  // measure 36
2000
3010
2000
3001
,  // measure 37
2000
3100
0011
0001
,  // measure 38
0002
0013
0002
1003
,  // measure 39
0002
0103
1010
1000
,  // measure 40
0022
0033
2200
3300
,  // measure 41
2020
3030
0202
0303
,  // measure 42
1000
0001
1000
0001
,  // measure 43
0020
0200
0030
0300
,  // measure 44
1000
0000
0000
0010
0000
0000
1000
0000
0001
0000
0000
0100
0000
0000
0001
0000
,  // measure 45
1000
0100
0010
0001
0000
0000
1000
0000
,  // measure 46
0001
0000
0000
0010
0000
0000
0001
0000
1000
0000
0000
0100
0000
0000
1000
0000
,  // measure 47
0001
0000
0000
0100
0000
0000
0010
0000
0000
0000
0000
0000
1000
0000
0000
0000
,  // measure 48
0001
0000
0000
1000
0000
0000
0010
0000
1000
0000
0000
0001
0000
0000
0100
0000
,  // measure 49
0001
0010
0100
1000
0000
0000
0100
0000
,  // measure 50
1000
0000
0000
0001
0000
0000
0100
0000
0001
0000
0000
1000
0000
0000
0010
0000
,  // measure 51
0000
0100
0001
1000
,  // measure 52
0001
0000
0000
0010
0000
0000
1000
0000
0010
0000
0000
0001
0000
0000
0010
0000
,  // measure 53
0100
1000
0010
1000
0000
0000
0001
0000
,  // measure 54
1000
0000
0000
0010
0000
0000
0001
0000
0010
0000
0000
1000
0000
0000
0010
0000
,  // measure 55
0100
0000
0000
0001
0000
0000
0010
0000
0000
0000
0000
0000
0100
0000
0000
0000
,  // measure 56
1000
0000
0000
0100
0000
0000
0001
0000
0100
0000
0000
1000
0000
0000
0100
0000
,  // measure 57
0010
0001
0100
0001
0000
0000
1000
0000
,  // measure 58
0001
0000
0000
0100
0000
0000
1000
0000
0100
0000
0000
0001
0000
0000
0100
0000
,  // measure 59
0000
0010
1000
0100
,  // measure 60
0000
0010
0000
0001
0000
0100
0000
0001
,  // measure 61
0000
0010
0000
0100
1000
0000
1001
0000
,  // measure 62
0000
0010
0000
1000
0000
0100
0000
1000
,  // measure 63
0000
0010
0000
0100
0001
0000
1001
0000
,  // measure 64
0000
1000
0000
0100
0000
0001
0000
0100
,  // measure 65
0000
1000
0000
0100
0010
0000
0011
0000
,  // measure 66
0000
0001
0000
0100
0000
1000
0000
0100
,  // measure 67
0001
1000
1001
0000
,  // measure 68
0001
0010
0100
0010
,  // measure 69
1000
0010
0011
1001
,  // measure 70
1000
0010
0100
0010
,  // measure 71
0001
0010
1010
1001
,  // measure 72
0001
1000
0010
0000
0100
0001
0010
0000
,  // measure 73
1100
1001
0101
1001
,  // measure 74
1000
0001
1000
0001
1000
0001
1000
0001
,  // measure 75
0020
0200
0030
0300
,  // measure 76
2002
0000
0000
0000
,  // measure 77
0000
0000
0000
0000
,  // measure 78
3003
0000
0000
0000
;

//---------------dance-single - ----------------
#NOTEDATA:;
#CHARTNAME:;
#STEPSTYPE:dance-single;
#DESCRIPTION:;
#CHARTSTYLE:;
#DIFFICULTY:Beginner;
#METER:5;
#RADARVALUES:0.219011,0.420744,0.068137,0.008517,0.000000,180.000000,172.000000,8.000000,1.000000,0.000000,0.000000,0.000000,0.000000,0.000000,0.219011,0.420744,0.068137,0.008517,0.000000,180.000000,172.000000,8.000000,1.000000,0.000000,0.000000,0.000000,0.000000,0.000000;
#CREDIT:TonyAkita;
#NOTES:
0000
0000
0000
0000
,
0000
0000
0000
0000
,
0000
0000
0000
0000
,
0000
0000
0000
0000
,
1000
0000
1000
0000
,
0001
0000
0001
0000
,
1000
0000
0001
0000
,
0110
0000
0000
0000
,
1000
0000
0010
0000
,
1000
1000
1000
0000
,
0001
0000
0100
0000
,
0001
0001
0001
0000
,
0010
0000
0100
0000
,
1000
1000
1000
0000
,
0100
0000
0010
0000
,
0001
0001
0001
0001
,
0001
0000
0010
0000
,
0001
0001
0001
0000
,
1000
0000
0100
0000
,
1000
1000
1000
0000
,
0010
0000
0100
0000
,
0001
0001
0001
0000
,
0100
0000
0010
0000
,
1000
1000
1000
1000
,
1000
0000
0000
0000
,
0001
0000
0000
0000
,
0100
0000
0000
0000
,
0001
0000
0010
0000
,
0001
0000
0000
0000
,
1000
0000
0000
0000
,
0010
0000
0000
0000
,
0100
0000
0010
0000
,
1000
1000
1000
0000
0001
0001
0001
0000
,
1000
1000
1000
0000
0001
0001
0001
0000
,
0100
0100
0100
0000
0010
0010
0010
0000
,
0100
0100
0100
0000
0002
0000
0000
0000
,
1003
0000
0010
0000
,
0100
0100
0100
0000
,
0001
0000
0010
0000
,
0001
0000
0100
0000
,
1001
0000
0010
0000
,
1001
0000
0100
0000
,
1001
0000
0110
0000
,
1001
0000
0000
0000
,
0001
0000
0010
0000
,
0100
0100
0100
0000
,
1000
0000
0010
0000
,
1000
0000
0100
0000
,
1000
0000
0010
0000
,
0100
0100
0100
0000
,
0001
0000
0010
0000
,
0001
0000
0100
0000
,
0010
0000
1000
0000
,
0010
0010
0010
0000
,
0100
0000
0001
0000
,
1000
0000
0100
0000
,
0010
0000
0001
0000
,
0010
0010
0010
0000
,
0100
0000
1000
0000
,
0001
0000
0100
0000
,
0000
0001
0000
0000
0000
1000
0000
0000
,
0000
0001
0000
0000
0100
0000
0100
0000
,
0000
0001
0000
0000
0000
1000
0000
0000
,
0000
0001
0000
0000
0010
0000
0010
0000
,
0000
0100
0000
0000
0000
1000
0000
0000
,
0000
0100
0000
0000
1000
0000
1000
0000
,
0000
0001
0000
0000
0000
0100
0000
0000
,
0001
0001
0001
0000
,
0000
1000
0000
0000
0000
0010
0000
0000
,
0000
1000
0000
0000
0100
0000
0100
0000
,
0000
0010
0000
0000
0000
0001
0000
0000
,
0000
0010
0000
0000
0100
0000
0100
0000
,
0000
1000
0000
0000
0000
0100
0000
0000
,
0000
1000
0000
0000
0001
0000
0001
0000
,
0000
0100
0000
0000
0000
0001
0000
0000
,
1001
0000
0000
0000
,
0110
0000
0000
0000
;
