#TITLE:PANDORA PARADOXXX;
#SUBTITLE:;
#ARTIST:削除;
#TITLETRANSLIT:;
#SUBTITLETRANSLIT:;
#ARTISTTRANSLIT:Sakuzyo;
#GENRE:;
#CREDIT:;
#BANNER:PANDORA PARADOXXX.png;
#BACKGROUND:PANDORA PARADOXXX-bg.png;
#LYRICSPATH:;
#CDTITLE:cdtitle.png;
#MUSIC:PANDORA PARADOXXX.ogg;
#OFFSET:-1.000000;
#SAMPLESTART:83.400002;
#SAMPLELENGTH:12.800000;
#SELECTABLE:YES;
#BPMS:0.000000=150.000000
;
#STOPS:
;
#BGCHANGES:0.000=PANDORA PARADOXXX.avi=1.000=0=0=0=StretchNoLoop====,
99999=-nosongbg-=1.000=0=0=0 // don't automatically add -songbackground-
;
#KEYSOUNDS:;
#ATTACKS:;

//---------------dance-single - MEGAtive----------------
#NOTES:
     dance-single:
     :
     Beginner:
     2:
     0.119740,0.239643,0.061330,0.381612,0.064738,123.000000,114.000000,9.000000,56.000000,0.000000,0.000000,0.119740,0.239643,0.061330,0.381612,0.064738,123.000000,114.000000,9.000000,56.000000,0.000000,0.000000:
0000
0000
0000
0000
,
0000
0000
0000
0000
,
0000
0000
0000
0000
,
0000
0000
0000
0000
,
1000
0000
0100
0000
,
0000
0010
0000
0000
,
0001
0000
0000
0100
,
0000
0000
0010
0000
,
0000
1000
0000
0000
,
0001
0000
0000
1000
,
0200
0000
0000
0320
,
0000
0000
0031
0000
,
0000
0000
0000
0000
,
1000
0000
0000
0000
,
0000
0000
0000
0001
,
0000
0000
0000
0000
,
0000
1000
0000
0000
,
0000
0000
0000
0010
,
0000
0000
1000
0000
,
0000
0001
0000
0000
,
0000
0000
0000
0020
0000
0000
0000
0000
0000
0000
0000
0000
0130
0000
0000
0000
,
0000
0000
1000
0000
,
0000
0001
0000
0000
,
0100
0000
0000
0020
,
0000
0000
2030
0000
,
0000
3002
0000
0000
,
0023
0000
0000
0030
0000
0000
0000
0000
0000
0000
0020
0000
0000
0000
0000
0000
,
0230
0000
0000
2300
,
0000
0000
3020
0000
,
0000
0230
0000
0000
,
0302
0000
0000
2003
,
0000
3000
0000
0000
2002
0000
0000
0000
,
3003
0220
0000
0330
,
2002
0000
3003
0220
,
0000
0330
0220
0330
,
0000
2002
0000
3003
0000
0000
0220
0000
,
0000
0000
0000
0000
0000
0330
0000
0000
2002
0000
0000
0000
0000
0000
0000
0000
,
3003
0002
0000
0000
,
0000
0203
0000
0320
,
0000
0000
0000
2030
,
0000
3001
0000
0000
,
0000
0000
0000
0000
,
1000
0000
0000
0000
,
0000
0000
0000
0001
,
2000
0000
0000
0000
,
3200
0000
0000
0000
,
0320
0000
0000
0000
,
0032
0000
0000
0000
,
2003
0000
3020
0000
,
0230
0000
0302
0000
,
2003
0000
0000
0002
,
3003
0000
0000
0000
,
1000
0000
0000
0000
0000
0000
0000
0001
,
0000
0000
0000
0000
0000
0000
0000
0010
,
0000
0000
0000
0100
,
0000
0000
0000
1000
,
0000
0000
0000
0000
0000
0010
0000
0000
,
0000
0000
0000
0000
0000
0100
0000
0000
,
0000
0000
0001
0000
,
0000
0000
2000
0000
,
0000
0000
0000
3200
0000
0000
0000
0000
,
0000
0000
0000
0320
0000
0000
0000
0000
,
0000
0230
0000
0000
,
0000
2300
0000
0000
,
3000
0000
0000
2002
0000
0000
0000
0000
0000
0000
0000
0000
3003
0000
0000
0000
,
0000
0001
0000
0000
0000
0000
0000
0000
,
0010
0000
0000
0000
,
0002
0000
0000
0203
,
0000
0000
0310
0000
,
0000
0000
0000
0000
,
1000
0000
0000
0000
,
0000
0000
0000
1000
,
0000
0100
0000
0010
,
0000
0001
0000
1000
,
0000
0010
0000
0100
,
0000
0001
0000
1000
,
0000
0000
0000
0000
0000
1000
0000
0000
0000
0001
0000
0000
,
0000
0100
0000
0000
0000
0000
0000
0000
0000
0010
0000
0000
,
0000
0000
0000
0000
0000
1000
0000
0000
0000
0000
0000
0000
,
0000
0001
0000
0000
0000
0000
0000
0000
0000
0010
0000
0000
,
0000
0200
0000
0000
0000
0000
0000
0000
0000
0000
0000
0000
,
0000
1300
0000
0000
0000
0001
0000
0000
0000
1000
0000
0000
,
0000
0001
0000
0000
0000
0100
0000
0000
0000
0010
0000
0000
,
0000
0000
0100
0000
0000
0000
0010
0000
0000
1000
0000
0000
,
0000
0001
0000
0000
0000
1000
0000
0000
0000
0001
0000
0000
,
0000
0010
0000
0000
0000
0100
0000
0000
0000
0010
0000
0000
,
0000
0200
0000
0000
0000
0000
0000
2300
0000
0000
0000
0000
,
0000
0000
0000
0000
0000
0000
0000
0000
0000
0000
0000
3001
;

//---------------dance-single - MEGAtive----------------
#NOTES:
     dance-single:
     :
     Easy:
     9:
     0.282315,0.419375,0.006814,0.402055,0.160141,290.000000,289.000000,1.000000,59.000000,0.000000,0.000000,0.282315,0.419375,0.006814,0.402055,0.160141,290.000000,289.000000,1.000000,59.000000,0.000000,0.000000:
0000
0000
0000
0000
,
0000
0000
0000
0000
,
0000
0000
0000
0000
,
0000
0000
0000
0000
,
1000
0100
0010
0000
,
0100
1000
0010
0000
,
0100
0001
0010
0000
,
0100
1000
0001
0000
,
0000
0000
0000
0000
,
0000
0000
0000
0000
,
1000
0100
0000
0010
0100
0000
1000
0100
,
0000
0010
0002
0000
2003
0000
0000
0000
,
0000
0000
0000
0000
,
3001
0000
0000
0000
,
0000
0000
0000
2002
,
0000
0000
0000
0000
,
3003
0000
1000
0000
0000
0100
0000
0000
,
0010
0000
0000
0100
0000
0000
1000
0000
,
0000
0001
0000
0000
0100
0000
0000
0010
,
0000
0000
1000
0000
0000
0100
0000
0000
,
0010
0000
0000
0100
0000
1000
0001
0100
,
0010
0000
0100
0000
0001
0000
1000
0100
,
0010
0000
0100
0000
1000
0000
0010
0100
,
0001
0000
1000
0000
0100
0000
0010
0001
,
0010
0100
1000
0001
,
0100
0000
0010
1000
0010
0000
0100
0000
,
0001
0010
0000
0100
0000
1000
0000
0001
,
1000
0010
0100
0001
,
0010
0100
2000
0000
,
0000
3020
0000
0000
,
0230
0000
0000
0302
,
0000
0000
1003
0000
0000
0000
0000
0000
1000
0000
0000
0100
0000
0000
0020
0000
,
0000
0000
0000
0000
0130
0000
0000
1000
0000
0000
0002
0000
0000
0000
0000
0000
,
0103
0000
0000
1000
0000
0000
0100
0000
0000
0010
0000
0000
1000
0000
0000
0001
,
0000
2000
0000
0000
3001
0002
0000
0000
,
0000
0000
0013
0000
0020
0000
0000
0000
0000
0000
0000
0000
0130
0000
0000
1000
,
0000
0000
0010
0000
0000
0100
0000
0000
0002
0000
0000
0000
0000
0000
0000
0000
,
0003
0000
2000
0000
0000
3020
0000
0000
,
0230
0000
0000
0302
0000
0000
0023
0000
,
0000
0230
0000
0000
2300
0000
0000
3020
,
0000
0130
0000
0000
,
0000
0000
0000
0000
,
0002
0000
0000
0000
,
0000
0000
1003
0000
,
2000
3200
0302
0203
,
2300
3020
0230
0302
,
2003
3020
0032
0023
,
2030
3200
0320
0032
,
1003
0000
0000
0000
0100
0000
0000
0000
0010
0000
0000
0000
,
0001
0000
0000
0000
0100
0000
0000
0000
0010
0000
0000
0000
,
1000
0000
0001
0000
1000
0000
0001
0000
1000
0000
0001
0000
,
2000
0000
3000
0000
,
0001
0000
0010
0100
0010
0000
0001
0200
,
0000
0310
1000
0000
0100
0010
0100
2000
,
0000
3001
1000
0000
0010
0100
0010
0000
,
1000
0001
0000
0010
0100
1000
0001
0000
,
0100
0010
0100
0000
0001
0020
0000
0130
,
1000
0000
0010
0100
0010
2000
0000
3001
,
1000
0000
0100
0010
0100
0000
1000
0001
,
0100
0001
1000
0001
1000
0000
0100
0010
,
0100
0000
1000
0020
0000
0130
0001
0000
,
0010
0100
0010
0002
0000
1003
0001
0000
,
0100
0010
0100
0000
0001
1000
0000
0100
,
0010
0001
1000
0000
0010
0100
0010
0000
,
1000
0000
0000
0010
0000
0000
0100
0000
0000
0010
0000
0000
1000
0000
0001
0000
,
1000
0002
0000
0013
0200
0000
1300
0000
,
0002
0000
0103
0010
0000
1000
0100
0010
,
0001
0000
0100
0010
0000
1000
0001
0000
,
0010
0100
0010
0000
0002
0000
0000
0000
,
0000
0000
0000
0000
,
1003
0000
0000
0000
,
0000
0000
0000
2000
,
0000
3000
0020
0000
0000
0030
0200
0000
,
0000
0300
0002
0000
0000
0003
2000
0000
,
0000
3000
0200
0000
0000
0300
0020
0000
,
0000
0030
0002
0000
0000
0003
0100
0000
,
0000
0010
0000
0000
0000
1000
0000
0000
0000
0001
0000
0000
,
0000
0010
0000
0000
0000
0100
0000
0000
0000
1000
0000
0000
,
0000
0010
0000
0000
0000
0100
0000
0000
0000
0001
0000
0000
,
0000
1000
0000
0000
0000
0100
0000
0000
0000
0010
0000
0000
,
0000
0001
0000
0000
0001
0000
0000
1000
0000
0000
1000
0000
,
0000
0001
0000
0100
0000
0010
0000
0000
0000
1000
0000
0100
,
0000
0010
0000
0000
0000
0100
0000
1000
0000
0001
0000
0000
,
0000
0100
0000
0010
0000
1000
0000
0000
0000
0001
0000
0010
,
0000
0100
0000
0000
0000
0010
0000
0001
0000
1000
0000
0000
,
0000
0010
0000
0100
0000
0001
0000
0000
0000
1000
0000
0100
,
0000
0010
0000
0000
0000
0000
0000
0002
0000
0000
0000
0000
,
0000
0000
0000
0000
0000
0000
0000
0000
0000
0000
0000
1003
;

//---------------dance-single - MEGAtive----------------
#NOTES:
     dance-single:
     :
     Medium:
     13:
     0.505246,0.688974,0.122661,0.408870,0.494051,519.000000,501.000000,18.000000,60.000000,0.000000,0.000000,0.505246,0.688974,0.122661,0.408870,0.494051,519.000000,501.000000,18.000000,60.000000,0.000000,0.000000:
0000
0000
0000
0000
,
0000
0000
0000
0000
,
0000
0000
0000
0000
,
0000
0000
0000
0000
,
1000
0001
0000
0010
0100
0000
1000
0001
,
0000
0100
0010
1000
0010
0000
1000
0001
,
0100
0010
1000
0100
0000
0010
0100
0000
,
1000
0001
0000
0100
0010
1000
0001
0010
,
0000
0100
0010
0000
0001
0100
0000
0010
,
1000
0000
0100
0010
0000
0100
1000
0001
,
1000
0010
1000
0001
0010
0001
1000
0100
,
0020
0230
1300
1000
,
1000
1000
1000
2000
,
3001
0000
0000
0000
0000
0000
0000
0000
0000
0000
0000
0000
1000
0010
0100
0000
,
0000
0000
0002
0000
0000
0000
0000
0000
0000
0000
0000
0000
1003
0000
0000
1000
,
0000
0000
1000
0000
0000
1000
0000
0000
2000
0000
0000
0000
0000
0000
0000
0000
,
0000
3001
0000
0000
1000
0000
0000
0100
0000
0000
0010
0000
0000
0100
0000
0000
,
1000
0000
0000
0010
0000
0000
0100
0000
0000
0001
0000
0000
1000
0000
0000
0002
,
0000
0000
0000
0000
0003
0000
0000
1000
0000
0000
0100
0000
0000
0000
0000
0000
0010
0000
0000
0000
0000
0000
0100
0000
0000
0000
0000
0000
1000
0000
0000
0000
,
0000
0001
0000
0000
0100
0000
0000
0020
0000
0000
1030
0000
0000
0100
0000
0000
,
0010
0000
0000
0001
0000
0000
0001
0000
0000
0001
1000
0001
1000
0000
0100
0000
,
0010
0000
0100
1000
0001
0100
0010
0001
,
1000
0100
0010
0000
1000
0010
0100
0001
,
0010
0000
0010
0100
1000
0001
0100
1000
,
0100
0020
0000
1030
2000
0000
3100
0010
,
0100
1000
0020
0000
0130
1000
0100
0001
,
0010
0110
0000
1001
0000
0110
0000
1001
,
1000
0010
0001
2000
0000
3100
0010
1000
,
0001
0010
0100
0010
0001
1000
0100
0002
,
0000
0000
0103
1000
0010
0002
0000
0000
,
0013
1000
0100
0002
0000
0100
0203
0000
,
0000
0000
1300
0000
0000
0000
0000
0000
1020
0000
0000
0001
0000
0000
1030
0000
,
0000
0000
0000
0000
1200
0000
0000
0001
0000
0000
1300
0000
0000
0000
0000
0000
,
0201
0000
0000
1000
0000
0000
0001
0000
0000
1000
0000
0000
0320
0000
0000
0001
,
0000
1030
0000
0000
1001
2001
0000
0000
,
0000
0000
3001
0000
0012
0000
0000
0000
0000
0000
0000
0000
0023
0000
0000
1000
,
0000
0000
0001
0000
0000
1000
0000
0000
0032
0000
0000
0000
0000
0000
0000
0000
,
0003
0000
1000
0100
1000
0010
0100
0001
,
1000
0100
0010
0100
1000
0001
0100
0010
,
0100
0001
1000
0001
0010
0100
1000
0010
,
0100
0001
1000
0000
0000
0000
0000
0000
,
1000
0100
0010
0001
0000
0000
0000
0000
0000
0000
0000
0000
,
1000
1000
1000
1000
,
1000
2000
3001
0000
,
2000
0010
3002
0010
,
2003
3020
0230
0302
,
2003
0100
3002
0100
,
2003
3200
0320
0032
,
1003
0000
0010
0000
1000
0000
0001
0000
0010
0000
0001
0000
,
1000
0000
0100
0000
1000
0000
0001
0000
0010
0000
0100
0000
,
1000
0000
0010
0000
0001
0000
1000
0000
0100
0000
0001
0000
,
2000
0000
3001
0000
,
1000
0000
0010
0000
0100
0001
0000
0001
0000
0000
1000
0000
0100
0000
0002
0000
,
0000
0000
0103
0000
0100
0000
0000
1000
0000
1000
0001
0000
0100
0000
0002
0000
,
0000
0000
1003
0100
0000
0100
0000
0000
1000
0000
0010
0000
0002
0000
0000
0000
,
0013
0000
0010
0000
0000
1000
0000
1000
0100
0000
0010
0001
1000
0000
0100
0000
,
0010
0001
0000
0001
0000
0000
1000
0000
0010
0000
0002
0000
0000
0000
0013
0000
,
0010
0000
0000
1000
0000
1000
0001
0000
0010
0000
0002
0000
0000
0000
1003
0100
,
2000
0000
3010
0100
0002
0000
0013
0100
,
0000
1000
0000
0010
0100
0000
0100
0000
0001
0000
0010
0000
0100
1000
0000
1000
,
0000
0000
0001
0000
0100
0000
2000
0000
0000
0000
3100
0000
0100
0000
0000
0001
,
0000
0001
1000
0000
0100
0000
1000
0000
0001
0000
0100
0000
0010
0000
0001
0000
,
0010
0100
0001
1000
0100
0001
1000
0010
,
0001
0000
0100
0000
0020
0000
0000
0000
1030
0010
0000
0010
0000
0000
0100
0000
,
0002
0000
0003
0101
0000
0000
1001
0000
0000
1100
0000
0000
0110
0000
0100
0000
,
1000
0020
0000
0130
2000
0000
3100
0001
,
0020
0000
0130
1000
0100
0001
1000
0010
,
0001
0100
0001
1000
0100
1000
0001
0010
,
0200
2300
3001
0001
,
0001
0001
0001
0002
,
1003
0000
0000
0000
0000
0000
0000
0000
0000
0000
0000
0000
0001
0010
0100
0000
,
0000
0000
0000
2000
0000
0000
0000
0000
0000
0000
0000
0000
0000
0000
0000
0000
0000
0000
0000
0000
0000
0000
0000
0000
0000
0000
0000
0000
0000
0000
0000
0000
0000
0000
0000
0000
3001
0000
0000
0000
0000
0000
0000
0000
0010
0000
0000
0000
,
0000
0100
0000
1000
0000
0010
0000
0100
0000
0001
0000
0010
,
0000
0100
0000
1000
0000
0010
0000
0100
0000
0001
0000
0010
,
0000
0000
0100
0000
0000
0000
1000
0000
0000
0000
0010
0000
0000
0100
0000
0000
0001
0000
2000
0000
0000
0000
0100
0000
,
0000
0000
0000
3002
0000
0000
0203
0000
0000
0310
0000
1000
,
0000
0000
0001
0000
0000
0000
1000
0000
0000
0000
0100
0000
0000
0010
0000
0000
0100
0000
1000
0000
0000
0000
0010
0000
,
0000
1000
0000
0001
0010
0000
0100
0010
0000
0001
0010
0000
,
0100
0010
0000
0001
1000
0000
0010
0100
0000
0001
1000
0100
,
0010
0001
0000
1000
0010
0000
0100
0010
0000
1000
0010
0000
,
0000
0110
0000
0000
1001
0000
0000
1100
0000
0000
0011
0000
,
0001
1000
0000
1000
0100
1000
0000
0001
0100
0001
1000
0100
,
0010
0001
0010
0100
1000
0001
0000
1000
0010
1000
0000
0001
,
0010
0001
1000
0010
0100
0001
1000
0100
0010
0100
1000
0010
,
0100
0010
0000
1000
0100
1000
0000
0001
0100
0001
1000
0100
,
0010
0200
0000
1300
0001
1000
0010
0100
0010
1000
0100
0010
,
0100
1000
0010
0100
0001
0020
0000
0230
0000
0000
0000
0000
,
0000
0000
0000
0000
0000
0000
0000
0000
0000
0000
1000
1300
;

//---------------dance-single - MEGAtive----------------
#NOTES:
     dance-single:
     :
     Hard:
     17:
     0.808004,1.078394,0.272580,0.402055,1.233424,830.000000,790.000000,40.000000,59.000000,0.000000,0.000000,0.808004,1.078394,0.272580,0.402055,1.233424,830.000000,790.000000,40.000000,59.000000,0.000000,0.000000:
0000
0000
0000
0000
,
0000
0000
0000
0000
,
0000
0000
0000
0000
,
0000
0000
0000
0000
,
0001
0000
1000
0100
0000
0010
0100
0000
1000
0000
1000
0000
0010
0000
0100
0000
,
0001
0000
0010
0100
0000
0010
0001
0000
0100
0000
0100
0000
0010
0000
1000
0000
,
0001
0000
0010
0100
0000
1000
0100
0000
0010
0000
0001
0000
0100
0000
0010
0000
,
1000
0000
0001
0010
0000
0100
0010
0000
0001
0000
0001
0000
0100
0000
0010
0000
,
1000
0000
0100
0010
0000
0100
1000
0000
0010
0000
0010
0000
0100
0000
0001
0000
,
1000
0000
0100
0010
0000
0001
0010
0000
0100
0000
1000
0000
0010
0000
0100
0000
,
0001
0000
1000
0100
0001
0000
0100
0000
1000
0000
0010
0000
0100
0000
1000
0000
,
0002
0000
0000
0013
0200
0000
0000
0000
0302
0000
0000
0000
0100
0000
0000
0000
,
0100
0100
0100
0100
,
0103
0000
0001
0000
1000
0000
0001
0000
0010
0000
0100
0000
0010
0001
0010
0001
,
1000
0000
0010
0100
0010
0100
0001
1000
0001
1000
0100
0010
0001
0000
0000
0001
,
0000
0000
0001
0000
0000
0001
0000
0000
0001
1000
0001
1000
0001
1000
0001
1000
,
0001
0000
0000
0000
0000
0000
1000
0000
0000
0000
0000
0000
0000
0000
0000
0000
0000
0000
0000
0000
0000
0000
0000
0000
0011
0000
0000
0000
0000
0000
0000
0000
0000
0000
0000
0000
0000
0000
0000
0000
0000
0000
0000
0010
0000
0000
0000
0000
0000
0000
0000
0000
0000
0000
0000
0000
0000
0000
0000
0000
0001
0000
0000
0000
0000
0000
0000
0000
0000
0000
0100
0000
0000
0000
0000
0000
0000
0000
0000
0010
0000
0000
0000
0000
0000
0000
0000
0000
1000
0000
0000
0000
0000
0000
0000
0000
,
0100
0000
0000
0000
0000
0000
0000
0000
0000
0000
0000
0000
0000
0000
0000
0000
0000
0000
0000
0000
0010
0000
0000
0000
0000
0000
0000
0000
0100
0000
0000
0000
0000
0000
0000
0000
0000
0000
0010
0000
0000
0000
0000
0000
0000
0000
0000
0000
0000
0000
0000
0000
0000
0000
0000
0000
0001
0000
0000
0000
0000
0000
0000
0000
0000
0000
0000
0000
0000
0000
0000
0000
0000
0000
1000
0000
0000
0000
0000
0000
0000
0000
0000
0000
0001
0000
0000
0000
0000
0000
0000
0000
1000
0000
0000
0000
0000
0000
0000
0000
0000
0000
0000
0000
0000
0000
0000
0000
0000
0000
0010
0000
0000
0000
0000
0000
0000
0000
0000
0000
0000
0000
0000
0000
0000
0000
0000
0000
0100
0000
0000
0000
0000
0000
0000
0000
0000
0000
0000
0000
0000
0000
0000
0000
0000
0001
0000
0000
0000
0000
0000
0000
0000
0000
0000
0000
0000
0000
0000
0000
0000
0000
0000
0000
0010
0000
0000
0000
0000
0000
0000
0000
0000
0000
0000
0000
0000
0000
0000
0000
0000
0100
0000
0000
0000
0000
0000
0000
0000
0000
0000
0000
,
0000
0000
0000
0000
0000
0000
0000
1000
0000
0000
0000
0000
0000
0100
0000
0000
0000
0000
0000
1000
0000
0000
0000
0000
0000
0100
0000
0000
0000
0000
0000
0000
0000
0000
0000
0000
0000
0000
0000
0000
0000
0000
0010
0000
0000
0000
0000
0000
0000
0000
0000
0000
0000
0000
0000
0000
0000
0000
0000
0000
0000
0001
0000
0000
0000
0000
0000
0000
0000
0000
0000
0000
0000
0000
0000
0000
0000
0000
0000
0000
0100
0000
0000
0000
0000
0000
0000
0000
0000
0000
0000
0000
0000
0000
0000
0000
0000
0010
0000
0000
0000
0000
0000
0000
0000
0000
0000
0000
0000
0000
0000
0000
0000
0000
1000
0000
0000
0000
0000
0000
0000
0000
0000
0001
0000
0000
0000
0000
0000
0000
0000
0000
0000
1000
0000
0000
0000
0000
0000
0000
0000
0000
0000
0000
0000
0000
0000
0000
0000
0000
0100
0000
0000
0000
0000
0000
0000
0000
0000
0000
0000
0000
0000
0000
0000
0000
0010
0000
0000
0000
0000
0000
0000
0000
0000
0000
0000
0000
0000
0000
0000
0000
0000
0000
0000
0000
0001
0000
0000
0000
0000
0000
,
0000
0000
0000
0000
0000
0000
0000
0000
0000
0000
0000
0000
0000
1000
0000
0000
0000
0000
0000
0000
0000
0000
0000
0000
0000
0000
0000
0000
0000
0000
0000
0010
0000
0000
0000
0000
0000
0100
0000
0000
0000
0000
0000
0010
0000
0000
0000
0000
0000
0100
0000
0000
0000
0000
0000
0000
0000
0000
0000
0000
0000
0000
0000
0000
0000
0000
0001
0000
0000
0000
0000
0000
0000
0000
0000
0000
0000
0000
0000
0000
0000
0000
0000
0000
1000
0000
0000
0000
0000
0000
0000
0000
0000
0001
0000
0000
0000
0000
0000
0000
0000
0000
1000
0000
0000
0000
0000
0000
0000
0000
0000
0001
0000
0000
0000
0000
0000
0000
0000
0000
0000
1000
0000
0000
0000
0000
0000
0000
0000
0000
0000
0000
0000
0000
0000
0000
0000
0000
0100
0000
0000
0000
0000
0000
0000
0000
0000
0000
0000
0000
0000
0000
0000
0000
0000
0000
0000
0000
0010
0000
0000
0000
0000
0000
0000
0000
0000
0000
0000
0000
0000
0000
0000
0000
0001
0000
0000
0000
0000
0000
0000
0000
0000
0000
0000
0000
0000
0000
0000
0000
0000
0000
,
0100
0010
1000
0100
0000
0000
0100
0010
0100
1000
0010
0100
0001
0000
0001
0000
,
0100
0010
0100
0001
0010
0100
0010
0001
1000
0000
0010
0100
0001
1000
0100
0010
,
0100
0000
1000
0000
0010
0000
0010
0000
0100
0001
1000
0001
0010
0100
0010
0000
,
0001
0000
0001
0000
1000
0010
0100
0001
0010
0100
0010
0001
1000
0000
1000
0000
,
0010
0001
0010
0000
0100
0001
1000
0000
0100
0000
0100
0010
0100
1000
0001
1000
,
0010
0100
1000
0100
0010
0000
0010
0000
1000
0100
0010
0000
0001
0000
0100
0000
,
0010
1010
0000
1001
0001
0010
1000
0010
,
0011
0000
0001
0000
0100
0010
0001
0000
0010
0000
0100
0000
0101
0000
0001
0000
,
1000
0000
0100
0010
0100
1000
0001
1000
0010
0000
0001
0000
0010
0000
2000
0000
,
0000
0001
0000
0000
3100
0000
0001
0000
0100
0000
2000
0000
0000
0001
0000
0000
,
3010
0000
0001
0000
0010
0000
2000
0000
0000
0001
0000
0000
3002
0000
0000
0000
,
0000
0000
1003
0000
0000
0000
0000
0000
0011
0000
0000
1010
0000
0000
0012
0000
,
0000
0000
0003
0000
1100
0000
0000
0101
0000
0000
2100
0000
0000
0000
3000
0000
,
1100
0000
0000
0101
0000
0000
0011
0000
0000
1010
0000
0000
1001
0000
0000
0110
,
0000
1002
0000
0000
1003
2100
0000
0000
,
0000
0000
3001
0000
0102
0000
0000
0000
0000
0000
0003
0000
0101
0000
0000
1100
,
0000
0000
0000
0000
0000
0000
1010
0000
0000
0000
0000
0000
0000
0000
0000
0011
0000
0000
0000
0000
0000
0000
0000
0000
1001
0000
0000
0000
1000
0000
0001
0000
1000
0000
0001
0000
1000
0000
0001
0000
1000
0000
0001
0000
1000
0000
0001
0000
,
1000
0000
0001
0010
0100
0001
0100
0010
,
0001
1000
0010
0100
1000
0100
0010
1000
,
0001
0010
1000
0001
0100
0010
0001
1000
,
0010
0100
0101
0001
0000
1000
0100
0010
,
0001
1000
0010
0100
0010
0001
1000
0100
0010
1000
0001
0100
,
0002
0100
0100
0100
,
0100
0100
0103
2001
,
3001
0000
0000
0000
0000
0000
0000
0000
0000
0000
0010
0000
0000
0000
0000
0000
0000
0000
0000
0100
0000
0000
0000
0000
0000
0000
0000
0000
0000
0000
0000
0000
0000
0000
0000
0000
0000
0000
0000
0000
0000
0000
0000
0000
0000
0000
0000
0000
1000
0000
0000
0000
0000
0000
0000
0000
0000
0000
0010
0000
0000
0000
0000
0000
0000
0000
0000
0100
0000
0000
0000
0000
0000
0000
0000
0000
0000
0000
0000
0000
0000
0000
0000
0000
0000
0000
0000
0000
0000
0000
0000
0000
0000
0000
0000
0000
0001
0000
0000
0000
0000
0000
0000
0000
0000
0000
0010
0000
0000
0000
0000
0000
0000
0000
0000
0100
0000
0000
0000
0000
0000
0000
0000
0000
0000
0000
0000
0000
0000
0000
0000
0000
0000
0000
0000
0000
0000
0000
0000
0000
0000
0000
0000
0000
1000
0000
0000
0000
0000
0000
0000
0000
0000
0000
0010
0000
0000
0000
0000
0000
0000
0000
0000
0100
0000
0000
0000
0000
0000
0000
0000
0000
0000
0000
0000
0000
0000
0000
0000
0000
0000
0000
0000
0000
0000
0000
0000
0000
0000
0000
0000
0000
,
0001
0000
0000
0000
0000
0000
0000
0000
0000
0000
0010
0000
0000
0000
0000
0000
0000
0000
0000
0100
0000
0000
0000
0000
0000
0000
0000
0000
0000
0000
0000
0000
0000
0000
0000
0000
0000
0000
0000
0000
0000
0000
0000
0000
0000
0000
0000
0000
0010
0000
0000
0000
0000
0000
0000
0000
0000
0000
0001
0000
0000
0000
0000
0000
0000
0000
0000
0100
0000
0000
0000
0000
0000
0000
0000
0000
0000
0000
0000
0000
0000
0000
0000
0000
0000
0000
0000
0000
0000
0000
0000
0000
0000
0000
0000
0000
0010
0000
0000
0000
0000
0000
0000
0000
0000
0000
1000
0000
0000
0000
0000
0000
0000
0000
0000
0100
0000
0000
0000
0000
0000
0000
0000
0000
0000
0000
0000
0000
0000
0000
0000
0000
0000
0000
0000
0000
0000
0000
0000
0000
0000
0000
0000
0000
0010
0000
0000
0000
0000
0000
0000
0000
0000
0000
0100
0000
0000
0000
0000
0000
0000
0000
0000
1000
0000
0000
0000
0000
0000
0000
0000
0000
0000
0000
0000
0000
0000
0000
0000
0000
0000
0000
0000
0000
0000
0000
0000
0000
0000
0000
0000
0000
,
0001
0000
0000
0000
0000
0000
0000
0000
0000
0000
0100
0000
0000
0000
0000
0000
0000
0000
0000
0010
0000
0000
0000
0000
0000
0000
0000
0000
0000
0000
0000
0000
0000
0000
0000
0000
0000
0000
0000
0000
0000
0000
0000
0000
0000
0000
0000
0000
1000
0000
0000
0000
0000
0000
0000
0000
0000
0000
0100
0000
0000
0000
0000
0000
0000
0000
0000
0010
0000
0000
0000
0000
0000
0000
0000
0000
0000
0000
0000
0000
0000
0000
0000
0000
0000
0000
0000
0000
0000
0000
0000
0000
0000
0000
0000
0000
0001
0000
0000
0000
0000
0000
0000
0000
0000
0000
0100
0000
0000
0000
0000
0000
0000
0000
0000
0010
0000
0000
0000
0000
0000
0000
0000
0000
0000
0000
0000
0000
0000
0000
0000
0000
0000
0000
0000
0000
0000
0000
0000
0000
0000
0000
0000
0000
1000
0000
0000
0000
0000
0000
0000
0000
0000
0000
0100
0000
0000
0000
0000
0000
0000
0000
0000
0010
0000
0000
0000
0000
0000
0000
0000
0000
0000
0000
0000
0000
0000
0000
0000
0000
0000
0000
0000
0000
0000
0000
0000
0000
0000
0000
0000
0000
,
0001
0000
0000
0000
0000
0000
0000
0000
0000
0000
0100
0000
0000
0000
0000
0000
0000
0000
0000
0010
0000
0000
0000
0000
0000
0000
0000
0000
0000
0000
0000
0000
0000
0000
0000
0000
0000
0000
0000
0000
0000
0000
0000
0000
0000
0000
0000
0000
0100
0000
0000
0000
0000
0000
0000
0000
0000
0000
0001
0000
0000
0000
0000
0000
0000
0000
0000
0010
0000
0000
0000
0000
0000
0000
0000
0000
0000
0000
0000
0000
0000
0000
0000
0000
0000
0000
0000
0000
0000
0000
0000
0000
0000
0000
0000
0000
0100
0000
0000
0000
0000
0000
0000
0000
0000
0000
1000
0000
0000
0000
0000
0000
0000
0000
0000
0010
0000
0000
0000
0000
0000
0000
0000
0000
0000
0000
0000
0000
0000
0000
0000
0000
0000
0000
0000
0000
0000
0000
0000
0000
0000
0000
0000
0000
0100
0000
0000
0000
0000
0000
0000
0000
0000
0000
0001
0000
0000
0000
0000
0000
0000
0000
0000
1000
0000
0000
0000
0000
0000
0000
0000
0000
0000
0000
0000
0000
0000
0000
0000
0000
0000
0000
0000
0000
0000
0000
0000
0000
0000
0000
0000
0000
,
1000
0100
0000
0000
0001
0100
0000
0000
1000
0100
0000
0000
0001
0100
0000
0000
1000
0010
0000
0000
0001
0010
0000
0000
,
1000
0010
0000
0000
0001
0010
0000
0000
1000
0100
0000
0000
0001
0100
0000
0000
1000
0010
0000
0000
0001
0010
0000
0000
,
1000
0100
0001
0100
1000
0010
0100
1000
0001
0010
0100
0001
,
2000
0000
3001
0000
,
2100
0000
0000
0000
3001
0010
0200
1000
0000
0000
0310
0001
1000
0000
0020
0000
,
0000
0000
0031
0000
0010
0000
0100
0001
0000
0001
1000
0000
0010
0000
2010
0000
,
0000
0000
3001
0100
0020
1000
0000
0000
0130
0001
0010
0000
0200
0000
0000
0000
,
0310
0000
1000
0000
0010
0001
0000
1000
0010
0100
0010
0100
0002
0000
0000
0000
,
1003
0010
0200
0001
0000
0000
0310
1000
0001
0000
0020
0000
0000
0000
1030
0000
,
0010
0000
0100
1000
0000
1000
0001
0000
0010
0000
0012
0000
0000
0000
1003
0100
,
0020
0001
0000
0000
0130
1000
0010
0000
0200
0000
0000
0000
0310
0000
0001
0000
,
0010
1000
0000
0001
0010
0100
0010
0100
2000
0000
0000
0000
3001
0100
0020
1000
,
0000
0000
0130
0001
0010
0100
0020
0000
0000
0000
0031
0000
0011
0000
0010
0001
,
0100
0010
1000
0100
0010
0001
0200
0000
0310
0001
0010
0100
0001
1000
0100
0010
,
0100
0001
1000
0010
0100
1000
0001
0100
0010
0001
1000
0100
0010
1000
0001
1000
,
0001
0010
0100
1000
0020
0000
0000
0000
1030
0100
0020
0001
0000
0000
0130
0000
,
1000
0010
0000
0110
0000
0000
1001
0000
0000
0011
0000
0000
0010
0100
0010
0001
,
1000
0001
0200
0000
0000
0000
0310
1000
0200
0000
0000
0000
0310
0001
0010
0000
,
0200
0000
0000
0000
1300
0000
0010
0000
0001
0010
0100
0010
1000
0001
0010
0100
,
1000
0000
0001
0010
1000
0000
0010
0000
0001
0000
0100
0000
0010
0000
0001
0000
,
2000
0000
0000
3100
0020
0000
0000
0000
2030
0000
0000
0000
0010
0000
0000
0000
,
0010
0010
0010
0010
,
3010
0000
1000
0000
0000
0000
0001
0000
0010
0000
0001
0000
1000
0100
1000
0000
,
0000
0000
0000
0010
0000
0000
0100
0000
0000
0001
0000
0000
1000
0000
0000
0100
0000
0000
0010
0000
0000
0001
0000
0000
1000
0000
0000
0010
0000
0000
0100
0000
0000
0010
0000
0000
2000
0000
0000
0000
0000
0000
0000
0000
0100
0000
0000
0000
,
0000
0100
0000
3002
0000
0100
0000
0100
0000
2003
0000
0010
,
0000
0010
0000
3002
0000
0010
0000
0010
0000
2003
0000
0100
,
0000
0000
0100
0000
0000
0000
3002
0000
0000
0000
0103
0000
0000
0100
0000
0000
0010
0000
2000
0000
0000
0000
0010
0000
,
0000
0010
0000
3002
0000
0010
2003
0000
0010
3002
0000
0010
,
0003
0000
2000
0000
0000
0000
0010
0000
0000
0000
3001
0000
0000
0100
0000
0000
0010
0000
1000
0000
1000
0000
0100
0000
,
0010
0001
0100
0010
0001
1000
0100
0010
1000
0001
0010
0100
,
0001
0100
0010
0100
1000
0010
0100
0010
0001
1000
0100
0010
,
1000
0001
0010
0100
0001
1000
0010
0100
1000
0001
0100
0010
,
0001
0010
0000
0000
0220
0330
0000
0202
0303
0000
2002
3003
,
0001
0000
0101
0000
0000
0000
0100
0000
0010
1000
0100
0000
0000
0000
1000
0100
0010
0100
0010
0000
0100
1000
0001
0000
,
0100
0000
0010
0100
0010
0100
0001
0010
0100
1000
0001
0000
0001
0000
0010
0000
0000
0000
0100
1000
0100
1000
0001
0010
,
0001
0010
0100
0000
0000
0000
1000
0000
0001
0000
1000
0000
0010
0000
0001
0000
1000
0000
0100
0000
0010
0000
1000
0000
,
1010
0000
0000
0000
0010
1000
0100
0000
0010
0000
0100
0000
0000
0000
0010
0000
0100
0000
1000
0001
1000
0001
1000
0010
,
0100
0010
1000
0200
0000
0000
1300
0001
0010
0100
1000
0000
0000
0000
0001
0100
0010
1000
0001
0000
0000
0000
1000
0100
,
0010
0001
1000
0010
1000
0010
0100
0010
0100
0010
2000
0000
0000
0000
3002
0000
0000
0000
0000
0000
0000
0000
0000
0000
,
0000
0000
0000
0000
0000
0000
0000
0000
0000
0000
1003
1001
;

//---------------dance-single - MEGAtive----------------
#NOTES:
     dance-single:
     :
     Challenge:
     19:
     1.065982,1.377948,0.572418,0.354354,1.870579,1095.000000,1011.000000,84.000000,52.000000,4.000000,0.000000,1.065982,1.377948,0.572418,0.354354,1.870579,1095.000000,1011.000000,84.000000,52.000000,4.000000,0.000000:
// measure 0
0000
0000
0000
0000
,  // measure 1
0000
0000
0000
0000
,  // measure 2
0000
0000
0000
0000
,  // measure 3
0000
0000
0000
0000
,  // measure 4
1001
0000
0001
0010
0001
0100
0010
0000
0100
0010
1000
0100
0010
0000
0100
1000
,  // measure 5
0001
1000
0010
0000
0100
0001
1000
0100
0010
0000
0100
1000
0001
0100
0010
0000
,  // measure 6
0100
0001
1000
0100
1000
0000
0001
0010
0100
1000
0010
0000
0100
0001
0010
0100
,  // measure 7
0010
0000
0100
1000
0010
0100
0001
0000
1000
0010
1000
0100
0010
0000
0100
1000
,  // measure 8
0001
1000
0010
0000
0100
0001
0010
0100
1000
0000
0100
1000
0010
0100
0010
0000
,  // measure 9
1000
0010
0100
0001
0010
0000
0100
0010
0001
0100
0010
0000
1000
0010
0100
0001
,  // measure 10
2000
0000
3001
0010
1000
0000
0010
0001
1000
0001
0100
0000
1000
0000
0100
0000
,  // measure 11
0020
0000
0000
0000
0000
0000
0000
0000
0000
0000
0000
0000
0000
0000
0000
0000
0000
0000
0000
0000
0000
0000
0000
0000
0000
0000
0000
0000
0000
0000
0000
0000
0000
0000
0000
0000
1030
0000
0000
0000
0000
0000
0000
0000
0000
0000
0000
0000
0200
0000
0000
0000
0000
0000
0000
0000
0000
0000
0000
0000
0000
0000
0000
0000
0000
0000
0000
0000
0000
0000
0000
0000
0000
0000
0000
0000
0000
0000
0000
0000
0000
0000
0000
0000
0000
0000
0000
0000
0000
0000
0000
0000
0000
0000
0000
0000
0310
0000
0000
0000
0000
0000
0000
0000
0000
0000
0001
0000
0000
0000
0000
0000
0000
0000
0000
0010
0000
0000
0000
0000
0000
0000
0000
0000
0000
0001
0000
0000
0000
0000
0000
0000
0000
0000
0010
0000
0000
0000
0000
0000
0000
0000
0000
0000
0100
0000
0000
0000
0000
0000
0000
0000
0010
0000
0000
0000
0000
0000
0000
0000
0001
0000
0000
0000
0000
0000
0000
0000
0010
0000
0000
0000
0000
0000
0000
0000
0001
0000
0000
0000
0000
0000
0000
0000
0010
0000
0000
0000
0000
0000
0000
0000
,  // measure 12
0100
0000
0000
0000
0000
0000
0000
0000
0000
0000
0010
0000
0000
0000
0000
0000
0000
0000
0000
0001
0000
0000
0000
0000
0000
0000
0000
0000
0000
0010
0000
0000
0000
0000
0000
0000
0000
0000
0001
0000
0000
0000
0000
0000
0000
0000
0000
0000
1000
0000
0000
0000
0000
0000
0000
0000
0000
0000
0000
0000
0100
0000
0000
0000
0000
0000
0000
0000
0000
0000
0000
0000
0010
0000
0000
0000
0000
0000
0000
0000
0000
0000
0000
0000
0001
0000
0000
0000
0000
0000
0000
0000
0000
0000
0000
0000
0100
0000
0000
0000
0000
0000
0000
0000
0000
0000
0000
0000
0000
0000
0000
0000
0010
0000
0000
0000
0000
0000
0000
0000
0000
0000
0000
0000
0000
0000
0000
0000
0001
0000
0000
0000
0000
0000
0000
0000
0000
0000
0000
0000
0000
0000
0000
0000
2000
0000
0000
0000
0000
0000
0000
0000
0000
0000
0000
0000
0000
0000
0000
0000
0000
0000
0000
0000
0000
0000
0000
0000
3200
0000
0000
0000
0000
0000
0000
0000
0000
0000
0000
0000
0000
0000
0000
0000
0000
0000
0000
0000
0000
0000
0000
0000
,  // measure 13
0310
0000
0100
0000
0001
0000
1000
0000
0100
0000
0010
0000
0001
1000
0100
0010
,  // measure 14
0100
0000
1000
0010
0100
0010
0100
0001
1000
0100
0010
0100
1000
0000
0000
1000
,  // measure 15
0000
0000
0000
0000
1000
0000
0000
0000
0000
0000
1000
0000
0000
0000
0000
0000
1000
0000
0001
0000
1000
0000
0001
0000
1000
0001
1000
0000
0001
0000
1000
0000
,  // measure 16
0001
0000
0000
0000
0000
0000
0000
0000
0000
0000
0000
0000
0000
0000
0000
0000
0000
0000
0000
0000
0000
0000
0000
0000
0000
0000
0000
0000
0000
0000
0000
0000
0000
0000
0000
0000
0000
0000
0000
0000
0000
0000
0000
0000
0000
0000
0000
0000
1100
0000
0000
0000
0000
0000
0000
0000
0000
0000
0000
0000
0000
0000
0000
0000
0000
0000
0000
0000
0000
0000
0000
0000
0000
0000
0000
0000
0000
0000
0000
0000
0000
0000
0000
0000
0000
0000
1000
0000
0000
0000
0000
0000
0000
0000
0000
0000
0000
0000
0000
0000
0000
0000
0000
0000
0000
0000
0000
0000
0000
0000
0000
0000
0000
0000
0000
0000
0000
0000
0000
0000
0100
0000
0000
0000
0000
0000
0000
0000
0000
0000
0000
0000
0000
0000
0000
0000
0000
0000
0000
0000
0010
0000
0000
0000
0000
0000
0000
0000
0000
0000
0000
0000
0000
0000
0000
0000
0000
0000
0100
0000
0000
0000
0000
0000
0000
0000
0000
0000
0000
0000
0000
0000
0000
0000
0000
0000
1000
0000
0000
0000
0000
0000
0000
0000
0000
0000
0000
0000
0000
0000
0000
0000
,  // measure 17
0001
0000
0000
0000
0000
0000
0000
0000
0000
0000
0000
0000
0000
0000
0000
0000
0000
0000
0000
0000
0100
0000
0000
0000
0000
0000
0000
0000
0010
0000
0000
0000
0000
0000
0000
0000
0000
0000
0100
0000
0000
0000
0000
0000
0000
0000
0000
0000
0000
0000
0000
0000
0000
0000
0000
0000
0001
0000
0000
0000
0000
0000
0000
0000
0000
0000
0000
0000
0000
0000
0000
0000
0000
0000
0010
0000
0000
0000
0000
0000
0000
0000
0000
0000
0100
0000
0000
0000
0000
0000
0000
0000
1000
0000
0000
0000
0000
0000
0000
0000
0000
0000
0000
0000
0000
0000
0000
0000
0000
0000
1100
0000
0000
0000
0000
0000
0000
0000
0000
0000
0000
0000
0000
0000
0000
0000
0000
0000
0100
0000
0000
0000
0000
0000
0000
0000
0000
0000
0000
0000
0000
0000
0000
0000
0000
1000
0000
0000
0000
0000
0000
0000
0000
0000
0000
0000
0000
0000
0000
0000
0000
0000
0000
0000
0010
0000
0000
0000
0000
0000
0000
0000
0000
0000
0000
0000
0000
0000
0000
0000
0000
0100
0000
0000
0000
0000
0000
0000
0000
0000
0001
0000
,  // measure 18
0000
0000
0000
0000
0000
0000
0000
1000
0000
0000
0000
0000
0000
0001
0000
0000
0000
0000
0000
1000
0000
0000
0000
0000
0000
0001
0000
0000
0000
0000
0000
0000
0000
0000
0000
0000
0000
0000
0000
0000
0000
0000
1000
0000
0000
0000
0000
0000
0000
0000
0000
0000
0000
0000
0000
0000
0000
0000
0000
0000
0000
0100
0000
0000
0000
0000
0000
0000
0000
0000
0000
0000
0000
0000
0000
0000
0000
0000
0000
0000
0010
0000
0000
0000
0000
0000
0000
0000
0000
0000
0000
0000
0000
0000
0000
0000
0000
0110
0000
0000
0000
0000
0000
0000
0000
0000
0000
0000
0000
0000
0000
0000
0000
0000
0100
0000
0000
0000
0000
0000
0000
0000
0000
1000
0000
0000
0000
0000
0000
0000
0000
0000
0000
0001
0000
0000
0000
0000
0000
0000
0000
0000
0000
0000
0000
0000
0000
0000
0000
0000
0100
0000
0000
0000
0000
0000
0000
0000
0000
0000
0000
0000
0000
0000
0000
0000
0010
0000
0000
0000
0000
0000
0000
0000
0000
0000
0000
0000
0000
0000
0000
0000
0000
0000
0000
0000
1000
0000
0000
0000
0000
0000
,  // measure 19
0000
0000
0000
0000
0000
0000
0000
0000
0000
0000
0000
0000
0000
0001
0000
0000
0000
0000
0000
0000
0000
0000
0000
0000
0000
0000
0000
0000
0000
0000
0000
0010
0000
0000
0000
0000
0000
0100
0000
0000
0000
0000
0000
0010
0000
0000
0000
0000
0000
0100
0000
0000
0000
0000
0000
0000
0000
0000
0000
0000
0000
0000
0000
0000
0000
0000
1000
0000
0000
0000
0000
0000
0000
0000
0000
0000
0000
0000
0000
0000
0000
0000
0000
0000
0001
0000
0000
0000
0000
0000
0000
0000
0000
1000
0000
0000
0000
0000
0000
0000
0000
0000
0001
0000
0000
0000
0000
0000
0000
0000
0000
1000
0000
0000
0000
0000
0000
0000
0000
0000
0000
0010
0000
0000
0000
0000
0000
0000
0000
0000
0000
0000
0000
0000
0000
0000
0000
0000
0010
0000
0000
0000
0000
0000
0000
0000
0000
0000
0000
0000
0000
0000
0000
0000
0000
0000
0000
0000
0100
0000
0000
0000
0000
0000
0000
0000
0000
0000
0000
0000
0000
0000
0000
0000
0001
0000
0000
0000
0000
0000
0000
0000
0000
0000
0000
0000
0000
0000
0000
0000
0000
0000
,  // measure 20
0010
0100
1000
1100
0000
0000
1000
0010
0100
1000
0001
0010
0110
0000
0100
0000
,  // measure 21
0101
0000
0000
0000
0000
0000
0001
0000
0000
1000
0000
0000
0100
0000
0010
0000
0100
0000
1000
0000
0000
0001
0000
0000
1000
0000
0000
0010
0000
0000
0100
0000
0000
1000
0000
0000
0100
0000
0000
0010
0000
0000
1000
0000
0000
0001
0000
0000
,  // measure 22
0010
0000
0100
0000
0010
0M00
0010
0000
1000
0010
0100
0010
0100
1000
0100
0000
,  // measure 23
0010
0M00
0010
0000
0100
1000
0001
0010
0100
0010
1000
0001
0100
0000
0010
0000
,  // measure 24
0001
0000
1001
0000
1000
0010
0100
0000
0110
0000
0010
1000
0001
1000
0100
0010
,  // measure 25
0001
0100
0010
1000
0100
0000
1100
0000
1000
0001
0100
0010
0100
0000
0101
0000
,  // measure 26
0001
1000
2200
0000
3300
0000
0101
0000
0001
0000
1001
0000
1000
0000
1100
0000
,  // measure 27
0110
0000
0010
0001
0100
0000
1000
0000
0100
0010
1000
0000
1100
0000
0100
0010
,  // measure 28
0001
0000
1000
0010
0100
0010
0001
1000
0100
0000
0010
1000
0010
0000
1010
0000
,  // measure 29
0000
1001
0000
0000
0001
0000
0010
0100
0010
0000
0110
0000
0000
0100
1000
0010
,  // measure 30
0100
0000
0001
0100
0001
0000
0101
0000
0000
1000
0100
0010
0001
0100
0010
0100
,  // measure 31
0010
0000
0000
0000
0000
0000
0000
0000
0000
0000
0000
0000
1000
0000
0000
0000
0000
0000
0000
0000
0000
0000
0000
0000
0010
0000
0000
0000
0000
0000
0000
0000
0000
0000
0000
0000
0000
0000
0000
0000
0000
0000
0000
0000
0000
0000
0000
0000
0000
0000
0000
0000
0000
0000
0000
0000
0000
0000
0000
0000
0000
0000
0000
0000
0000
0000
0000
0000
0000
0000
0000
0000
0000
0000
0000
0000
0000
0000
0000
0000
0000
0000
0000
0000
0000
0000
0000
0000
0000
0000
0000
0000
0000
0000
0000
0000
1000
0000
0000
0000
0000
0000
0000
0000
0100
0000
0000
0000
0000
0000
0000
0000
0001
0000
0000
0000
0000
0000
0000
0000
0000
0000
0000
0000
0000
0000
0000
0000
0000
0000
0000
0000
0001
0000
0000
0000
0000
0000
0000
0000
0100
0000
0000
0000
0000
0000
0000
0000
1000
0000
0000
0000
0000
0000
0000
0000
0000
0000
0000
0000
0000
0000
0000
0000
0000
0000
0000
0000
1000
0000
0000
0000
0000
0000
0100
0000
0000
0000
0000
0000
0001
0000
0000
0000
0000
0000
0000
0000
0000
0000
0000
0000
,  // measure 32
0200
0000
0000
0000
0000
0000
0000
0000
0000
0000
0000
0000
1300
0000
0010
0000
0001
0000
0000
0000
0000
0001
0000
0010
0000
1000
0000
0000
0000
0000
1000
0000
0010
0000
0001
0000
0020
0000
0000
0000
0000
0000
0000
0000
0000
0000
0000
0000
,  // measure 33
1030
0000
0100
0000
0010
0000
0000
0000
0000
0001
0000
0100
0000
0010
0000
0000
0000
0000
1000
0000
0100
0000
0010
0000
0000
0000
0000
0100
0000
1000
0000
0010
0000
0000
0000
0000
0100
0000
0001
0000
0010
0000
0000
0000
0000
0100
0000
1000
,  // measure 34
0000
0010
0000
0000
0000
0000
1000
0000
0010
0000
0100
0000
0002
0000
0000
0000
0000
0000
0003
0000
0000
0000
0000
0000
0101
0000
0000
0000
0000
0000
2010
0000
0000
0000
0000
0000
0000
0000
0000
0000
0000
0000
0000
0000
0000
0000
0000
0000
,  // measure 35
3000
0000
0000
0000
0000
0000
1100
0000
0000
0000
0000
0000
0012
0000
0000
0000
0000
0000
0000
0000
0000
0000
0000
0000
0000
0000
0000
0000
0000
0000
0000
0000
0000
0000
0000
0000
1003
0000
0010
0000
0001
0000
0000
0000
0000
0001
0000
0010
,  // measure 36
0000
1000
0000
0000
0000
0000
1000
0000
0100
0000
0001
0000
0000
0000
0000
0001
0000
0100
0000
1000
0000
0000
0000
0000
1000
0000
0000
0001
0000
0000
0100
0000
0000
0010
0000
0000
1000
0000
0100
0000
1000
0000
0100
0000
1000
0000
0100
0000
,  // measure 37
1000
0000
0000
0000
1000
0000
0010
0M00
0010
0000
0001
0000
1000
0000
0100
0000
,  // measure 38
0001
0000
0100
0000
1000
0000
0010
0000
0100
0000
0001
0000
1000
0000
0100
00M0
,  // measure 39
0100
0000
0001
0000
1000
0000
0010
0000
0100
1000
0100
0001
0010
1000
0010
0001
,  // measure 40
1000
0100
0010
0001
1001
0000
1000
0000
0000
0000
0001
0000
0100
0000
1000
0000
,  // measure 41
0001
0010
0100
0001
1000
0100
0010
0001
1000
0001
0100
0010
,  // measure 42
1000
0000
0000
0000
0000
0000
0000
0000
0000
0000
0010
0000
0000
0000
0000
0000
0000
0000
0000
1000
0000
0000
0000
0000
0000
0000
0000
0000
0000
0010
0000
0000
0000
0000
0000
0000
0000
0000
1000
0000
0000
0000
0000
0000
0000
0000
0000
0000
0100
0000
0000
0000
0000
0000
0000
0000
1000
0000
0000
0000
0000
0000
0000
0000
0010
0000
0000
0000
0000
0000
0000
0000
1000
0000
0000
0000
0000
0000
0000
0000
0010
0000
0000
0000
0000
0000
0000
0000
1000
0000
0000
0000
0000
0000
0000
0000
0100
0000
0000
0000
0000
0000
0000
0000
0000
0000
1000
0000
0000
0000
0000
0000
0000
0000
0000
0010
0000
0000
0000
0000
0000
0000
0000
0000
0000
1000
0000
0000
0000
0000
0000
0000
0000
0000
0010
0000
0000
0000
0000
0000
0000
0000
0000
0000
0100
0000
0000
0000
0000
0000
0000
0000
0000
0000
0000
0000
0001
0000
0000
0000
0000
0000
0000
0000
0000
0000
0000
0000
0010
0000
0000
0000
0000
0000
0000
0000
0000
0000
0000
0000
1000
0000
0000
0000
0000
0000
0000
0000
0000
0000
0000
0000
,  // measure 43
0001
0100
1000
0002
0000
0000
1003
0000
0000
1001
0000
0000
,  // measure 44
0001
0000
0000
0000
0000
0000
0000
0000
0000
0000
0010
0000
0000
0000
0000
0000
0000
0000
0000
0001
0000
0000
0000
0000
0000
0000
0000
0000
0000
0010
0000
0000
0000
0000
0000
0000
0000
0000
0001
0000
0000
0000
0000
0000
0000
0000
0000
0000
1000
0000
0000
0000
0000
0000
0000
0000
0000
0000
0100
0000
0000
0000
0000
0000
0000
0000
0000
1000
0000
0000
0000
0000
0000
0000
0000
0000
0000
0100
0000
0000
0000
0000
0000
0000
0000
0000
1000
0000
0000
0000
0000
0000
0000
0000
0000
0000
0001
0000
0000
0000
0000
0000
0000
0000
0000
0000
0010
0000
0000
0000
0000
0000
0000
0000
0000
0001
0000
0000
0000
0000
0000
0000
0000
0000
0000
0010
0000
0000
0000
0000
0000
0000
0000
0000
0001
0000
0000
0000
0000
0000
0000
0000
0000
0000
1000
0000
0000
0000
0000
0000
0000
0000
0000
0000
0100
0000
0000
0000
0000
0000
0000
0000
0000
1000
0000
0000
0000
0000
0000
0000
0000
0000
0000
0100
0000
0000
0000
0000
0000
0000
0000
0000
1000
0000
0000
0000
0000
0000
0000
0000
0000
0000
,  // measure 45
0001
0000
0000
0000
0000
0000
0000
0000
0000
0000
0010
0000
0000
0000
0000
0000
0000
0000
0000
0001
0000
0000
0000
0000
0000
0000
0000
0000
0000
0010
0000
0000
0000
0000
0000
0000
0000
0000
0001
0000
0000
0000
0000
0000
0000
0000
0000
0000
1000
0000
0000
0000
0000
0000
0000
0000
0000
0000
0010
0000
0000
0000
0000
0000
0000
0000
0000
0100
0000
0000
0000
0000
0000
0000
0000
0000
0000
0001
0000
0000
0000
0000
0000
0000
0000
0000
1000
0000
0000
0000
0000
0000
0000
0000
0000
0000
0100
0000
0000
0000
0000
0000
0000
0000
0000
0000
0001
0000
0000
0000
0000
0000
0000
0000
0000
0100
0000
0000
0000
0000
0000
0000
0000
0000
0000
0010
0000
0000
0000
0000
0000
0000
0000
0000
0100
0000
0000
0000
0000
0000
0000
0000
0000
0000
1000
0000
0000
0000
0000
0000
0000
0000
0000
0000
0001
0000
0000
0000
0000
0000
0000
0000
0000
0100
0000
0000
0000
0000
0000
0000
0000
0000
0000
0010
0000
0000
0000
0000
0000
0000
0000
0000
1000
0000
0000
0000
0000
0000
0000
0000
0000
0000
,  // measure 46
0001
0000
0000
0000
0000
0000
0000
0000
0000
0000
0100
0000
0000
0000
0000
0000
0000
0000
0000
0001
0000
0000
0000
0000
0000
0000
0000
0000
0000
0100
0000
0000
0000
0000
0000
0000
0000
0000
0001
0000
0000
0000
0000
0000
0000
0000
0000
0000
1000
0000
0000
0000
0000
0000
0000
0000
0000
0000
0010
0000
0000
0000
0000
0000
0000
0000
0000
1000
0000
0000
0000
0000
0000
0000
0000
0000
0000
0010
0000
0000
0000
0000
0000
0000
0000
0000
1000
0000
0000
0000
0000
0000
0000
0000
0000
0000
0001
0000
0000
0000
0000
0000
0000
0000
0000
0000
0100
0000
0000
0000
0000
0000
0000
0000
0000
0001
0000
0000
0000
0000
0000
0000
0000
0000
0000
1000
0000
0000
0000
0000
0000
0000
0000
0000
0100
0000
0000
0000
0000
0000
0000
0000
0000
0000
1000
0000
0000
0000
0000
0000
0000
0000
0000
0000
0001
0000
0000
0000
0000
0000
0000
0000
0000
0100
0000
0000
0000
0000
0000
0000
0000
0000
0000
0001
0000
0000
0000
0000
0000
0000
0000
0000
1000
0000
0000
0000
0000
0000
0000
0000
0000
0000
,  // measure 47
0100
0000
0000
0000
0000
0000
0000
0000
0000
0000
0010
0000
0000
0000
0000
0000
0000
0000
0000
0100
0000
0000
0000
0000
0000
0000
0000
0000
0000
0010
0000
0000
0000
0000
0000
0000
0000
0000
0100
0000
0000
0000
0000
0000
0000
0000
0000
0000
1000
0000
0000
0000
0000
0000
0000
0000
0000
0000
0001
0000
0000
0000
0000
0000
0000
0000
0000
1000
0000
0000
0000
0000
0000
0000
0000
0000
0000
0001
0000
0000
0000
0000
0000
0000
0000
0000
1000
0000
0000
0000
0000
0000
0000
0000
0000
0000
0010
0000
0000
0000
0000
0000
0000
0000
0000
0000
0100
0000
0000
0000
0000
0000
0000
0000
0000
1000
0000
0000
0000
0000
0000
0000
0000
0000
0000
0001
0000
0000
0000
0000
0000
0000
0000
0000
0010
0000
0000
0000
0000
0000
0000
0000
0000
0000
0100
0000
0000
0000
0000
0000
0000
0000
0000
0000
0001
0000
0000
0000
0000
0000
0000
0000
0000
1000
0000
0000
0000
0000
0000
0000
0000
0000
0000
0100
0000
0000
0000
0000
0000
0000
0000
0000
0010
0000
0000
0000
0000
0000
0000
0000
0000
0000
,  // measure 48
0001
0010
1000
0000
0001
0100
1000
0000
0001
0010
1000
0000
0001
0100
1000
0000
0001
0010
1000
0000
0001
0100
1000
0000
,  // measure 49
0001
0100
1000
0000
0001
0010
1000
0000
0001
0100
1000
0000
0001
0010
1000
0000
0001
0100
1000
0000
0001
0010
1000
0000
,  // measure 50
0001
1000
0001
0000
0010
0000
1000
0010
0100
0000
1000
0001
1000
0000
0010
0100
1000
0000
0100
0000
0010
0000
0100
0000
,  // measure 51
0102
0000
0103
0000
,  // measure 52
2010
0000
0001
0000
3001
0010
2000
0010
0000
0000
3010
0001
0100
0000
2000
0000
,  // measure 53
0000
0000
3100
0000
0100
0000
0010
2000
0000
3100
0010
0000
0110
0000
0012
0000
,  // measure 54
0000
0000
1003
0010
0002
0010
0000
0000
0013
1000
0100
0000
0002
0000
0000
0000
,  // measure 55
0103
0000
0100
0000
1000
0020
0000
0031
0010
0100
0010
1000
0002
0000
1000
0000
,  // measure 56
1003
0010
0002
0010
0000
0000
0013
1000
0100
0000
0002
0000
0000
0000
0103
0000
,  // measure 57
0100
0000
0010
0002
0000
0103
0010
0000
0110
0000
2010
0000
0001
0000
3001
0010
,  // measure 58
2000
0010
0000
0000
3010
0001
0100
0000
2000
0000
0000
0000
3100
0000
0100
0000
,  // measure 59
0010
2000
0000
3100
0020
0000
0130
1000
0002
0000
1000
0000
1003
0100
0002
0100
,  // measure 60
0000
0000
0103
1000
0001
1000
0020
0000
0000
0000
0130
0000
0100
0000
0001
0020
,  // measure 61
0000
0000
0000
1030
0000
0000
0010
0000
0000
0001
0000
0000
1000
0000
0000
0000
0000
0000
1010
0000
0000
0000
0000
0000
0010
0000
0000
0100
0000
0000
0001
0000
0000
1000
0000
0000
0100
0000
0010
0000
0100
0000
1000
0000
0000
0001
0000
0000
,  // measure 62
0100
0000
0010
0000
0100
0000
0001
0000
0000
0010
0000
0000
0100
0000
1000
0000
0100
0000
0010
0000
0000
0100
0000
0000
1000
0000
0000
0010
0000
0000
0100
0000
0000
1000
0000
0000
0001
0000
0000
0010
0000
0000
0100
0000
0000
0001
0000
0000
,  // measure 63
1000
0100
0001
0100
2000
0000
0001
0000
3001
0100
2000
0100
0000
0000
3100
0000
,  // measure 64
0100
0001
0000
0101
0000
1000
1010
0000
0001
0011
0000
1000
1100
0000
0110
0000
,  // measure 65
0011
0000
0020
0000
0000
0000
0130
1000
0020
0000
0000
0000
0130
1000
0100
0000
,  // measure 66
0120
0000
0000
0000
1030
0000
0001
0000
1000
0200
0000
0301
0100
1000
0001
1000
,  // measure 67
1010
0000
1000
0010
0001
0000
0011
0000
0010
1000
0100
0000
1100
0000
1000
0000
,  // measure 68
0020
0000
0000
0000
0000
0000
0000
0000
0000
0000
0000
0000
0000
0000
0000
0000
0000
0000
0000
0000
0000
0000
0000
0000
0100
0000
0000
0000
0000
0000
0000
0000
0000
0000
0000
0000
0000
0000
0000
0000
0000
0000
0000
0000
0000
0000
0000
0000
0130
0000
0000
0000
0000
0000
0000
0000
0000
0000
0000
0000
0001
0000
0000
0000
0000
0000
0000
0000
0000
0000
0000
0000
1000
0000
0000
0000
0000
0000
0000
0000
0000
0000
0000
0000
0100
0000
0000
0000
0000
0000
0000
0000
0000
0000
0000
0000
0010
0000
0000
0000
0000
0000
0000
0000
0000
0000
0001
0000
0000
0000
0000
0000
0000
0000
0000
0010
0000
0000
0000
0000
0000
0000
0000
0000
0000
0001
0000
0000
0000
0000
0000
0000
0000
0000
0010
0000
0000
0000
0000
0000
0000
0000
0000
0000
0100
0000
0000
0000
0000
0000
0000
0000
0010
0000
0000
0000
0000
0000
0000
0000
0001
0000
0000
0000
0000
0000
0000
0000
0010
0000
0000
0000
0000
0000
0000
0000
0001
0000
0000
0000
0000
0000
0000
0000
0010
0000
0000
0000
0000
0000
0000
0000
,  // measure 69
0100
0000
0000
0000
0000
0000
0000
0000
0000
0000
0010
0000
0000
0000
0000
0000
0000
0000
0000
0001
0000
0000
0000
0000
0000
0000
0000
0000
0000
0010
0000
0000
0000
0000
0000
0000
0000
0000
0001
0000
0000
0000
0000
0000
0000
0000
0000
0000
0100
0000
0000
0000
0000
0000
0000
0000
0000
0000
0000
0000
0010
0000
0000
0000
0000
0000
0000
0000
0000
0000
0000
0000
1000
0000
0000
0000
0000
0000
0000
0000
0000
0000
0000
0000
0100
0000
0000
0000
0000
0000
0000
0000
0000
0000
0000
0000
0001
0000
0000
0000
0000
0000
0000
0000
0000
0000
0000
0000
0000
0000
0000
0000
1000
0000
0000
0000
0000
0000
0000
0000
0000
0000
0000
0000
0000
0000
0000
0000
0010
0000
0000
0000
0000
0000
0000
0000
0000
0000
0000
0000
0000
0000
0000
0000
0002
0000
0000
0000
0000
0000
0000
0000
0000
0000
0000
0000
0000
0000
0000
0000
0000
0000
0000
0000
0000
0000
0000
0000
1000
0000
0000
0000
0000
0000
0000
0000
0000
0000
0000
0000
0000
0000
0000
0000
0000
0000
0000
0000
0000
0000
0000
0000
,  // measure 70
1003
0000
0010
0000
0100
0000
0001
0000
0010
0000
1000
0000
0010
0001
1000
0000
,  // measure 71
0000
0000
0000
0010
0000
0000
0001
0000
0000
1000
0000
0000
0100
0000
0000
0001
0000
0000
1000
0000
0000
0100
0000
0000
0010
0000
0000
0001
0000
0000
1000
0000
0000
0001
0000
0000
1001
0000
0000
0000
0000
0000
0000
0000
1010
0000
0000
0000
,  // measure 72
0000
1010
0000
1001
0000
0011
0000
0011
0000
1001
0000
1010
,  // measure 73
0000
1010
0000
1001
0000
0011
0000
0011
0000
1001
0000
0101
,  // measure 74
0000
0000
0101
0000
0000
0000
1001
0000
0000
0000
1100
0000
0000
0100
0000
0000
1000
0000
1001
0000
0000
0000
0101
0000
,  // measure 75
0000
0101
0000
1001
1000
0000
1010
0010
0000
0101
0100
0010
,  // measure 76
1000
0000
1001
0000
0001
0000
0010
0000
0100
0000
1100
0000
0000
1001
0000
0000
0101
0000
0100
0000
0010
0000
1000
0000
,  // measure 77
0001
1001
1000
0100
0001
0100
1000
0010
0001
0010
1000
0001
,  // measure 78
0010
1000
0010
0001
0100
1000
0001
0010
0100
0001
1000
0100
,  // measure 79
0010
0011
0001
0010
1000
0010
0001
0100
1000
0100
0001
0010
,  // measure 80
0100
2200
0000
3300
2002
0000
3003
0202
0000
0303
0110
0100
,  // measure 81
0001
0000
1001
0000
1000
0000
0100
0000
0010
0100
1000
0000
0001
0000
1000
0010
0100
0010
0100
0000
0001
0010
0100
0000
,  // measure 82
1000
0000
0010
0100
0010
1000
0100
0010
0100
1000
0001
0000
0001
0000
0100
0000
0010
0000
1000
0100
0010
0100
0010
0001
,  // measure 83
1000
0001
0100
0000
0001
0000
1000
0000
0010
0000
0100
0000
0101
0000
0001
0000
1001
0000
1000
0000
1100
0000
0100
0000
,  // measure 84
0110
0000
0000
0000
0000
0000
0000
0000
0000
0000
0000
0000
0000
0000
0000
0000
0010
0000
0000
0000
0000
0000
0000
0000
0000
0000
0000
0000
0000
0000
0000
0000
0001
0000
0000
0000
0000
0000
0000
0000
0010
0000
0000
0000
0000
0000
0000
0000
0100
0000
0000
0000
0000
0000
0000
0000
0000
0000
0000
0000
0000
0000
0000
0000
1000
0000
0000
0000
0000
0000
0000
0000
0010
0000
0000
0000
0000
0000
0000
0000
0100
0000
0000
0000
0000
0000
0000
0000
0000
0000
0001
0000
0000
0000
0000
0000
0000
0000
0000
0000
1000
0000
0000
0000
0000
0000
0000
0000
0000
0000
0001
0000
0000
0000
0000
0000
0000
0000
0010
0000
0000
0000
0000
0000
0000
0000
0000
0000
0100
0000
0000
0000
0000
0000
0000
0000
1000
0000
0000
0000
0000
0000
0000
0000
0001
0000
0000
0000
0000
0000
0000
0000
1000
0000
0000
0000
0000
0000
0000
0000
0001
0000
0000
0000
0000
0000
0000
0000
1000
0000
0000
0000
0000
0000
0000
0000
0001
0000
0000
0000
0000
0000
0000
0000
0000
0000
0100
0000
0000
0000
0000
0000
,  // measure 85
0010
1000
0100
0020
0000
0000
0031
0010
1000
0010
0001
1000
0001
1000
0001
0100
1000
0100
0001
1000
0001
1000
0001
0010
,  // measure 86
1000
0010
0001
1000
0001
0100
0010
1000
0010
0100
0002
0000
0000
0000
2003
0000
0000
0000
0000
0000
0000
0000
0000
0000
,  // measure 87
0000
0000
0000
0000
0000
0000
0000
0000
0000
3000
1010
0101
;
