#TITLE:オリガミカル・スウィートラヴ;
#SUBTITLE:;
#ARTIST:かめりあ feat. ななひら;
#TITLETRANSLIT:Origamical sweet love;
#SUBTITLETRANSLIT:;
#ARTISTTRANSLIT:Camellia feat. Nanahira;
#GENRE:;
#CREDIT:;
#MUSIC:Origamical sweet love.ogg;
#BANNER:Origamical sweet love.png;
#BACKGROUND:Origamical sweet love-bg.png;
#CDTITLE:;
#SAMPLESTART:52.597;
#SAMPLELENGTH:15.000;
#SELECTABLE:YES;
#OFFSET:0.508;
#BPMS:0.000=192.000;
#STOPS:;
#DISPLAYBPM:192.000;
#BGCHANGES:;
#FGCHANGES:;

//--------------- dance-single - forcednature ----------------
#NOTES:
     dance-single:
     forcednature:
     Beginner:
     3:
     0,0,0,0,0:
0000
0000
0000
0000
,
0000
0000
0000
0000
,
0000
0000
0000
0000
,
0000
0000
0000
0000
,
0000
0000
0000
0000
,
0000
0000
0000
0000
,
0000
0000
0000
0000
,
0000
0000
0000
0000
,
0000
0000
0000
0000
,
0010
0000
0000
0000
,
0100
0000
0000
0000
,
0001
0000
0000
0000
,
1000
0000
1000
0000
,
1000
0000
0000
0000
,
0001
0000
0000
0000
,
0100
0000
0000
0000
,
0010
0000
0000
0000
,
1001
0000
0000
0000
,
0001
0000
0000
0000
,
1000
0000
0000
0000
,
0010
0000
0000
0000
,
0010
0000
0000
0000
,
0100
0000
0100
0000
,
0100
0000
0000
1001
,
0000
0000
0000
0000
,
1001
0000
0000
0000
,
0010
0000
0000
0000
,
1000
0000
0000
0000
,
0001
0000
0000
0000
,
0010
0000
0000
0000
,
0010
0000
0000
0000
0000
0000
0000
0100
,
0000
0000
0000
0000
0000
0000
0000
2002
,
0000
0000
0000
0000
,
3003
0000
0000
0000
,
0110
0000
0000
0000
,
0001
0000
0000
0000
,
1000
0000
0000
0000
,
0001
0000
0000
0000
,
1000
0000
0000
0000
,
0100
0000
0000
0000
,
0010
0000
0000
0000
,
0100
0000
0000
0100
,
0000
0000
0010
0000
,
1001
0000
0000
0000
,
1000
0000
0000
0000
,
0001
0000
0000
0000
,
0100
0000
0000
0000
,
1001
0000
0000
0000
,
0010
0000
0000
0000
,
1000
0000
0000
0000
,
0001
0000
0000
0000
,
1001
0000
0000
0000
,
0010
0000
0000
0000
,
0100
0000
0000
0000
,
1000
0000
0000
0000
,
0010
0000
0010
0000
,
0100
0000
0000
0000
0000
0000
0000
0001
,
0000
0000
0000
0000
0000
0000
0000
1000
,
0000
0000
0000
0000
0000
0000
0000
1001
,
0000
0000
0000
0000
0000
0000
0000
0010
,
0000
0000
0000
0000
0000
0000
0000
0100
,
0000
0000
0000
0000
0000
0000
0000
0001
,
0000
0000
0000
0000
0000
0000
0000
1000
,
0000
0000
0000
0000
0000
0000
0000
0100
,
0000
0000
0000
0000
0000
0000
0000
0020
,
0000
0000
0000
0000
0000
0000
0000
0130
,
0000
0000
0000
0000
,
1001
0000
0000
0000
,
0100
0000
0000
0000
,
0010
0000
0000
0000
,
0010
0000
0010
0000
,
0010
0000
0000
0000
,
1000
0000
0000
0000
,
0001
0000
0000
0000
,
0100
0000
0000
0100
,
0000
0000
0010
0000
,
0010
0000
0000
0000
,
1000
0000
0000
0000
,
0001
0000
0001
0000
,
0001
0000
0000
0000
,
0000
1001
0000
0000
,
0010
0000
0000
0000
,
0100
0000
0000
0000
,
0010
0000
0000
0000
,
1001
0000
0000
0000
,
1000
0000
0000
0000
,
0010
0000
0000
0000
,
1000
0000
0000
0000
,
0001
0001
0000
0000
,
1000
0000
1000
0000
0000
0000
0000
0100
,
0000
0000
0000
0000
0000
0000
0000
0010
,
0000
0000
0000
0000
0000
0000
0000
0100
,
0000
0000
0000
0000
0000
0000
0000
0010
,
0000
0000
0000
0000
0000
0000
0000
2002
,
0000
0000
0000
0000
,
3003
0000
0000
0000
;

//--------------- dance-single - Kekkle ----------------
#NOTES:
     dance-single:
     Kekkle:
     Easy:
     6:
     0.257647,0.317288,0.083497,0.125245,0,216,206,10,15,0,0,0.257647,0.317288,0.083497,0.125245,0,216,206,10,15,0,0:
0000
0000
0000
0000
,
0000
0000
0000
0000
,
0000
0000
0000
0000
,
0000
0000
0000
0000
,
0000
0000
0000
0000
,
0000
0000
0000
0000
,
0000
0000
0000
0000
,
0000
0000
0000
0000
,
0000
0001
0001
0001
,
1000
0000
0100
0000
,
0010
0001
1000
0000
,
0010
0000
0100
0000
,
0001
0001
1000
1000
,
0100
0000
0010
0000
,
0001
1000
0010
0000
,
1000
0010
0100
0001
,
2000
0000
3001
0000
,
1001
0000
1000
0000
,
0010
0010
0100
0100
,
0002
0000
1003
0000
,
0001
0000
0010
0100
,
2000
0000
3001
0000
,
1000
0010
0100
0000
,
0001
0000
1000
0200
,
0000
0000
0310
0000
,
1001
0000
1000
0000
,
0001
0100
0010
0000
,
2000
0000
3001
0000
,
1000
0000
0000
0100
0000
0100
0000
0200
,
0000
0000
0310
0000
,
0100
0000
1000
0000
0001
0000
0000
0100
,
0000
0000
0000
0010
0000
0000
0000
0200
,
0000
0000
0000
0000
,
0310
1000
0001
0000
,
1001
0000
1000
0000
,
0200
0000
0300
0000
,
0010
0000
0001
0000
,
0200
0000
0300
0000
,
0010
1000
0010
0000
,
0100
0001
0100
0000
,
0001
0000
1000
0000
,
0100
0000
0000
0100
0000
0000
0100
0000
,
0000
0100
0000
0000
0000
0000
0000
0000
,
1001
0000
1000
0000
,
0001
0100
0010
0000
,
0100
0100
0010
0010
,
0100
0000
0001
0000
,
1000
0000
0001
0000
,
0010
0100
1000
0000
,
0001
0000
0010
0100
,
0010
0000
0100
0010
,
0100
0000
1000
0000
,
0001
0100
0010
0000
,
1000
1000
0001
0001
,
0010
0000
0100
0000
,
1000
0000
0010
0000
,
0001
0000
0000
0000
0100
0000
0000
2000
,
0000
0000
0000
0000
,
3001
0000
0000
0000
1000
0000
0000
1001
,
0000
0000
0000
0000
0000
0000
0000
1001
,
0000
0000
0000
0000
0000
0000
0000
1001
,
0000
0000
0000
0000
0000
0000
0000
0001
,
0000
0000
0000
0100
0000
0100
0000
0100
,
0000
0000
0000
0000
0000
0000
0000
0110
,
0000
0000
0000
0000
0000
0000
0000
0110
,
0000
0000
0000
0000
,
0010
1000
0010
1000
,
0001
0000
0010
0000
,
0100
1000
0001
0000
,
0100
0001
1000
0000
,
0010
0000
0000
0100
0000
0100
0000
0100
,
0000
0000
0100
0000
,
0001
1000
0001
1000
,
0100
0000
0010
0000
,
0001
0000
0000
0001
0000
0000
0001
0000
,
0000
0002
0000
0000
0000
0000
1003
0000
,
0001
0000
0100
0000
,
0010
0100
0010
0000
,
1000
0000
0000
0000
0001
0000
0000
0010
,
0000
0010
0000
0010
0000
0000
0000
0000
,
0000
1001
0000
0001
,
1000
0010
0100
0000
,
0001
0000
0010
0100
,
0010
0000
0100
0010
,
0100
0000
1000
0000
,
0001
0100
0010
0000
,
1000
1000
0001
0001
,
0100
0000
0010
0000
,
1000
0000
0100
0000
,
0001
0000
0000
0000
0010
0000
0000
2000
,
0000
0000
0000
0000
3001
0000
0000
0002
,
0000
0000
0000
0000
1003
0000
0000
2000
,
0000
0000
0000
0000
3001
0000
0000
0100
,
0000
0000
0000
0010
0000
0000
0000
0200
,
0000
0000
0000
0000
,
0300
0000
0000
0000
;

//--------------- dance-single - forcednature ----------------
#NOTES:
     dance-single:
     forcednature:
     Medium:
     10:
     0,0,0,0,0:
0000
0000
0000
0000
,
0000
0000
0000
0000
,
0000
0000
0000
0000
,
0000
0000
0000
0000
,
0000
0000
0000
0000
0000
0000
0000
1001
,
0000
0001
0100
0001
0000
1000
0000
1001
,
0000
1000
0100
1000
0000
0010
0000
1001
,
0000
0001
0010
0100
0000
1000
0010
0100
,
0000
0001
0001
0001
0000
1000
1000
0000
,
1001
0000
1000
0000
0100
0010
0100
0000
,
0001
0000
0100
0000
1000
0010
1000
0000
,
0001
0000
0010
0000
0100
1000
0001
0200
,
0000
0320
0000
2030
0000
3002
0000
0013
,
0000
0000
1001
0000
0001
0000
1000
0001
,
0000
0010
0100
0000
0001
0000
0100
1000
,
0000
0100
0010
0001
0000
0100
0010
1000
,
0000
0002
2000
0000
3003
0000
0000
0000
,
1001
0000
0001
0000
0100
0000
0010
1000
,
0000
0010
1000
0000
0001
0010
0001
0000
,
0100
0000
0010
0000
1000
0000
0100
0010
,
0000
0100
0010
0000
0001
1000
0001
2000
,
0000
0010
3001
1000
,
0200
0000
0000
0020
0000
0000
0330
0000
,
0001
0000
1000
0010
0000
0100
0002
0000
,
0000
2000
0000
3003
,
1001
0000
0001
0000
0100
0010
0100
0010
,
0100
0000
0001
0000
0010
0100
1000
0001
,
0000
0000
0100
0000
0100
0001
0100
0000
,
0010
0000
1000
0100
0000
0100
0000
0200
,
0000
0010
0301
0002
,
0203
0000
0000
0010
0000
0310
0000
2002
,
0000
3003
0000
0220
0000
0330
0000
2002
,
0000
0000
0000
0000
3003
0000
0000
0000
1000
0000
0000
1000
0000
0000
1000
0000
,
0001
0000
0000
0001
0000
0000
0001
0000
0010
0000
0000
0000
0100
0000
0000
0000
,
1002
0000
0000
0100
0000
0100
0000
0200
,
0000
0000
0303
0000
,
2001
0000
0000
0100
0000
0100
0000
0100
,
0000
0010
0010
3010
,
0100
1100
0000
0101
,
0010
1010
0000
0011
,
0001
0100
1000
0100
,
0001
0001
0000
1000
1000
0000
0100
0100
,
0000
0010
0010
0000
0001
1000
0001
1000
,
0010
0100
2002
3003
,
1000
0100
1000
0000
0010
0000
0100
0000
,
0001
0010
0001
0000
0100
0000
0010
0000
,
1000
0001
1000
0000
0001
0000
0100
0000
,
0010
0100
2002
3003
,
0001
1000
0010
0010
,
1000
0100
1000
0000
0001
0100
0001
0000
,
0010
0000
0010
0000
0100
0010
0100
0000
,
1000
0001
0220
0330
,
0001
1000
0001
0000
1000
0010
1000
0000
,
0100
0000
0100
0000
0010
0001
0010
0000
,
0001
0000
0001
0000
1000
0010
1000
0000
,
0100
2200
3300
0001
,
0100
0000
0202
0000
0303
0000
1000
0010
,
0000
0000
0010
0000
0100
0000
0000
1001
,
0000
0000
0100
0000
0010
0000
0000
1001
,
0000
0001
0100
0010
0000
1000
0000
1001
,
0000
1000
0100
0010
0000
0001
0000
1001
,
0000
0010
1000
0001
0000
0010
0000
0200
,
0000
2300
0000
3002
0000
0203
0000
0310
,
0000
1000
1000
1000
0000
0010
0000
1001
,
0000
0001
0001
0001
0000
0010
0000
1001
,
0000
1000
0100
1000
0000
0001
0100
0001
,
0000
0010
0010
0000
0100
0100
0000
0000
,
1001
0110
0001
0100
,
0010
0000
1000
0000
0001
1000
0001
2000
,
0000
3100
0010
0100
,
1000
0000
0010
0100
0000
1100
0000
0201
,
0000
0310
1000
1000
,
0001
1000
0001
1000
0010
0100
0010
0200
,
0000
0010
0010
0310
,
0100
1000
0000
0100
0001
0000
1000
0100
,
0000
0001
0100
0000
1000
0001
1000
0001
,
2000
3200
0320
0030
,
0002
0203
0320
0030
,
2000
0000
3002
0000
0023
0000
0130
0110
,
0000
0001
0000
0110
0000
1000
0001
0000
,
0000
0100
0010
0000
2002
0000
3003
0000
,
0010
1000
0010
0000
0100
0001
0100
0001
,
0000
0000
0010
0000
0100
0000
1000
0001
,
0000
0010
0100
0000
1000
0001
1000
0000
,
0010
0100
2002
3003
,
0001
1000
0001
0000
0010
0000
0100
0000
,
1000
0010
1000
0000
0001
0000
0010
0000
,
0100
1000
0010
0000
0100
0001
0010
0000
,
0100
2200
3300
0010
,
0100
0000
0202
0000
0303
0000
1000
0010
,
0000
0000
1000
0000
0001
0000
0000
0110
,
0000
0000
0001
0100
1000
0000
0000
1001
,
0000
0000
0010
0000
0100
0000
0000
1001
,
0000
0010
0000
1100
0000
0010
0000
0102
,
0000
2000
0000
0000
,
3003
0000
0000
0000
;

//--------------- dance-single - Kekkle ----------------
#NOTES:
     dance-single:
     Kekkle:
     Hard:
     13:
     0.653661,0.713898,0.367386,0.751472,0.020874,548,504,44,90,0,0,0.653661,0.713898,0.367386,0.751472,0.020874,548,504,44,90,0,0:
0000
0000
0000
0000
,
0000
0000
0000
0000
,
0000
0000
0000
0000
,
0000
0000
0000
0000
,
0000
0000
0000
0000
0000
0000
0000
1001
,
0000
0001
0100
0010
1000
0001
0000
1001
,
0000
1000
0100
0010
0001
1000
0000
1002
,
0000
0000
0103
0000
0010
1000
0001
0020
,
0000
0130
0010
0100
0010
0100
0010
0000
,
1001
0000
0001
0100
0010
1000
0000
0001
,
0000
1000
0100
0010
0001
1000
0000
0010
,
0000
0100
0001
0100
1000
0100
0010
2000
,
0000
3002
0000
2003
0000
3100
0010
0110
,
0000
0100
1000
0001
0100
0010
0000
0100
,
0000
0010
0100
0010
0001
0010
1000
0002
,
0000
0000
1003
0000
0100
0001
0100
0020
,
0000
0000
0031
0000
1000
0000
0000
0010
0000
0000
0010
0000
0100
0000
0000
0000
,
1001
0000
0001
1000
0100
0010
0100
2000
,
0000
3002
0000
0203
0000
0320
0000
2030
,
0000
0000
3001
0000
0000
0010
0001
0010
,
0200
0000
1300
0001
0000
0100
0000
0020
,
0000
0000
1030
0001
0020
0000
0130
0000
,
1000
0001
1000
0020
0000
0000
0130
0000
,
0001
0000
0100
1000
0000
0100
0002
0000
,
0000
1003
0010
0100
0001
0010
0100
0000
,
1001
0000
1000
0100
0010
0100
1000
0002
,
0000
0023
0000
0230
0000
2300
0000
3002
,
0000
1003
0010
0000
0000
0100
0010
1000
,
0002
0000
0013
0100
0000
0110
0000
1002
,
0000
0000
0103
0010
2000
0000
3001
0000
,
0100
0001
1000
0200
0000
0310
0001
1000
,
0000
0100
1000
0010
0000
0100
0001
0020
,
0000
0000
0000
0000
0130
0000
1000
0000
0001
0000
0000
0100
0000
0000
0010
0000
,
1000
0000
0000
0001
0000
0000
0010
0000
0100
0000
0010
0000
0001
0000
1000
0000
,
0020
0000
0000
0230
0000
0302
0000
2003
,
0000
0000
3000
0200
,
0320
0000
0000
0032
0000
2003
0000
3002
,
0000
0203
0320
0230
,
0301
0000
0000
0000
1000
0000
0000
0100
0000
0000
0010
0000
0100
0000
0000
0000
,
1000
0000
0000
0000
0001
0000
0000
0100
0000
0000
0010
0000
0100
0000
0002
0000
,
0000
0000
0013
0200
0000
0000
0000
0000
,
1300
1000
0000
0001
0001
0000
0100
0100
,
0000
0010
0010
0000
1000
0001
1000
0001
,
0011
0000
0110
0000
1001
0000
0001
0200
,
0000
0310
1000
0002
0000
0013
0100
1000
,
0002
0000
0203
0000
0301
1000
0100
0020
,
0000
0130
0000
0100
1000
0001
1000
0001
,
0101
0000
0110
0000
1001
0000
1000
0020
,
0000
0130
0001
2000
0000
3100
0010
0011
,
0000
0001
1000
0010
0001
0010
1000
0020
,
0000
1030
0001
0010
1000
0010
0001
1000
,
1010
0000
0110
0000
0101
0000
1001
1000
,
0010
0100
0001
0020
0000
0130
1000
0001
,
0200
0000
0320
0000
1030
0001
0010
0200
,
0000
1300
0000
1000
0010
0001
0010
0100
,
0001
1001
2000
3100
,
1000
0000
1001
0000
0002
0000
0103
0020
,
0000
0130
1000
0100
0001
0100
0010
2000
,
0000
3002
0000
0013
0100
1000
0000
1001
,
0000
0001
0100
0010
1000
0001
0000
1001
,
0000
1000
0100
0010
0001
1000
0000
1001
,
0000
0001
0010
0100
1000
0001
0100
0020
,
0000
1030
0000
0020
0000
0130
0001
1001
,
0000
1000
0100
0010
0001
0100
0000
1001
,
0000
0001
0100
0010
1000
0100
0000
1001
,
0000
0001
0010
1000
0010
0100
1000
0002
,
0000
0103
0010
1000
0010
0010
0100
0100
,
0001
1000
0100
0000
0010
0001
1000
0020
,
0000
0130
0001
2000
0000
3001
0010
2000
,
0000
3010
0001
0200
0000
0301
0100
1000
,
0100
0010
1000
1010
0000
0101
0000
2001
,
0000
0000
3010
0000
0100
0001
0000
1000
,
0001
0010
1000
0010
0100
1000
0001
0200
,
0000
0310
0001
0010
1000
0001
0020
0000
,
0130
0100
0000
1000
1000
0000
0001
0001
,
0000
0100
0200
0000
0310
1000
1001
0000
,
0002
0000
0023
0000
0230
0000
0000
0310
,
0000
0001
1000
0020
0000
0130
0001
1000
,
0200
0000
0320
0000
0031
1000
0010
0110
,
0000
1010
0000
1001
0000
0001
0010
1000
,
0010
0001
1001
0000
1000
0010
0100
0002
,
0000
0013
0100
2000
0000
3001
0100
0110
,
0000
0010
1000
0100
0001
0100
1000
0002
,
0000
1003
0001
0100
1000
0100
0001
1000
,
1100
0000
0110
0000
0011
0000
1001
1000
,
0010
0100
0001
0020
0000
0130
1000
0001
,
0200
0000
0320
0000
1030
0001
0010
0200
,
0000
0310
0000
0010
0100
0001
0100
0010
,
0001
1001
2000
3010
,
1000
0000
1001
0000
0002
0000
0013
0200
,
0000
0310
0001
0010
1000
0010
0001
0200
,
0000
0310
0001
0010
1000
0010
0100
0002
,
0000
1003
0100
0001
0100
1000
0010
0200
,
0000
0301
1000
1100
0000
0100
0010
0002
,
0000
2000
0000
0000
,
3003
0000
0000
0000
;

//--------------- dance-single - Kekkle vs. forcednature ----------------
#NOTES:
     dance-single:
     Kekkle vs. forcednature:
     Challenge:
     15:
     0.818269,0.912203,0.51768,0.684674,0.359036,686,624,62,82,0,0,0.818269,0.912203,0.51768,0.684674,0.359036,686,624,62,82,0,0:
0000
0000
0000
0000
,
0000
0000
0000
0000
,
0000
0000
0000
0000
,
0000
0000
0000
0000
,
0000
0000
0000
0000
0000
0000
0000
1001
,
0000
0000
0001
0100
0001
0000
1000
0000
0010
0000
1000
0000
0000
0000
1001
0000
,
0000
0000
1000
0100
1000
0000
0010
0000
0100
0000
0001
0000
0000
0000
1001
0000
,
0000
0000
0001
0000
0100
0000
1000
0000
0100
0000
0001
1000
0001
1000
0002
0000
,
0000
0013
0100
1000
1000
1000
1000
1000
,
1001
0000
0001
1000
0001
0000
0010
0000
0100
0000
1000
0000
0010
0000
0100
0000
,
0001
0000
1000
0100
1000
0000
0010
0000
0100
0000
0001
0000
0010
0000
0100
0000
,
1000
0000
0001
0100
0001
0000
0010
0000
0001
0000
1000
0000
0010
0000
0200
0000
,
0000
2300
0000
3200
0000
0301
1000
1001
,
0000
0000
0001
0010
0100
0000
1000
0000
0010
0000
0100
0000
0001
0000
1000
0000
,
0100
0000
1000
0010
0100
0000
0001
0000
0010
0000
0100
0000
1000
0000
0002
0000
,
0000
0000
0103
0000
1000
0000
0100
0001
0100
0000
0010
1000
0010
0000
1001
0000
,
0000
0000
0100
0000
0110
0000
0000
1000
0000
0001
1000
0000
0001
0000
1000
0000
,
1001
0000
0001
0100
1000
0100
0010
2000
,
0000
3200
0000
0302
0000
0203
0000
0310
,
0000
0001
2000
0000
0000
3010
0001
0010
,
1000
0000
0001
0010
0000
0100
0000
0200
,
0000
0000
1300
0001
0100
0000
0010
0100
0020
0000
0000
0000
2030
0000
0000
0000
,
3001
0010
0010
0200
0000
0301
0100
0010
,
0002
0000
0103
0020
0000
1030
1002
0000
,
0000
0000
1000
0000
1003
0000
0100
0010
0100
0000
1000
0000
0001
0000
0000
0000
,
1001
0000
1000
0010
0001
0010
0100
0002
,
0000
1003
0100
0020
0000
0130
1000
0001
,
0000
0100
0020
0000
0000
0130
1000
0100
,
0001
0000
1000
1100
0000
0101
0000
2001
,
0000
0000
3001
0100
0010
0000
0100
0010
0200
0000
0000
0000
0302
0000
0000
0000
,
1003
0000
0100
0000
0100
0000
0020
0000
0000
0000
0031
1000
0010
0000
1010
0000
,
0000
1000
0001
0011
0000
0001
0100
0120
,
0000
0000
0000
0000
0031
0000
0010
1000
0001
0000
0000
1000
0000
0000
0100
0000
,
0010
0000
0001
0010
0001
0000
1000
0010
1000
0000
0001
1000
0001
1000
0001
0000
,
2001
0000
0000
3200
0000
0302
0000
0203
,
0000
0000
0300
0020
,
0032
0000
0000
2003
0000
3020
0000
0230
,
0000
0302
0023
0032
,
1003
0000
0000
0000
0001
0000
0000
1000
0000
0000
0010
0000
0100
0000
0000
0000
,
0001
0000
0000
0000
0010
0000
0000
0100
0000
0000
0010
0000
0001
0000
2000
0000
,
0000
0000
3010
0000
1000
0001
0010
0100
,
0010
0011
0000
0100
1100
0000
1000
1010
,
0000
0001
0101
0000
1000
0001
1000
0001
,
1001
0000
0101
0000
1010
0000
1000
0200
,
0000
0000
0310
0000
0001
0000
0200
0000
0000
0000
0310
1000
0001
0000
0010
0000
,
0200
0000
2300
0000
3001
0100
1000
0200
,
0000
0310
1000
0001
0010
0100
0010
0100
,
0110
0000
1001
0000
1100
0000
0001
0200
,
0000
0310
1000
0002
0000
0013
0100
1000
,
0100
0000
0001
0000
0100
0000
1000
0100
1000
0000
0001
0100
0001
0000
0020
0000
,
0000
0000
0130
0000
1000
0000
0001
0010
0001
0000
1000
0010
1000
0010
1000
0000
,
1010
0000
0011
0000
1100
0000
1001
0001
,
0100
0000
1000
0000
0100
0000
0020
0000
0000
0000
1030
0001
0010
0000
0001
0000
,
0011
0000
1010
0000
0010
1000
0001
0020
,
0000
1030
0010
0100
1000
0010
0001
0010
,
0100
0000
0001
1000
0200
0000
0000
0000
0001
0000
0000
0000
0320
0000
0000
0000
,
0031
0000
0200
0000
1000
0000
0310
1001
,
0000
0000
0001
0010
0100
0000
1000
0100
0010
0000
0001
0000
1000
0000
1001
0000
,
0001
0000
0001
0000
0001
0000
0001
0000
0001
0000
0100
0010
1000
0001
2000
0000
,
0000
0000
3001
0100
0010
0000
0100
0000
1000
0000
0100
0000
0000
0000
1001
0000
,
0000
0000
1000
0100
0010
0000
0100
0000
0001
0000
0100
0000
0000
0000
1001
0000
,
0000
0000
0001
0010
0100
0000
0010
0000
1000
0000
0010
0000
0001
0000
2000
0000
,
0000
3010
0000
0002
0000
0013
0100
1001
,
0000
0000
1000
0001
1000
0000
0100
0000
0001
0000
0100
0000
0000
0000
1001
0000
,
0000
0000
1000
0100
0010
0001
0000
0000
0100
0000
0010
0000
0000
0000
1001
0000
,
0000
0000
0001
0000
0100
0000
1000
0000
0100
0000
0010
1000
0010
0000
1001
0000
,
0000
0000
1000
0100
1000
0100
0000
0010
0001
1000
0001
1000
0010
0000
0100
0001
,
0100
0010
2000
0000
3100
0001
0100
0010
,
0001
1000
0001
0000
0100
0000
0010
0000
1000
0000
0001
0000
0100
0001
0200
0000
,
0000
0000
0310
0000
1000
0000
0020
0000
0000
0000
0130
0001
1000
0000
0100
1000
,
0001
0000
0010
0001
1000
0000
1001
0000
0000
0000
0100
0000
0010
0000
2001
0000
,
0000
0000
3001
1000
0002
0000
0000
0000
0013
0000
0001
0000
0100
0000
0010
0000
,
1000
0000
0100
0010
0001
1000
0001
0000
0100
0001
1000
0010
1000
0000
0200
0000
,
0000
0000
0310
0001
0010
0000
0100
1000
0100
0000
1000
0001
1000
0000
0000
0000
,
0001
0011
0000
1000
1010
0000
0001
0101
,
0000
1000
1200
0000
0310
0100
0010
0100
,
2000
0000
3020
0000
0032
0000
0013
1000
,
0000
0000
0001
0000
0010
0000
0200
0000
0000
0000
0310
0100
0010
0000
0001
0000
,
2000
0000
0000
0000
3200
0000
0000
0000
0310
0001
0010
0001
0010
0000
1001
0000
,
0000
0000
1010
0000
0000
0000
0201
0000
0000
0310
1000
0001
1000
0000
0001
0000
,
0010
0010
1001
0000
1000
0100
0010
0002
,
0000
0103
0010
2000
0000
3010
0100
1002
,
0000
0000
0013
0000
0100
0000
0010
0001
1000
0000
0001
0100
0010
0000
2010
0000
,
0000
0000
3001
0000
0100
0000
0001
1000
0100
0000
0010
0001
0010
0001
1000
0000
,
1100
0000
0101
0000
1010
0000
1001
0001
,
0100
0000
1000
0000
0100
0000
0020
0000
0000
0000
1030
0001
0100
0000
0010
0000
,
2000
0000
3200
0000
0301
0100
0010
0002
,
0000
0000
1003
0100
0010
0000
0001
0000
0010
0000
1000
0000
0010
0000
0100
0000
,
1000
0000
0001
0100
0020
0000
0000
0000
0001
0000
0000
0000
0230
0000
0000
0000
,
0301
0000
0020
0000
1000
0000
0130
1001
,
0000
0000
0001
0100
0010
0000
1000
0010
0100
0000
0001
0000
1000
0000
1001
0000
,
0000
0000
0001
0000
0010
0100
0010
0001
1000
0000
0010
0000
0100
0000
1001
0000
,
0000
0000
0001
0010
0100
0000
1000
0010
0100
0000
0001
0000
1000
0000
1020
0000
,
0000
0000
0130
0000
0001
0000
1001
0000
0000
0000
1000
0001
1000
0100
0020
0000
,
0000
0200
0000
0000
,
0330
0000
0000
0000
;

//--------------- dance-double - Kekkle ----------------
#NOTES:
     dance-double:
     Kekkle:
     Easy:
     6:
     0.248105,0.317288,0.091847,0.141945,0,208,197,11,17,0,0,0.248105,0.317288,0.091847,0.141945,0,208,197,11,17,0,0:
00000000
00000000
00000000
00000000
,
00000000
00000000
00000000
00000000
,
00000000
00000000
00000000
00000000
,
00000000
00000000
00000000
00000000
,
00000000
00000000
00000000
00000000
,
00000000
00000000
00000000
00000000
,
00000000
00000000
00000000
00000000
,
00000000
00000000
00000000
00000000
,
00000000
10000000
10000000
10000000
,
00010000
00000000
01000000
00000000
,
00001000
00010000
00000010
00000000
,
00000100
00000000
00000001
00000000
,
00000100
00000100
00000010
00000010
,
00010000
00000000
00001000
00000000
,
00100000
00010000
10000000
00000000
,
00100000
00000000
01000000
00000000
,
00002000
00000000
00003000
00000000
,
00011000
00000000
00010000
00000000
,
00000010
00001000
00000001
00000000
,
00000200
00000000
00000310
00000000
,
00010000
00001000
00100000
00000000
,
02000000
00000000
03100000
00000000
,
00010000
10000000
00100000
00000000
,
01000000
00000000
00001000
00020000
,
00000000
00000000
00031000
00000000
,
00011000
00000000
00010000
00000000
,
00000100
00001000
00000001
00000000
,
00000200
00000000
00000310
00000000
,
00010000
00000000
00000000
00001000
00000000
00001000
00000000
00002000
,
00000000
00000000
00013000
00000000
,
00001000
00000000
01000000
00000000
00100000
00000000
00000000
10000000
,
00000000
00000000
00000000
00010000
00000000
00000000
00000000
20000000
,
00000000
00000000
00000000
00000000
,
30010000
01000000
00001000
00000000
,
00011000
00000000
00010000
00000000
,
00000020
00000000
00000030
00000000
,
00010000
00000000
00001000
00000000
,
00200000
00000000
00300000
00000000
,
00010000
00000000
10000000
00000000
,
00100000
00000000
01000000
00000000
,
00001000
00000000
00002000
00000000
,
00013000
00000000
00000000
00010000
00000000
00000000
00010000
00000000
,
00000000
00010000
00000000
00000000
00000000
00000000
00000000
00000000
,
00011000
00000000
00010000
00000000
,
00000100
00000010
00000001
00000000
,
00001000
00001000
00000010
00000010
,
00020000
00000000
00031000
00000000
,
00100000
00000000
00010000
00000000
,
00100000
01000000
10000000
00000000
,
00010000
00000000
01000000
00001000
,
01000000
00000000
00001000
01000000
,
00001000
00000000
00010000
00000000
,
00000010
00000100
00000001
00000000
,
00001000
00001000
00000100
00000100
,
00020000
00000000
00031000
00000000
,
00010000
00000000
01000000
00000000
,
10000000
00000000
00000000
00000000
00100000
00000000
00000000
00020000
,
00000000
00000000
00000000
00000000
,
00031000
00000000
00000000
00000000
00010000
00000000
00000000
00011000
,
00000000
00000000
00000000
00000000
00000000
00000000
00000000
00011000
,
00000000
00000000
00000000
00000000
00000000
00000000
00000000
00011000
,
00000000
00000000
00000000
00000000
00000000
00000000
00000000
00010000
,
00000000
00000000
00000000
00000010
00000000
00000000
00000000
00000110
,
00000000
00000000
00000000
00000000
00000000
00000000
00000000
00000110
,
00000000
00000000
00000000
00000000
00000000
00000000
00000000
00000110
,
00000000
00000000
00000000
00000000
,
00000100
00000001
00000100
00000001
,
00001000
00000000
00000100
00000000
,
00010000
00001000
00100000
00000000
,
01000000
10000000
00010000
00000000
,
01000000
00000000
00000000
00001000
00000000
00001000
00000000
00001000
,
00000000
00000000
00010000
00000000
,
00000010
00000100
00000001
00000000
,
00001000
00000000
00000010
00000000
,
00010000
00000000
00000000
00010000
00000000
00000000
00010000
00000000
,
00000000
00010000
00000000
00000000
00000000
00000000
00000000
00000000
,
00001000
00000000
01000000
00000000
,
00100000
01000000
00100000
00000000
,
10000000
00000000
00000000
00000000
00010000
00000000
00000000
00100000
,
00000000
00100000
00000000
00100000
00000000
00000000
00000000
00000000
,
00000000
00011000
00000000
00010000
,
00000100
00001000
00000100
00000000
,
00000010
00000000
00000001
00001000
,
00000001
00000000
00001000
00000001
,
00001000
00000000
00000010
00000000
,
00010000
00001000
00100000
00000000
,
00010000
00010000
10000000
10000000
,
01000000
00000000
00010000
00000000
,
00001000
00000000
00000010
00000000
,
00000001
00000000
00000000
00000000
00000100
00000000
00000000
00002000
,
00000000
00000000
00000000
00000000
00013000
00000000
00000000
00020000
,
00000000
00000000
00000000
00000000
00031000
00000000
00000000
00002000
,
00000000
00000000
00000000
00000000
00013000
00000000
00000000
00001000
,
00000000
00000000
00000000
01000000
00000000
00000000
00000000
00200000
,
00000000
00000000
00000000
00000000
,
00300000
00000000
00000000
00000000
;

//--------------- dance-double - forcednature ----------------
#NOTES:
     dance-double:
     forcednature:
     Medium:
     10:
     0,0,0,0,0:
00000000
00000000
00000000
00000000
,
00000000
00000000
00000000
00000000
,
00000000
00000000
00000000
00000000
,
00000000
00000000
00000000
00000000
,
00000000
00000000
00000000
00000000
00000000
00000000
00000000
00011000
,
00000000
00001000
01000000
00010000
00000000
10000000
00000000
10010000
,
00000000
00010000
00100000
01000000
00000000
00010000
00000000
00021000
,
00000000
00030010
00001000
00000001
,
00000010
00000100
00001000
00000000
00000001
00000000
00000100
00000000
,
00011000
00000000
00100000
00000000
01000000
00010000
10000000
00000000
,
01000000
00000000
00100000
00000000
00001000
00010000
00100000
00000000
,
00010000
00000000
00001000
00000000
00000010
00000100
00001000
00000002
,
00000000
00002003
00000000
00003020
00000000
00010030
00000000
00011000
,
00000000
00000000
00210000
00000000
01300000
10000000
00010000
00000000
,
10000000
00000000
00100000
00000000
01000000
00001000
00010000
00000000
,
00000100
00000000
00001000
00000000
00000010
00000100
00000010
00000000
,
00002000
00000002
00003003
00000000
,
00002002
00003003
00000001
00000100
,
00000010
00000000
00000100
00000000
00001000
00010000
00100000
00000000
,
01000000
00010000
10000000
00100000
,
10000000
00000000
01000000
00000000
00010000
00001000
00010000
00000000
,
00000100
00001000
00000001
00000200
,
00002300
00000000
00000000
00023000
00000000
00000000
01030000
00000000
,
10000000
00000000
00010000
10000000
00000000
00010000
02000000
00000000
,
00000000
10000000
00100000
03010000
,
02002000
03003000
00001000
00010000
,
00000100
00000000
00001000
00000000
00000001
00000100
00000010
00000000
,
00001000
00000100
00000010
00001000
,
00010000
00000000
00100000
01000000
00000000
01000000
00000000
10020000
,
00000000
01000000
01030000
00000000
00010000
00000000
00200000
00000000
,
00302000
00000000
00000000
00023000
00000000
00030100
00000000
00001100
,
00000000
00000000
00000000
00001001
00000000
00000000
00000000
00020100
,
00000000
00001000
00000010
00031000
,
00010000
00001000
00100000
00000000
10010000
00000000
01000000
00000000
,
02010000
00000000
00000000
00001000
00000000
00001000
00000000
00002000
,
00000000
00000000
03003000
00000000
,
00001200
00000000
00000000
00010000
00000000
00010000
00000000
00010000
,
00000000
00000010
00000010
00000310
,
00000100
00001100
00000000
01000000
,
00010000
01010000
00000000
00000010
,
00001000
00001010
00000000
00010000
,
00001000
00010000
00000000
00000100
00010000
00000000
00001000
00010000
,
00000000
00001000
01000000
00000000
00001000
00010000
00001000
00010000
,
00001000
00010000
00022000
00033000
,
00010000
00000000
00000100
00000000
00001000
00000001
00001000
00000000
,
00000010
00010000
00001000
00100000
,
00010000
00000000
10000000
00000000
00010000
01000000
00010000
01000000
,
00010000
00100000
00022000
00033000
,
00000100
00000000
00001000
00000000
00000001
00001000
00000001
00000200
,
00000000
00000000
00000310
00000000
00000100
00000000
00001000
00010000
,
00000000
00100000
01000000
00000000
00010000
10000000
00010000
00000000
,
10010000
01000000
20020000
30030000
,
00010000
00000000
00100000
00000000
00001000
00010000
00001000
00000000
,
00000010
00000100
00001000
00000001
,
00001000
00000000
00000010
00000000
00010000
00001000
00010000
00001000
,
00010000
00020200
00030300
00010000
,
00001000
00000000
02002000
00000000
03003000
00000000
00001000
00010000
,
00000000
01000000
00100000
00000000
00010000
00000000
10000000
00200000
,
00000000
00000000
00010000
00000000
01000000
00000000
10300000
00100000
,
00000000
01000000
00001000
00000000
00010000
00000000
00000100
00001000
,
00000000
00000001
00000010
00000000
00000100
00000000
00001000
00000001
,
00000000
00000100
00000010
00000000
00000100
00000000
00001000
00020000
,
00000000
00030200
00000000
00020300
00000000
00031000
00000000
01001000
,
00000000
00010000
10000000
00000000
01000000
00000000
00100000
00001000
,
00000000
00010000
00100000
00000000
00010000
00000000
00001000
00000010
,
00000000
00000100
00001000
00000000
00000001
00000000
00001000
00000010
,
00000000
00010000
00001000
00000000
00010000
01000000
00000000
10000000
,
00020000
00030000
10000000
00010000
,
01000000
00001000
01000000
00000000
00010000
00100000
00010000
00000000
,
01000000
00001000
00010000
00000100
,
00001000
00000000
00000001
00000100
00000000
00000100
00000000
00002002
,
00000000
00003003
00000001
00000100
,
00001000
00000100
00001000
00000100
00001000
00010000
00001000
00020000
,
00000000
01000000
01000000
01030000
,
00010000
00001000
00000000
01000000
00001000
00000000
00010000
00000100
,
00000000
00010000
00001000
00000000
00100000
00001000
00100000
00001000
,
00200000
02300000
23000000
30000000
,
00020000
02030000
03002000
00003000
,
00020000
00000000
00030020
00000000
00002030
00000000
00003001
00000011
,
00000000
00000100
00000000
00001010
00000000
00001000
00000100
00000000
,
00000000
00010000
00001000
00000000
00022000
00000000
00033000
00000000
,
00001000
00000000
00100000
00000000
01000000
00000000
00010000
00001000
,
00000000
00010000
00000010
00000000
00001000
00000000
00000001
00000010
,
00000000
00000100
00010000
00000000
00001000
00010000
00001000
00000000
,
01000000
00010000
20020000
30030000
,
10000000
01000000
10000000
00000000
00100000
00000000
01000000
00000000
,
00001000
00010000
00100000
00010000
,
00001000
00000010
00000100
00000000
00001000
00000001
00000100
00000000
,
00000010
00020020
00030030
01000000
,
00001000
00000000
02002000
00000000
03003000
00000000
00010000
10000000
,
00000000
00010000
00100000
00000000
01000000
00000000
00010000
00001000
,
00000000
00000010
00000100
00000000
00001000
00000000
00000001
00000100
,
00000000
00001000
00010000
00000000
00100000
00000000
01000000
00002000
,
00000000
00023000
00000000
02030000
00000000
03020000
00000000
00032000
,
00000000
00000200
00000000
00000000
,
00003300
00000000
00000000
00000000
;

//--------------- dance-double - Kekkle ----------------
#NOTES:
     dance-double:
     Kekkle:
     Hard:
     13:
     0.657239,0.713898,0.359036,0.776521,0.020874,551,508,43,93,0,0,0.657239,0.713898,0.359036,0.776521,0.020874,551,508,43,93,0,0:
00000000
00000000
00000000
00000000
,
00000000
00000000
00000000
00000000
,
00000000
00000000
00000000
00000000
,
00000000
00000000
00000000
00000000
,
00000000
00000000
00000000
00000000
00000000
00000000
00000000
10010000
,
00000000
10000000
00100000
01000000
00010000
01000000
00000000
01001000
,
00000000
00001000
00010000
00000010
00001000
00000010
00000000
00000210
,
00000000
00000000
00000301
00000000
00000100
00000010
00010000
00002000
,
00000000
00103000
01000000
00100000
01000000
00100000
01000000
00000000
,
10010000
00000000
10000000
01000000
00100000
00010000
00000000
00100000
,
00000000
00001000
00010000
00000010
00001000
00000010
00000000
00001000
,
00000000
00000010
00000100
00000010
00000001
00000010
00001000
00000002
,
00000000
00002003
00000000
00003200
00000000
00010300
00001000
00011000
,
00000000
00010000
00001000
00100000
01000000
00100000
00000000
01000000
,
00000000
00100000
10000000
00100000
00010000
01000000
00100000
02000000
,
00000000
03100000
01000000
00100000
00010000
00001000
00010000
00002000
,
00000000
00000000
00003100
00000000
00000010
00000000
00000000
00001000
00000000
00000000
00001000
00000000
00000001
00000000
00000000
00000000
,
00001001
00000000
00001000
00000100
00000010
00000001
00001000
00000020
,
00000000
00020030
00000000
00032000
00000000
00203000
00000000
02300000
,
00000000
00000000
13000000
00000000
00000000
00100000
01000000
00010000
,
02000000
00000000
03100000
20000000
00000000
30020000
00000000
00230000
,
00000000
00000000
00301000
00010000
00000020
00000000
00000130
00000000
,
00000001
00000100
00000010
00000200
00000000
00000000
00000301
00000000
,
00000100
00000000
00010000
00001000
00000000
00000010
00020000
00000000
,
00000000
00031000
00100000
01000000
00100000
00010000
10000000
00000000
,
10010000
00000000
00010000
01000000
00100000
01000000
00001000
00020000
,
00000000
00030020
00000000
00000230
00000000
00000302
00000000
00002003
,
00000000
00003100
00010000
00000000
00000000
00001000
00100000
00001000
,
00020000
00000000
01030000
11000000
00000000
00110000
00000000
20010000
,
00000000
00000000
30100000
01000000
00002000
00000000
00013000
00000000
,
00000010
00001000
00000010
00000200
00000000
00000301
00001000
00000100
,
00000000
00000010
00001000
00010000
00000000
00001000
00010000
00200000
,
00000000
00000000
00000000
00000000
01300000
00000000
00010000
00000000
10000000
00000000
00000000
01000000
00000000
00000000
00010000
00000000
,
00001000
00000000
00000000
00010000
00000000
00000000
00100000
00000000
00010000
00000000
00001000
00000000
00000100
00000000
00000001
00000000
,
00002001
00000000
00000000
00003020
00000000
00020030
00000000
00032000
,
00000000
00000000
00003000
00200000
,
02300000
00000000
00000000
03200000
00000000
00320000
00000000
20030000
,
00000000
30200000
00320000
00032000
,
01003000
00000000
00000000
00000000
00010000
00000000
00000000
10000000
00000000
00000000
01000000
00000000
00100000
00000000
00000000
00000000
,
00001000
00000000
00000000
00000000
01000000
00000000
00000000
00001000
00000000
00000000
00010000
00000000
00000010
00000000
00000200
00000000
,
00000000
00000000
00000301
00002000
00000000
00000000
00000000
00000000
,
00003001
00000010
00000000
00000010
00001000
00000000
00001000
00010000
,
00000000
00010000
01000000
00000000
10000000
00010000
10000000
00010000
,
01010000
00000000
01001000
00000000
00011000
00000000
00010000
00000200
,
00000000
00000310
00000001
00002000
00000000
00003010
00010000
00001000
,
00020000
00000000
02030000
00000000
03100000
00010000
10000000
00200000
,
00000000
01300000
00000000
01000000
10000000
01000000
00100000
10000000
,
10010000
00000000
01010000
00000000
01001000
00000000
00001000
00020000
,
00000000
00030100
00001000
00000002
00000000
00000103
00000010
00002000
,
00000000
00003010
00010000
00001000
00000100
00001000
00010000
00002000
,
00000000
00103000
00010000
00100000
01000000
10000000
00010000
01000000
,
01100000
00000000
10010000
00000000
01010000
00000000
01001000
00001000
,
00010000
01000000
00010000
00002000
00000000
00013000
00000010
00000100
,
00000020
00000000
00000230
00000000
00000301
00000100
00000010
00020000
,
00000000
00031000
00000000
00001000
00010000
01000000
00100000
00010000
,
10000000
10010000
00020000
01030000
,
00001000
00000000
00011000
00000000
00020000
00000000
00030100
00000020
,
00000000
00000031
00001000
00000010
00000001
00000010
00000100
00000002
,
00000000
00002003
00000000
00003100
00010000
00001000
00000000
00011000
,
00000000
00010000
01000000
10000000
01000000
00010000
00000000
00011000
,
00000000
00001000
00000100
00000001
00000100
00001000
00000000
00011000
,
00000000
00010000
01000000
10000000
01000000
00010000
00001000
00020000
,
00000000
00030010
00000000
00000200
00000000
00000310
00010000
00011000
,
00000000
00001000
00000010
00000001
00000010
00001000
00000000
00011000
,
00000000
00010000
00100000
10000000
00100000
00010000
00000000
00011000
,
00000000
00001000
00000100
00000001
00000010
00000100
00001000
00000200
,
00000000
00010300
00001000
01000000
00100000
00100000
01000000
01000000
,
00010000
10000000
00010000
00000000
01000000
00100000
10000000
00020000
,
00000000
01030000
00001000
00020000
00000000
00031000
00000100
00000020
,
00000000
00001030
00000001
00000020
00000000
00000031
00001000
00000100
,
00000001
00000100
00001000
00000010
00000000
00010010
00000000
00012000
,
00000000
00000000
01003000
00000000
00100000
01000000
00000000
00010000
,
00100000
01000000
00010000
01000000
10000000
00010000
00100000
00002000
,
00000000
00013000
00100000
00010000
00001000
00000100
00000010
00001000
,
00000001
00000100
00000000
00000100
00001000
00000000
00001000
00010000
,
00000000
00010000
02000000
00000000
03100000
00010000
10010000
00000000
,
20000000
00000000
30200000
00000000
02300000
00000000
03001000
00010000
,
00000000
00000100
00001000
00000002
00000000
00000013
00000100
00000010
,
00000002
00000000
00002003
00000000
00003010
00010000
00001000
00011000
,
00000000
00101000
00000000
01100000
00000000
01000000
10000000
01000000
,
00010000
00001000
00011000
00000000
00010000
00000010
00000100
00000020
,
00000000
00000130
00001000
00020000
00000000
00030100
00000010
00000002
,
00000000
00001003
00000010
00000100
00001000
00010000
00001000
00000200
,
00000000
00000310
00010000
00001000
00010000
00100000
10000000
00010000
,
00110000
00000000
01100000
00000000
11000000
00000000
10010000
00010000
,
01000000
00100000
00010000
00002000
00000000
00013000
00100000
01000000
,
00002000
00000000
00023000
00000000
00030100
00000010
00000001
00002000
,
00000000
00003001
00000000
00000001
00000100
00001000
00000100
00000010
,
00010000
00011000
00002000
00103000
,
01000000
00000000
01100000
00000000
00200000
00000000
00310000
20000000
,
00000000
30100000
01000000
00100000
00010000
00100000
01000000
00002000
,
00000000
00013000
00000100
00000010
00001000
00000010
00000001
00002000
,
00000000
00003010
00000100
00000010
00000001
00000010
00001000
00000020
,
00000000
00010030
00001000
00101000
00000000
00100000
01000000
20000000
,
00000000
00020000
00000000
00000000
,
30030000
00000000
00000000
00000000
;

//--------------- dance-double - Kekkle vs. forcednature ----------------
#NOTES:
     dance-double:
     Kekkle vs. forcednature:
     Challenge:
     15:
     0.799184,0.912203,0.450883,0.718073,0.329813,670,616,54,86,0,0,0.799184,0.912203,0.450883,0.718073,0.329813,670,616,54,86,0,0:
00000000
00000000
00000000
00000000
,
00000000
00000000
00000000
00000000
,
00000000
00000000
00000000
00000000
,
00000000
00000000
00000000
00000000
,
00000000
00000000
00000000
00000000
00000000
00000000
00000000
00001001
,
00000000
00000000
00000001
00000100
00000001
00000000
00000010
00000000
00000100
00000000
00001000
00000000
00000000
00000000
00010100
00000000
,
00000000
00000000
00010000
00001000
00010000
00000000
00001000
00000000
01000000
00000000
00100000
00000000
00000000
00000000
10010000
00000000
,
00000000
10000000
00100000
00010000
00001000
00010000
01000000
00200000
,
00000000
00301000
00001000
00001000
00001000
00001000
00001000
00001000
,
00011000
00000000
00010000
00000010
00010000
00000000
00000010
00000000
00001000
00000000
00000001
00000000
00000010
00000000
00000100
00000000
,
00001000
00000000
00000010
00010000
00000010
00000000
00010000
00000000
00001000
00000000
01000000
00000000
00100000
00000000
10000000
00000000
,
00010000
00000000
01000000
00100000
01000000
00000000
00010000
00000000
10000000
00000000
01000000
00000000
00100000
00000000
00002000
00000000
,
00000000
00023000
00000000
00230000
00000000
10300000
00010000
10010000
,
00000000
00000000
10000000
01000000
00100000
00000000
00010000
00000000
01000000
00000000
00001000
00000000
00010000
00000000
00100000
00000000
,
00010000
00000000
00001000
00010000
00000010
00000000
00001000
00000000
00000100
00000000
00000010
00000000
00000001
00000000
00002000
00000000
,
00000000
00000000
00003001
00000000
00000100
00000000
00000010
00010000
00000010
00000000
00010000
00001000
00010000
00000000
00011000
00000000
,
00000000
00000000
00001000
00000000
01001000
00000000
00000000
01000000
00000000
00100000
01000000
00000000
00010000
00000000
10000000
00000000
,
10010000
00000000
10000000
01000000
00010000
01000000
00100000
00002000
,
00000000
00023000
00000000
00032000
00000000
00003200
00000000
00000301
,
00000000
00001000
00000200
00000000
00000000
00000310
00001000
00010000
,
00001000
00000000
00000100
00000001
00000000
00000010
00000000
00000020
,
00000000
00000000
00000130
00001000
00000001
00000000
00000100
00000010
00000200
00000000
00000000
00000000
00002300
00000000
00000000
00000000
,
00013000
00100000
00100000
20000000
00000000
30010000
00100000
01000000
,
00020000
00000000
00031000
00000020
00000000
00000130
00002001
00000000
,
00000000
00000000
00000001
00000000
00003001
00000000
00000100
00000010
00000100
00000000
00001000
00000000
00010000
00000000
00000000
00000000
,
00101000
00000000
00001000
00010000
01000000
00010000
00001000
00000200
,
00000000
00000301
00000010
00000200
00000000
00010300
00001000
01000000
,
00000000
00100000
20000000
00000000
00000000
31000000
00010000
00001000
,
00000100
00000000
00000001
00000101
00000000
00001010
00000000
00012000
,
00000000
00000000
01003000
00001000
00010000
00000000
00001000
00010000
00002000
00000000
00000000
00000000
00203000
00000000
00000000
00000000
,
01300000
00000000
10000000
00000000
10000000
00000000
00200000
00000000
00000000
00000000
01300000
00001000
00010000
00000000
00011000
00000000
,
00000000
00000010
00001000
00001010
00000000
00000001
00000010
00000210
,
00000000
00000000
00000000
00000000
00000301
00000000
00000100
00001000
00000001
00000000
00000000
00000100
00000000
00000000
00000010
00000000
,
00010000
00000000
00001000
00010000
00001000
00000000
01000000
00010000
01000000
00000000
00010000
10000000
00010000
10000000
00010000
00000000
,
20010000
00000000
00000000
32000000
00000000
03020000
00000000
00032000
,
00000000
00000000
00003000
00000200
,
00000302
00000000
00000000
00000023
00000000
00002030
00000000
00023000
,
00000000
00230000
20300000
30020000
,
01030000
00000000
00000000
00000000
00001000
00000000
00000000
00010000
00000000
00000000
01000000
00000000
00100000
00000000
00000000
00000000
,
00001000
00000000
00000000
00000000
00010000
00000000
00000000
00000010
00000000
00000000
00000100
00000000
00001000
00000000
00020000
00000000
,
00000000
00000000
00030100
00000010
00000001
00000100
00001000
00010000
,
00001000
00000010
00000000
00010000
00100000
00000000
00001000
00000100
,
00000000
00010000
01000000
00000000
00010000
10000000
00010000
10000000
,
10010000
00000000
01001000
00000000
00011000
00000000
00001000
00000200
,
00000000
00000000
00000301
00000000
00000010
00000000
00000200
00000000
00000000
00000000
00000310
00000001
00001000
00000000
00000001
00000000
,
00000200
00000000
00002300
00000000
00013000
00100000
01000000
00020000
,
00000000
10030000
01000000
00100000
00001000
00010000
00001000
00010000
,
00011000
00000000
00010010
00000000
00000101
00000000
00000001
00000200
,
00000000
00001300
00010000
00000020
00000000
00010030
00001000
01000000
,
00100000
00000000
00010000
00000000
00100000
00000000
10000000
00100000
10000000
00000000
00010000
00100000
00010000
00000000
00200000
00000000
,
00000000
00000000
00301000
00000000
00010000
00000000
00000010
00001000
00000010
00000000
00000100
00000001
00000100
00000001
00000100
00000000
,
00001001
00000000
00010100
00000000
00011000
00000000
01001000
01000000
,
00100000
00000000
10000000
00000000
00010000
00000000
00200000
00000000
00000000
00000000
01300000
10000000
00010000
00000000
01000000
00000000
,
01001000
00000000
00010010
00000000
00010000
00001000
00000100
00000002
,
00000000
00000013
00000100
00001000
00000001
00000100
00001000
00010000
,
00100000
00000000
10000000
00010000
00200000
00000000
00000000
00000000
01000000
00000000
00000000
00000000
00302000
00000000
00000000
00000000
,
00013000
00000000
00000020
00000000
00001000
00000000
00000130
00001001
,
00000000
00000000
00001000
00000100
00010000
00000000
00001000
01000000
00010000
00000000
10000000
00000000
00010000
00000000
10010000
00000000
,
10000000
00000000
10000000
00000000
10000000
00000000
10000000
00000000
10000000
00000000
01000000
00100000
00010000
10000000
00020000
00000000
,
00000000
00000000
01030000
00001000
00010000
00000000
00000100
00000000
00001000
00000000
00000001
00000000
00000000
00000000
00002001
00000000
,
00000000
00000000
00003100
00010000
00001000
00000000
01000000
00000000
00010000
00000000
10000000
00000000
00000000
00000000
10020000
00000000
,
00000000
00000000
00130000
00001000
00010000
00000000
00000010
00000000
00001000
00000000
00000001
00000000
00000010
00000000
00002000
00000000
,
00000000
00013000
00000000
00200000
00000000
01300000
00100000
10010000
,
00000000
00000000
10000000
00010000
10000000
00000000
00100000
00000000
01000000
00000000
00001000
00000000
00000000
00000000
00011000
00000000
,
00000000
00000000
00010000
00000010
00001000
00000010
00000000
00000000
00000100
00000000
00000001
00000000
00000000
00000000
00001001
00000000
,
00000000
00000000
00001000
00000000
00000010
00000000
00000100
00000000
00001000
00000000
00010000
00001000
00010000
00000000
00011000
00000000
,
00000000
00000000
00001000
00100000
00001000
00100000
00000000
01000000
10000000
01000000
10000000
00000000
01000000
00000000
00100000
00000000
,
00010000
01000000
00002000
00000000
00013000
00000100
00000010
00000200
,
00000000
00001300
00000001
00000200
00000000
00001300
00010000
00000020
,
00000000
00000000
00010030
00000000
00001000
00000000
02000000
00000000
00000000
00000000
03010000
10000000
00010000
00000000
10000000
01000000
,
10000000
00000000
01000000
00100000
01000000
00000000
01100000
00000000
00000000
00000000
00100000
00000000
00001000
00000000
00021000
00000000
,
00000000
00000000
00030010
00001000
00000020
00000000
00000000
00000000
00001030
00000000
00000001
00000000
00000010
00000000
00001000
00000000
,
00010000
00000000
00001000
01000000
00010000
00000000
01000000
00000000
00100000
10000000
00010000
10000000
00010000
00000000
20000000
00000000
,
00000000
00000000
30100000
01000000
00100000
00000000
01000000
00001000
01000000
00000000
00001000
00010000
00001000
00000000
00000000
00000000
,
00010000
00100000
00000000
00001000
00000100
00000000
00010000
01000000
,
00000000
00001000
00000020
00000000
00001030
00000001
00001000
00000001
,
00000200
00000000
00002300
00000000
00023000
00000000
00130000
01000000
,
00000000
00000000
00010000
00000000
10000000
00000000
02000000
00000000
00000000
00000000
03100000
00010000
00100000
00000000
00001000
00000000
,
00020000
00000000
00000000
00000000
00030020
00000000
00000000
00000000
00000130
00000001
00000100
00000001
00000100
00000000
00001001
00000000
,
00000000
00000000
00010100
00000000
00000000
00000000
02001000
00000000
00000000
03010000
10000000
00010000
10000000
00000000
01000000
00000000
,
00010000
00010000
00011000
00000000
00000100
00001000
00000001
00000200
,
00000000
00001300
00010000
00200000
00000000
01300000
00010000
20010000
,
00000000
00000000
31000000
00000000
10000000
00000000
00100000
10000000
00010000
00000000
01000000
00001000
00010000
00000000
00021000
00000000
,
00000000
00000000
00030100
00000000
00001000
00000000
00000001
00000100
00000010
00000000
00001000
00000100
00001000
00000100
00010000
00000000
,
00011000
00000000
00010010
00000000
00101000
00000000
10010000
10000000
,
01000000
00000000
00100000
00000000
00001000
00000000
00020000
00000000
00000000
00000000
00030010
00001000
00000001
00000000
00000100
00000000
,
00002000
00000000
00023000
00000000
01030000
00100000
00010000
20000000
,
00000000
00000000
30100000
01000000
00010000
00000000
00100000
00000000
00001000
00000000
00010000
00000000
00001000
00000000
00000010
00000000
,
00000001
00000000
00001000
00000010
00000200
00000000
00000000
00000000
00000010
00000000
00000000
00000000
00002300
00000000
00000000
00000000
,
00013000
00000000
02000000
00000000
00010000
00000000
03100000
10010000
,
00000000
00000000
00010000
01000000
00001000
00000000
00010000
00000100
00001000
00000000
00000010
00000000
00001000
00000000
00001001
00000000
,
00000000
00000000
00001000
00000000
00000010
00001000
00000010
00010000
00001000
00000000
00100000
00000000
00010000
00000000
10010000
00000000
,
00000000
00000000
10000000
00100000
01000000
00000000
00010000
01000000
00001000
00000000
00010000
00000000
00000010
00000000
00000210
00000000
,
00000000
00000000
00000301
00000000
00000010
00000000
00000110
00000000
00000000
00000000
00000100
00010000
00001000
00100000
00020000
00000000
,
00000000
20000000
00000000
00000000
,
30030000
00000000
00000000
00000000
;
