#TITLE:Only You;
#SUBTITLE:;
#ARTIST:Virgin;
#TITLETRANSLIT:;
#SUBTITLETRANSLIT:;
#ARTISTTRANSLIT:;
#CREDIT:;
#BANNER:Only You.png;
#BACKGROUND:Only You-bg.png;
#LYRICSPATH:;
#CDTITLE:;
#MUSIC:Only You.ogg;
#OFFSET:-0.531;
#SAMPLESTART:69.096;
#SAMPLELENGTH:12.000;
#SELECTABLE:YES;
#BPMS:0.000=125.985;
#STOPS:;
#BGCHANGES:;

//---------------dance-single - ----------------
#NOTES:
     dance-single:
     :
     Hard:
     11:
     0.486,0.542,0.174,0.027,0.169: // measure 1
0000
0000
0000
0000
,  // measure 2
0000
0000
0000
0000
,  // measure 3
0000
0000
0000
0000
,  // measure 4
0000
0000
0000
0000
,  // measure 5
1000
0000
0001
0000
1000
0000
0001
0000
1000
0000
0001
0000
1000
0000
0100
0010
,  // measure 6
0001
0000
1000
0000
0001
0000
1000
0000
0001
0000
1000
0000
0001
0000
0100
0010
,  // measure 7
1000
0000
0010
0000
1000
0000
0010
0000
1000
0000
0010
0000
1000
0000
0010
0100
,  // measure 8
0001
0010
0001
0010
0001
1000
1001
0000
,  // measure 9
1000
0000
0010
0000
0100
0000
0001
1000
0000
1000
0000
0100
1000
0000
0100
0000
,  // measure 10
0010
0000
0001
0000
1000
0000
0010
0100
0000
0100
0000
0001
0010
0001
0010
0000
,  // measure 11
0011
0000
0000
1001
0000
0000
1010
0000
,  // measure 12
1000
0001
0100
0010
1000
1000
0001
0000
,  // measure 13
0011
0001
1000
0010
1000
0100
1000
0001
,  // measure 14
0000
0000
0001
0000
0010
0000
0100
0000
0010
0001
0000
0001
0100
0000
0010
0000
,  // measure 15
0000
0010
1000
0001
1000
0000
0100
1000
,  // measure 16
0000
0000
0000
0010
0000
1000
0000
0001
,  // measure 17
0000
0001
0100
0010
0100
0001
1000
0001
,  // measure 18
0000
0000
0001
0000
0010
0000
0100
0000
1000
0001
0000
0001
0100
0000
0001
0000
,  // measure 19
0000
0001
0100
0010
0001
0000
0010
1000
,  // measure 20
0100
0000
0000
0000
0100
0010
0100
0000
0010
0000
0000
0000
0100
0010
0100
0000
,  // measure 21
1000
0100
0010
0100
1000
0000
1001
0000
,  // measure 22
0001
0100
0010
0100
0001
0010
0100
0010
,  // measure 23
0001
0000
0100
0000
1000
0000
0100
0000
0001
1000
0000
0001
0000
0001
0000
0000
,  // measure 24
1000
0100
0000
0000
1000
0100
0000
0000
0010
0000
0001
0000
0001
0000
1000
0000
,  // measure 25
0010
1000
0100
1000
0010
0000
0110
0000
,  // measure 26
0100
0001
0010
1000
0010
0100
1000
0001
,  // measure 27
0100
0000
1000
0000
0100
0000
0010
0000
0100
0010
0000
1000
0000
1000
0000
0000
,  // measure 28
0001
0010
0000
0000
0001
0010
0000
0000
0100
0000
1000
0000
1000
0000
0001
0000
,  // measure 29
0100
0010
1000
0000
1000
0001
0100
0001
,  // measure 30
0000
0001
1000
0001
0010
0000
0100
0000
,  // measure 31
1000
0010
0100
0010
1000
0000
0000
0000
,  // measure 32
0001
0000
0001
0000
0100
0010
0100
0010
1000
0000
1000
0000
0100
0000
0000
0000
,  // measure 33
0010
0001
1000
0001
0100
0000
0000
0100
,  // measure 34
0010
0010
1000
0001
0100
0000
0010
0000
,  // measure 35
1010
0000
0000
1001
0000
0000
0011
0000
,  // measure 36
0010
0100
1000
0001
0100
0010
0100
0001
,  // measure 37
1001
0000
1001
0000
0101
0000
0000
0100
,  // measure 38
0010
1000
0100
0010
1000
0010
0100
0000
,  // measure 39
1000
0000
1000
0000
0010
0100
1000
0100
,  // measure 40
0000
0001
0000
0000
0001
1000
1000
0010
,  // measure 41
0110
0000
0110
0000
0101
0000
0000
0001
,  // measure 42
0010
0100
1000
0100
0001
0100
1000
0000
,  // measure 43
0100
0000
0100
0000
0010
0001
1000
0020
,  // measure 44
0000
0000
0000
0000
0030
0100
0100
0001
,  // measure 45
1000
1000
0100
0010
0100
1000
0100
0001
,  // measure 46
0000
0000
0001
0000
0100
0000
0010
0000
0001
1000
0000
1000
0010
0000
0100
0000
,  // measure 47
0000
0100
0010
1000
0010
0000
0100
0001
,  // measure 48
0000
0000
0000
0001
0000
1000
0000
0100
,  // measure 49
0000
0100
0010
0001
0010
0100
1000
0001
,  // measure 50
0000
0000
0001
0000
0100
0000
0010
0000
1000
0001
0000
0001
0100
0000
0010
0000
,  // measure 51
0000
0010
0001
0010
0100
0000
0001
1000
,  // measure 52
0001
0000
0000
0000
0001
1000
0001
0000
1000
0000
0000
0000
1000
0001
1000
0000
,  // measure 53
0001
0100
0101
0000
0010
1000
1010
0000
,  // measure 54
1000
0000
0001
0000
0100
0000
0010
0000
1000
0001
0000
0001
1000
0000
0100
0000
,  // measure 55
0000
0100
0010
0001
1000
0000
0001
0010
,  // measure 56
0100
0000
0000
0000
0100
0000
0000
0000
0100
0000
0000
0000
0100
0010
0100
0000
,  // measure 57
2002
0000
3003
0000
;

//---------------dance-single - ----------------
#NOTES:
     dance-single:
     :
     Medium:
     10:
     0.415,0.411,0.155,0.256,0.082:
0000
0000
0000
0000
,
0000
0000
0000
0000
,
0000
0000
0000
0000
,
0000
0000
0000
0000
,
1000
0000
1000
0000
1000
0000
1000
0100
,
1000
0000
1000
0000
1000
0000
1000
0100
,
0010
0000
0010
0000
0010
0000
0010
0001
,
0010
0000
0010
0000
0010
0001
1001
0000
,
0001
0100
0001
0000
0100
0010
0100
0000
,
0010
1000
0010
0000
1000
0001
1000
0000
,
1100
0000
0000
1001
0000
0000
0101
0000
,
0000
0000
0110
1010
,
1000
1000
0001
1000
0010
1000
0001
1000
,
0000
0000
1000
0000
0100
0000
0010
0000
0001
1000
0000
0100
0000
0000
0100
0000
,
0000
0100
0010
0001
0010
0000
0100
2000
,
0000
0000
0000
0001
0000
0100
0000
3001
,
0000
0001
1000
0010
1000
0001
0100
0001
,
0000
0000
0001
0000
0010
0000
0100
0000
1000
0001
0000
0100
0000
0000
0100
0000
,
0000
0100
0010
1000
0001
0000
0100
0002
,
0000
1000
1000
1003
,
0001
1000
0010
1000
0100
0000
0000
0020
,
0000
0031
1000
1000
0010
0100
0001
0100
,
0001
0000
1000
0000
0010
0000
1000
0000
0200
0000
0000
0010
0000
0310
0000
0000
,
0001
1000
0000
0000
0001
1000
0000
0000
0000
0000
0010
0000
0010
0000
1000
0000
,
0001
0100
0010
0100
0001
0000
0000
1000
,
0000
0100
0010
0001
0010
0100
1000
0001
,
1000
0000
0100
0000
0010
0000
0001
0000
2000
0000
0000
0010
0000
3010
0000
0000
,
0100
0010
0000
0000
0100
0010
0000
0000
0000
0000
1000
0000
1000
0000
0001
0000
,
0200
0000
0320
0000
1030
0000
0000
1000
,
0000
1000
0100
1000
0002
0000
0023
0000
,
2030
3020
0130
0000
,
0000
0000
0000
0000
1001
1001
0100
0000
,
2001
0000
0010
0000
3100
0000
0000
1000
,
0010
0010
0100
0100
0002
0000
2003
0000
,
3200
0000
0300
0220
0000
0330
2002
0000
,
0000
3003
0001
0100
,
1010
0000
0001
0000
0202
0000
0303
0001
,
0000
0010
0001
0010
0100
0000
0100
0000
,
1000
0000
1000
0000
0010
0000
0100
0001
,
0000
0002
0000
0003
0000
1000
1000
0010
,
1010
0000
0001
0000
0101
0000
0000
0100
,
0000
0010
1000
0010
0100
0000
0100
0000
,
0001
0000
0001
0000
0010
0000
0100
2000
,
0000
0000
0000
0000
3000
0010
0010
0100
,
0001
0001
0100
0010
0100
0001
1000
0001
,
0000
0000
0001
0000
0010
0000
1000
0000
0010
0100
0000
1000
0000
0000
1000
0000
,
0000
1000
0010
0100
0010
0000
1000
0002
,
0000
0000
0000
0010
0000
1000
0000
0013
,
0000
0010
0001
1000
0010
0100
0001
1000
,
0000
0000
1000
0000
0010
0000
0001
0000
0010
0100
0000
0001
0000
0000
0001
0000
,
0000
0001
0100
0010
0100
0000
0001
2000
,
0000
0100
0100
3100
,
0010
0000
0011
0000
1000
0010
0100
0010
,
0000
0000
0010
0000
1000
0000
0100
0000
0010
0001
0000
0100
0000
0000
0100
0000
,
0000
0100
0001
0010
0001
0000
0100
0020
,
0000
0001
0100
1030
,
2002
3003
0000
0000
;

//---------------dance-single - ----------------
#NOTES:
     dance-single:
     :
     Easy:
     7:
     0.244,0.307,0.110,0.091,0.023:
0000
0000
0000
0000
,
0000
0000
0000
0000
,
0000
0000
0000
0000
,
0000
0000
0000
0000
,
0000
0000
0000
0000
,
0000
0000
0000
0000
,
0000
0000
0000
0000
,
0000
0000
0000
0000
,
1000
0010
0100
0100
,
0001
0010
0100
0100
,
1000
0000
0000
0100
0000
0000
0010
0000
,
0000
0000
0001
1000
,
0010
0001
0010
1000
,
0100
0000
0000
0000
0010
0000
0000
0000
0001
0000
0000
0001
0000
0000
0100
0000
,
0000
0000
0010
0000
0001
0000
0010
1000
,
0000
0000
0000
0001
0000
0100
0000
0001
,
0000
1000
0100
0010
,
1000
0000
0000
0000
0010
0000
0000
0000
0001
0000
0000
0001
0000
0000
0100
0000
,
0000
0000
1000
0000
0100
0000
0010
2000
,
0000
0000
0000
0000
,
3001
0010
0100
0000
,
1000
0010
0100
0010
,
1000
1000
0001
0000
,
1001
1001
0000
1000
,
0001
0100
0010
0000
,
0010
1000
0100
0001
,
0100
1000
0001
0000
,
1001
1001
0000
1000
,
0020
0130
2000
3000
,
1000
0100
0001
0010
,
2000
3010
0002
0003
,
0000
0000
0000
0000
1000
1000
0100
0000
,
0020
0031
0200
0300
,
1000
0100
0010
1000
,
0100
0000
0000
0010
0000
0000
0001
0000
,
0000
0000
1000
0001
,
1001
1001
0100
0000
,
0010
1000
0100
0001
,
0100
0100
1000
0010
,
0100
0001
0000
0001
,
1001
1001
0010
0000
,
0001
1000
0010
0100
,
1000
1000
0100
0001
,
2000
0000
3000
0100
,
0010
1000
0010
0001
,
1000
0000
0000
0000
0010
0000
0000
0000
0100
0000
0000
0100
0000
0000
0001
0000
,
0000
0000
1000
0000
0100
0000
0010
0001
,
0000
0000
0000
1000
0000
0010
0000
1000
,
0000
0010
0001
0010
,
1000
0000
0000
0000
0001
0000
0000
0000
0010
0000
0000
0010
0000
0000
0100
0000
,
0000
0000
1000
0000
0010
0000
1000
0002
,
0000
0000
0000
0000
,
0013
0011
0001
1001
,
1000
0000
0000
0000
1010
0000
0000
0000
0010
0000
0000
0100
0000
0000
0001
0000
,
0000
0000
1000
0100
1000
0000
0001
0200
,
0000
1000
0010
0301
,
1001
0000
0000
0000
;

//---------------dance-double - ----------------
#NOTES:
     dance-double:
     :
     Hard:
     11:
     0.505,0.537,0.183,0.000,0.169:
00000000
00000000
00000000
00000000
,
00000000
00000000
00000000
00000000
,
00000000
00000000
00000000
00000000
,
00000000
00000000
00000000
00000000
,
00010000
00000000
00001000
00000000
00010000
00000000
00001000
00000000
00010000
00000000
00001000
00000000
00010000
00000000
00001000
00100000
,
00010000
00000000
01000000
00000000
00010000
00000000
01000000
00000000
00010000
00000000
01000000
00000000
00010000
00000000
01000000
00001000
,
00010000
00000000
00000010
00000000
00010000
00000000
00000010
00000000
00010000
00000000
00000010
00000000
00010000
00000000
00000010
00010000
,
00001000
00100000
00001000
00100000
00010000
10000000
10100000
00000000
,
10000000
00000000
01000000
00000000
00100000
00000000
00001000
00010000
00000000
00010000
00000000
00000100
00001000
00000000
00000001
00000000
,
00000100
00000000
00000010
00000000
00010000
00000000
00001000
00100000
00000000
00100000
00000000
00010000
10000000
00010000
10000000
00000000
,
10010000
00000000
00000000
00011000
00000000
00000000
00001001
00000000
,
00000001
00000100
00001000
00010000
01000000
10000000
01000000
00000000
,
01000000
01000000
10000000
00100000
00010000
00001000
00000100
00000010
,
00000000
00000000
00000010
00000000
00010000
00000000
00001000
00000000
00100000
00010000
00000000
00010000
01000000
00000000
01000000
00000000
,
00000000
01000000
00100000
00010000
00100000
00000000
10000000
01000000
,
00010000
00001000
00010000
00100000
00000000
10000000
00000000
11000000
,
00000000
10000000
00100000
00010000
00100000
01000000
00010000
00001000
,
00000000
00000000
00001000
00000000
00000001
00000000
00000010
00000000
00000001
00000100
00000000
00000100
00001000
00000000
00010000
00000000
,
00000000
00010000
00100000
10000000
00100000
00000000
01000000
00001000
,
00010000
00000000
00000000
00000000
00010000
00001000
00010000
00000000
00001000
00000000
00000000
00000000
00001000
00010000
00001000
00000000
,
00000100
00000001
00000010
00000001
00000100
00001000
00010000
00001000
,
00000000
00001000
00010000
00100000
10000000
00010000
00100000
01000000
,
00100000
00000000
00001000
00000000
00010000
00000000
00000010
00000000
00001000
00000001
00000000
00000010
00000000
00000010
00000000
00000000
,
00001000
00010000
00000000
00000000
00001000
00010000
00000000
00000000
00100000
00000000
10000000
00000000
10000000
00000000
01000000
00000000
,
00010000
00001000
00000010
00001000
00010000
00100000
01000000
00001000
,
00000000
00000010
00000001
00001000
00000010
00000100
00001000
00010000
,
01000000
00000000
10000000
00000000
00100000
00000000
10000000
00000000
01000000
00100000
00000000
00001000
00000000
00001000
00000000
00000000
,
00010000
00001000
00000000
00000000
00010000
00001000
00000000
00000000
00000010
00000000
00000001
00000000
00000001
00000000
00000100
00000000
,
00001000
00010000
00100000
00010000
00000100
00000000
00000000
00000010
,
00000001
00000100
00001000
00010000
00001000
00000010
00001000
00000000
,
00010000
00100000
10000000
01000000
00010000
00000000
00000000
00000000
,
00001000
00000000
00010000
00000000
00000010
00000100
00000010
00000100
00000001
00000000
00000001
00000000
00001000
00000000
00000000
00000000
,
00000010
00001000
00010000
00001000
00000001
00000000
00000000
00000100
,
00000010
00000010
00010000
00001000
00100000
01000000
10000000
00000000
,
01100000
00000000
00000000
00011000
00000000
00000000
00000110
00000000
,
00000001
00000010
00001000
00010000
00100000
10000000
00100000
00000000
,
10100000
00000000
01010000
00000000
00011000
00000000
00000000
00001000
,
00010000
00000010
00001000
00000001
00000100
00001000
00011000
00000000
,
00110000
00000000
00110000
00000000
10000000
00100000
10000000
01000000
,
00100000
00001000
00010000
00000000
00000010
00001000
00001000
00000001
,
00000101
00000000
00001010
00000000
00011000
00000000
00000000
00100000
,
00010000
10000000
00100000
00010000
00001000
00000010
00001000
00010000
,
00000010
00000000
00000010
00000000
00000001
00000010
00001000
00000010
,
00000100
00001000
00000100
00000001
00000010
00001000
00010000
01000000
,
10000000
10000000
00100000
10000000
01000000
00010000
00001000
00010000
,
00000000
00000000
00010000
00000000
00001000
00000000
00000010
00000000
00000001
00000100
00000000
00000100
00000010
00000000
00010000
00000000
,
00000000
00010000
00100000
10000000
00100000
00000000
01000000
00001000
,
00010000
00001000
00000100
00000010
00000000
00001000
00000000
00000001
,
00000000
00000001
00000010
00001000
00000010
00000100
00010000
00001000
,
00000000
00000000
00001000
00000000
00010000
00000000
00100000
00000000
10000000
01000000
00000000
01000000
00100000
00000000
00001000
00000000
,
00000000
00001000
00000010
00000001
00001000
00000000
00000010
00000100
,
00001000
00000000
00000000
00000000
00010000
00001000
00010000
00000000
00001000
00000000
00000000
00000000
00010000
00001000
00010000
00000000
,
01000000
10000000
10010000
00000000
00010000
00100000
00011000
00000000
,
00010000
00000000
00000010
00000000
00000100
00000000
00000001
00000000
00001000
00000100
00000000
00000100
00010000
00000000
00001000
00000000
,
00000000
00001000
00010000
00100000
10000000
00000000
01000000
00010000
,
00001000
00000000
00000000
00000000
00000100
00000000
00000000
00000000
00000001
00000000
00000000
00000000
00000010
00000100
00000010
00000000
,
00001001
00000000
00000000
00000000
;

//---------------dance-double - ----------------
#NOTES:
     dance-double:
     :
     Medium:
     10:
     0.402,0.435,0.128,0.155,0.082:
00000000
00000000
00000000
00000000
,
00000000
00000000
00000000
00000000
,
00000000
00000000
00000000
00000000
,
00000000
00000000
00000000
00000000
,
00010000
00000000
01000000
00000000
10000000
00000000
00100000
10000000
,
01000000
00000000
00010000
00000000
00001000
00000000
00000100
00000001
,
00000010
00000000
00001000
00000000
00010000
00000000
00100000
10000000
,
00100000
00000000
00010000
00000000
00001000
00000010
00001001
00000000
,
00000001
00000100
00001000
00000000
00010000
00001000
00000010
00000000
,
00001000
00010000
00100000
00000000
10000000
01000000
00010000
00000000
,
00011000
00000000
00000000
00000110
00000000
00000000
00001001
00000000
,
00000000
00000000
00000110
00011000
,
00100000
00100000
00010000
10000000
00100000
01000000
00001000
00010000
,
00000000
00000000
00010000
00000000
00000010
00000000
00001000
00000000
00000001
00000010
00000000
00000100
00000000
00000000
00000100
00000000
,
00000000
00000100
00010000
00000010
00010000
00000000
00001000
00200000
,
00000000
00000000
00000000
10000000
00000000
00010000
00000000
01300000
,
00000000
01000000
10000000
00100000
01000000
00001000
00010000
00000010
,
00000000
00000000
00000010
00000000
00001000
00000000
00000001
00000000
00000100
00000010
00000000
00010000
00000000
00000000
00010000
00000000
,
00000000
00010000
00001000
00100000
00010000
00000000
01000000
00100000
,
10000000
01000000
00010000
00001000
,
00000100
00000001
00000010
00000001
00000100
00000000
00000000
00000010
,
00000000
00010000
00001000
00100000
00010000
10000000
00100000
01000000
,
00001000
00000000
00010000
00000000
00000010
00000000
00010000
00000000
00000200
00000000
00000000
00000010
00000000
00000310
00000000
00000000
,
00000010
00000001
00000000
00000000
00000010
00000001
00000000
00000000
00001000
00000000
00001000
00000000
00000010
00000000
00000100
00000000
,
00001000
00010000
00001000
00000100
00000010
00000000
00000000
00010000
,
00000000
00001000
00100000
00010000
10000000
00100000
01000000
00001000
,
00010000
00000000
00000010
00000000
00000100
00000000
00000001
00000000
00020000
00000000
00000000
00001000
00000000
00031000
00000000
00000000
,
10000000
01000000
00000000
00000000
10000000
01000000
00000000
00000000
00000000
00000000
00100000
00000000
01000000
00000000
01000000
00000000
,
00002000
00000000
00003010
00000000
00000002
00000000
00000003
00001000
,
00000000
00000100
00000010
00010000
00002000
00000000
00103000
00000000
,
20000000
30100000
00002000
00003000
,
00000000
00000000
00000000
00000000
00011000
00011000
00000100
00000000
,
00000020
00000000
00000031
00000000
00000200
00000000
00000300
00001000
,
00010000
00010000
00100000
01000000
00020000
00000000
00130000
00000000
,
20000000
00000000
00000000
30200000
00000000
00000000
00302000
00000000
,
00000000
00000000
00010000
00013000
,
00011000
00000000
00000010
00000000
00001001
00000000
00000000
00000001
,
00000000
00000010
00000001
00001000
00000010
00000000
00000100
00000000
,
00001000
00000000
00010000
00000000
00100000
00000000
10000000
01000000
,
00000000
00200000
00000000
00000000
00300000
00001000
00001000
00010000
,
00011000
00000000
00100000
00000000
10010000
00000000
00000000
10000000
,
00000000
00100000
10000000
00010000
00100000
00000000
00001000
00000000
,
00010000
00000000
00000010
00000000
00000100
00000000
00000001
00002000
,
00000000
00000000
00000000
00000000
00003000
00000100
00000100
00010000
,
00001000
00001000
00010000
00100000
01000000
00010000
10000000
01000000
,
00000000
00000000
01000000
00000000
00100000
00000000
00001000
00000000
00010000
00000100
00000000
00001000
00000000
00000000
00001000
00000000
,
00000000
00001000
00000010
00010000
00001000
00000000
00001000
02000000
,
00000000
00000000
00000000
00100000
00000000
10000000
00000000
03010000
,
00000000
00010000
00100000
01000000
00010000
00001000
00010000
00000010
,
00000000
00000000
00000010
00000000
00001000
00000000
00000001
00000000
00000010
00000100
00000000
00010000
00000000
00000000
00010000
00000000
,
00000000
00010000
00001000
00100000
00010000
00000000
01000000
00010000
,
10000000
01000000
00010000
00001000
,
00000010
00000000
00001001
00000000
00000100
00000010
00010000
00001000
,
00000000
00000000
00001000
00000000
00010000
00000000
00100000
00000000
10000000
00010000
00000000
01000000
00000000
00000000
01000000
00000000
,
00000000
01000000
00100000
10000000
00010000
00000000
01000000
00001000
,
00010000
00000010
00000100
00000001
,
00001001
00000000
00000000
00000000
;

//---------------dance-double - ----------------
#NOTES:
     dance-double:
     :
     Easy:
     7:
     0.235,0.283,0.110,0.046,0.023:
00000000
00000000
00000000
00000000
,
00000000
00000000
00000000
00000000
,
00000000
00000000
00000000
00000000
,
00000000
00000000
00000000
00000000
,
00000000
00000000
00000000
00000000
,
00000000
00000000
00000000
00000000
,
00000000
00000000
00000000
00000000
,
00000000
00000000
00000000
00000000
,
00010000
00001000
00000010
00001000
,
00010000
00001000
00000100
00001000
,
00010000
00000000
00000000
01000000
00000000
00000000
10000000
00000000
,
00000000
00000000
00010000
10000000
,
00100000
00000000
00010000
00000000
00001000
00000000
00000000
00000100
,
00000000
00000000
00000000
00000000
00000001
00000000
00000000
00000000
00000010
00000000
00000000
00000010
00000000
00000000
00001000
00000000
,
00000000
00000000
00010000
00000000
00100000
00000000
10000000
01000000
,
00000000
00000000
00000000
10000000
00000000
00100000
00000000
00010000
,
00000000
00000000
00001000
00000000
00000010
00000000
00000000
00000001
,
00000000
00000000
00000000
00000000
00000100
00000000
00000000
00000000
00001000
00000000
00000000
00001000
00000000
00000000
00010000
00000000
,
00000000
00000000
01000000
00000000
10000000
00000000
00100000
20000000
,
00000000
00000000
00000000
00000000
,
30010000
00100000
01000000
00000000
,
10000000
01000000
00010000
00001000
,
00000100
00000001
00000100
00000000
,
00000010
00000010
00000000
00010000
,
00100000
10000000
01000000
00000000
,
10000000
00100000
00010000
00001000
,
00000010
00000001
00000010
00000000
,
00000001
00000001
00000000
00000000
,
00001001
00010000
00011000
00000000
,
00010000
01000000
10000000
00100000
,
10100000
00010000
10010000
00000000
,
00000000
00000000
00000000
00000000
00001000
00001000
00010000
00000000
,
00011000
00000001
00001001
00000000
,
00000001
00000100
00001000
00010000
,
00100000
00000000
00000000
10000000
00000000
00000000
01000000
00000000
,
00000000
00000000
00100000
00001000
,
00011000
00000010
00001001
00000000
,
00000001
00000100
00001000
00010000
,
00100000
00100000
01000000
00010000
,
10000000
01000000
00100000
00001000
,
00011000
00100000
10010000
00000000
,
10000000
00100000
01000000
01000000
,
00001000
00010000
00000100
00000010
,
00000001
00000000
00000001
00000100
,
00000010
00000000
00010000
00000000
00001000
00000000
00000000
00100000
,
00000000
00000000
00000000
00000000
00010000
00000000
00000000
00000000
01000000
00000000
00000000
01000000
00000000
00000000
10000000
00000000
,
00000000
00000000
01000000
00000000
00100000
00000000
10000000
00010000
,
00000000
00000000
00000000
10000000
00000000
01000000
00000000
00010000
,
00000000
00000000
00001000
00000000
00000010
00000000
00000000
00000100
,
00000000
00000000
00000000
00000000
00000100
00000000
00000000
00000000
00001000
00000000
00000000
00001000
00000000
00000000
00000010
00000000
,
00000000
00000000
00000001
00000000
00000010
00000000
00010000
00002000
,
00000000
00000000
00000000
00000000
,
00013000
00000000
00011000
00000000
00100000
00000000
00010000
10000000
,
00000000
00000000
10000000
00000000
00010000
00000000
00000000
00000000
00100000
00000000
00000000
00100000
00000000
00000000
00001000
00000000
,
00000000
00000000
00010000
00001000
00010000
00000000
00000100
00002000
,
00000000
00000010
00000001
00003100
,
00022000
00033000
00000000
00000000
;

//---------------dance-single - ----------------
#NOTES:
     dance-single:
     :
     Beginner:
     4:
     0.112,0.179,0.046,0.027,0.000:
0000
0000
0000
0000
,
0000
0000
0000
0000
,
0000
0000
0000
0000
,
0000
0000
0000
0000
,
0000
0000
0000
0000
,
0000
0000
0000
0000
,
0000
0000
0000
0000
,
0000
0000
0000
0000
,
0000
0000
0000
0000
,
0000
0000
0000
0000
,
0000
0000
0000
0000
,
0000
0000
0000
0000
,
1000
0000
0000
0000
0001
0000
0000
0001
,
0000
0000
0000
0000
,
0001
0000
0000
0000
1000
0000
0000
1000
,
0000
0000
0000
0000
,
0010
0000
0000
0000
0100
0000
0000
0100
,
0000
0000
0000
0000
,
0100
0000
0000
0000
0010
0000
0000
0010
,
0000
0000
0000
0000
,
1000
0000
1000
0000
,
0001
0000
0010
0000
,
0100
0000
0100
0000
,
0000
0000
0000
0000
,
1000
0000
1000
0000
,
0010
0000
0100
0000
,
0001
0000
0001
0000
,
0000
0000
0000
0000
,
0002
0003
1001
0000
,
1000
0000
1000
0000
,
2000
3000
1001
0000
,
0000
0000
0000
0000
,
0020
0030
0110
0000
,
0100
0000
0010
0000
,
0100
0000
0000
0100
0000
0000
0001
0000
,
0000
0000
1000
0000
,
1000
0000
1000
0000
1000
0000
0000
0001
,
0000
0000
0001
0000
,
0010
0010
0010
0000
,
0001
0000
0000
0000
,
0001
0000
0001
0000
0001
0000
0000
0100
,
0000
0000
0010
0000
,
0100
0000
0100
0000
0100
0000
0000
0001
,
0000
0000
0000
0000
,
1000
0000
0000
0000
0100
0000
0000
0100
,
0000
0000
0010
0000
,
0001
0000
0000
0000
0001
0000
0000
0100
,
0000
0000
0000
0000
,
0010
0000
0000
0000
0010
0000
0000
1000
,
0000
0000
1000
0000
,
0001
0000
0000
0000
0001
0000
0000
0010
,
0000
0000
0000
0000
,
1001
0000
0000
0000
0001
0000
0000
0100
,
0000
0000
0000
0010
0000
0000
0000
0000
,
1000
0000
0000
0000
0001
0000
0000
0010
,
0000
0000
0000
0000
,
0110
0000
0000
0000
;
