#TITLE:Off Tha Heezie;
#SUBTITLE:;
#ARTIST:matra magic;
#TITLETRANSLIT:;
#SUBTITLETRANSLIT:;
#ARTISTTRANSLIT:;
#GENRE:;
#CREDIT:;
#MUSIC:Matra Magic - Off Tha Heezie.mp3;
#BANNER:banner.png;
#BACKGROUND:bg1.png;
#CDTITLE:;
#SAMPLESTART:26.337;
#SAMPLELENGTH:12.000;
#SELECTABLE:YES;
#OFFSET:-0.462;
#BPMS:0.000=160.000
,323.000=80.000
;
#STOPS:291.750=0.375;
#DISPLAYBPM:160.000;
#BGCHANGES:;
#FGCHANGES:;

//--------------- dance-single - about-blank ----------------
#NOTES:
     dance-single:
     about-blank:
     Medium:
     12:
     0,0,0,0,0:
0000
0000
0000
0000
,
0000
0000
0000
0000
,
0000
0000
0000
0000
,
0110
0000
1001
0000
1000
0010
0001
0000
,
0110
0000
1001
0000
0001
0010
1000
0000
,
0100
0100
1000
0001
,
0010
0010
0001
1000
,
0011
0000
1100
0000
1000
0100
0010
0000
,
1010
0000
0101
0000
0001
0100
0010
0000
,
1000
0000
1000
0000
0010
1000
0100
0000
,
0001
0000
0001
0000
0010
0001
0100
0000
,
1100
0000
0101
0000
1000
0100
0010
0000
,
0101
0000
1100
0000
0001
0100
0010
0000
,
2000
0000
3010
0000
1000
0100
1000
0000
,
0002
0000
0013
0000
0001
0100
0001
0000
,
1100
0000
0011
0000
1000
0100
0010
0001
,
0100
0100
0010
0010
1000
0001
1000
0000
,
0110
0000
0000
0000
1000
0000
0010
0000
0001
0000
0000
0010
0000
0000
0100
0000
,
0001
0000
0001
0000
1000
0000
0000
0000
0011
0000
0000
0000
1000
0000
0000
1000
,
0001
0000
0100
0000
0010
0000
0100
0000
0002
0000
0000
0000
1003
0000
0000
1000
,
0001
0000
0010
0000
0100
0000
0000
0000
0020
0000
0030
0000
0001
0100
0000
1010
,
0000
0000
0000
0000
0001
0000
0010
0000
1000
0000
0000
0010
0000
0000
0100
0000
,
1000
0000
1000
0000
0010
0000
0000
0000
0110
0000
0000
0000
1001
0000
0000
1000
,
0010
0000
0100
0000
0001
0000
0100
0000
0010
0000
0000
0000
1000
0000
0000
1000
,
0001
1000
0010
0000
0100
0001
1000
0100
,
0010
0001
0010
0001
0100
0000
0100
0000
,
0011
0000
1000
0000
0100
0000
0000
0000
2000
0000
0000
0000
3001
0000
0000
1000
,
0010
0000
0010
0000
0001
0000
0010
0000
1000
0000
0000
0000
0100
0000
0000
0100
,
0010
0000
0001
0000
1000
0000
0000
0000
0010
0000
0100
0000
0001
0000
0000
1001
,
0000
0000
0000
0000
0001
0000
1000
0000
0010
0000
0000
0010
0001
0000
0000
0000
,
1000
0000
0100
0000
0001
0000
0000
0000
0010
0000
0000
0000
0110
0000
0000
1000
,
0001
0000
0100
0000
0001
0000
0000
0000
0010
0000
0100
0000
0010
0000
0000
0002
,
1000
1000
1000
1003
,
0001
0100
1000
0100
0001
0100
1000
0100
,
0001
0010
0001
0010
0001
0000
1001
0000
,
1000
0100
0001
0100
1000
0100
0001
0100
,
1000
0010
0001
0010
1000
1000
0001
0000
,
0100
0010
1000
0010
0100
0010
1000
0010
,
0100
0001
0100
0001
1000
0000
1001
0000
,
0001
0010
0100
0010
0001
0010
0100
1000
,
0020
0130
0110
1001
,
0001
1000
0100
1000
0001
1000
0100
1000
,
0001
1000
0010
1000
0001
0000
1001
0000
,
1000
0001
0100
0001
1000
0001
0100
0001
,
1000
0001
0010
0001
1000
0000
1001
0000
,
0001
1000
0010
0100
0001
1000
0010
0100
,
0001
1000
0100
0010
0001
0000
1001
0000
,
0001
1000
0100
0000
0001
0100
1000
0000
,
0220
0000
0000
0330
,
0001
0000
0001
0000
1000
0100
0001
0000
,
1000
0000
1000
0000
0001
0010
1000
0000
,
0001
0000
0001
0000
1000
0100
0001
0000
,
0110
0110
0110
0110
,
1000
0000
1000
0000
0010
1000
0100
0000
,
0001
0000
0001
0000
0010
0001
0100
0000
,
0001
0200
1000
0000
0010
0000
0310
0000
,
1000
0001
1000
0001
0100
0010
0100
0000
,
0001
0000
0001
0000
0010
0100
1000
0000
,
0100
0000
0100
0000
0010
0001
0100
0000
,
0001
0100
1000
0000
0100
0010
1000
0100
,
0020
1000
0001
1000
,
0031
0000
0101
0000
1000
0001
0100
0000
,
1000
0000
1100
0000
0001
1000
0100
0000
,
0010
0000
0020
0000
0001
0000
0002
0033
,
1000
0100
0001
0100
0010
0001
0010
0001
,
1000
0000
0000
0000
1010
0000
0000
0000
0001
0000
0000
1000
0000
0000
0100
0000
,
0010
0000
0000
0000
0011
0000
0000
0000
0001
0100
0000
0000
1000
0100
0000
0001
,
0020
0000
0000
0000
0100
0000
0000
0000
0130
0000
0000
0000
0110
0000
0000
1000
,
0200
0000
0000
0000
0310
0000
0000
0000
0001
0000
1000
0000
0001
0000
0000
1001
,
0000
0000
0000
0000
0001
0000
0000
0000
1000
0000
0000
0001
0000
0000
0100
0000
,
0001
0000
0000
0000
0011
0000
0000
0000
0001
0010
0000
0000
0100
1000
0000
0001
,
2000
0000
0000
0000
0100
0000
0000
0000
3100
0000
0000
0000
1001
0000
0000
1000
,
0002
0000
0013
0000
0001
0100
1000
0100
,
1001
0000
1001
0000
1001
0000
1000
0100
,
0010
1000
0001
0100
0010
0000
0002
0000
,
1000
0000
1003
0000
0001
0200
1000
0000
,
0310
0000
0000
0000
1000
0000
0001
0000
1000
0000
0000
0110
0000
0000
0000
0000
,
1000
0100
1000
0010
1000
0100
0010
0001
,
0100
0000
0000
0000
1000
0000
0100
0000
0001
0000
0000
1000
0001
0000
0001
0000
,
0100
0100
0010
0010
1000
1000
0002
0000
,
0010
0100
1003
2002
,
0000
0000
0000
0000
0000
0000
0000
3003
;

//--------------- dance-single - about-blank ----------------
#NOTES:
     dance-single:
     about-blank:
     Hard:
     15:
     0.698896,0.76794,0.458416,0.353206,0.402053,651,590,61,47,0,0,0.698896,0.76794,0.458416,0.353206,0.402053,651,590,61,47,0,0:
0000
0000
0000
0000
,
0000
0000
0000
0000
,
0000
0000
0000
0000
,
0201
0000
1000
0000
0301
1000
0010
0010
,
0002
0000
0100
0000
1003
0001
0010
0010
,
1000
0000
0100
0000
0010
0001
0100
0000
,
1010
0000
0001
0000
1000
0100
0010
0000
,
1200
0000
0001
0000
1300
0001
0010
0010
,
2000
0000
0100
0000
3001
1000
0100
0100
,
0001
0010
0100
0000
0010
0000
1001
0000
,
1000
0010
0100
0000
0010
0000
1001
0000
,
1020
0000
0001
0000
1030
0100
0010
0100
,
2000
0000
0001
0000
3100
0010
0100
0010
,
0001
1000
0010
0000
0100
0000
1001
0000
,
1000
0001
0100
0000
0010
0000
1001
0000
,
0002
0103
2000
3010
,
0001
0000
0001
0000
1000
0000
1000
0000
0010
0100
0010
0100
0010
0000
0000
0000
,
1001
0000
0000
0000
0001
0000
0100
0000
1000
0000
0000
1000
0100
0000
0001
0000
,
0010
0000
0100
0010
0000
0001
0000
0000
1010
0000
0000
0000
0101
0000
0000
0001
,
0010
0000
0010
0000
1000
0000
0010
0000
0002
0000
0003
0000
1010
0000
0000
0001
,
0100
0000
0100
0000
0001
1000
0000
0000
1100
0000
0000
0000
0011
0000
0000
0220
,
0000
0000
0330
0000
1000
0000
0010
0000
0001
0000
0000
0001
0010
0000
1000
0000
,
0001
0000
0010
0100
0000
1000
0000
0000
0101
0000
0000
0000
1010
0000
0000
0001
,
1000
0000
0010
0000
0100
0000
0001
0000
0020
0000
0030
0000
0101
0000
0000
1000
,
0100
0000
0001
0000
0100
0010
0000
0000
0012
0000
0003
1000
0010
0000
0100
0000
,
0101
0000
0001
0000
1000
0000
0010
0000
2000
0000
3000
0001
0100
0000
0010
0000
,
1000
0000
0001
0010
0000
0001
0000
0000
1100
0000
0000
0000
0011
0000
0000
1000
,
0010
0000
0010
0000
0001
0000
0010
0000
2000
0000
3000
0000
0101
0000
0000
0001
,
1000
0000
0001
0000
0010
0100
0000
0000
0011
0000
0000
0000
1010
0000
0000
0220
,
0000
0330
0001
0000
1000
0000
0100
0000
0001
0000
0000
1000
0010
0000
0100
0000
,
1000
0000
0001
0100
0000
0010
0000
0000
0101
0000
0000
0000
1010
0000
0000
0001
,
1000
0000
1000
0000
0001
0000
0010
0000
0200
0000
0300
0000
1010
0000
0000
0001
,
0100
0000
0001
0010
0000
0010
0000
0100
2000
0000
0000
0000
3010
0100
0010
0100
,
0010
0001
0010
1000
0010
0001
0010
1000
,
0100
0000
0001
0000
0100
0000
1000
0000
0020
0000
0030
0000
0101
0000
0000
0100
,
0010
1000
0100
1000
0010
1000
0100
1000
,
0010
0000
0100
0000
1000
0000
0100
0000
0002
0000
0003
0000
1010
0000
0000
0010
,
0100
0001
0100
0010
0100
0001
0100
0010
,
1000
0000
0100
0000
0010
0000
0001
0000
2000
0000
3000
0000
0011
0000
0000
1000
,
0001
0010
0001
0100
0001
0010
0001
0100
,
0020
0000
1000
0000
1030
0000
0001
0000
0010
0100
0010
0001
2000
0000
3000
0001
,
0100
0010
0100
0001
1000
0100
0010
0001
,
0100
0000
0001
0000
0010
0000
0100
0000
0201
0000
0000
0000
1300
0000
0000
1000
,
0001
0100
0010
1000
0001
0010
0001
0100
,
0010
0000
1000
0000
0100
0000
0010
0000
1020
0000
0000
0000
0031
0000
0000
0001
,
1000
0010
0100
0010
1000
0001
0010
0100
,
1000
0000
0001
0000
0010
0000
0001
0000
0201
0000
0000
0000
0310
0000
0000
1000
,
0010
0000
0100
0010
1000
0000
0001
0000
0010
0000
0010
0100
0010
0000
0001
1000
,
0002
1000
1000
1003
,
0002
0000
0000
0000
0013
0000
0001
0100
0001
0000
1000
0000
0101
0000
0000
0000
,
1010
0000
0000
0000
0010
0100
0010
0100
0001
0000
1000
0000
1100
0000
0000
0000
,
0011
0000
0000
0000
0001
0000
1000
0100
0010
0000
0000
1100
0000
0011
0000
0001
,
1000
0000
0020
1000
0001
0000
0000
0001
1000
0000
0000
1000
0031
0000
1000
0000
,
0100
0000
1000
0000
0001
0000
0000
0000
0011
0000
0001
0010
0001
0000
0100
0000
,
0010
1000
0001
0000
0110
0001
1000
0000
,
1010
1000
0002
0000
0013
0001
1000
0010
,
0100
0000
0001
0000
0100
0001
0100
0000
1010
0000
1010
0000
0001
1000
0001
1000
,
0010
1000
0010
0000
0100
0000
0001
0000
1000
0000
0100
0000
0001
0000
0100
0000
,
0010
0001
0010
0000
0001
0000
1000
0000
0100
0000
0010
0000
0001
0000
0100
0000
,
0001
0100
0001
0000
1000
0000
0010
0000
0100
0000
0010
0000
1000
0000
0200
1000
,
0001
0000
0000
0001
1000
0000
0000
1000
0001
0000
0000
0001
1300
0000
0001
0000
,
1000
0100
0010
0000
0100
0000
1000
0000
0001
0000
1000
0000
0100
0000
0010
0000
,
0001
1000
0010
0000
0100
0000
0001
0000
1000
0000
0001
0000
0010
0000
0100
0000
,
1000
0001
1000
0000
1200
0000
0000
0000
0310
0000
0001
0000
1000
0000
0010
0000
,
1000
0000
0001
1000
0001
0000
0100
0010
1000
0001
1000
0001
1000
0001
1000
0001
,
1000
0000
0010
0000
0100
0000
0001
0000
0011
0000
0000
0010
2000
0000
3010
0000
,
0001
0000
0001
1000
0000
0010
0000
0000
1010
0000
0100
0000
1001
0000
0000
0001
,
1000
0000
0010
0000
0100
0000
0100
0000
0020
0000
0030
0000
1100
0000
0000
0001
,
1000
0000
0001
0000
1000
0100
0000
0000
0011
0000
1000
0000
0101
0000
0000
1001
,
0000
0000
0001
0000
0010
0000
0100
0000
0002
0000
0003
1000
0010
0000
0100
0000
,
0010
0000
0001
1000
0000
0001
0000
0000
0110
0000
0001
0000
1010
0000
0000
1000
,
0001
0000
0100
0000
0010
0000
1000
0000
0002
0000
0003
0000
1100
0000
0000
0001
,
1000
0000
0100
0000
0010
0100
0000
0000
0010
0001
0010
0001
1000
0100
0010
0001
,
2100
3000
0001
0000
2000
3000
0010
0100
2000
3000
0100
0000
0001
0000
0100
0001
,
0100
0000
0001
0000
0020
0000
0130
0000
1001
0000
1000
0001
0100
0000
0010
0000
,
1000
0000
1000
0000
0010
0000
1000
0000
0001
0000
0100
0001
1000
0000
0100
0000
,
0010
0001
1000
0000
1010
0000
0001
0000
0110
0000
0000
1000
0001
0000
0010
0000
,
0100
0000
0010
0000
0001
0000
0100
0001
0100
0000
0010
0000
1000
0010
1000
0010
,
0100
0000
0001
0000
1100
0000
0010
0000
1001
0000
0000
1000
0001
0000
0010
0100
,
0010
0000
0100
1000
0100
0000
1000
0010
1000
0000
0010
0100
0010
0000
0010
1000
,
0010
0100
0000
0001
2000
0000
3000
0000
0002
0000
0003
0000
2002
0000
0000
0000
,
0000
0000
0000
3003
;
