#TITLE:Oceanus;
#SUBTITLE:;
#ARTIST:brz1128;
#TITLETRANSLIT:;
#SUBTITLETRANSLIT:;
#ARTISTTRANSLIT:;
#GENRE:;
#CREDIT:;
#BANNER:Oceanus.png;
#BACKGROUND:Oceanus-bg.png;
#LYRICSPATH:;
#CDTITLE:;
#MUSIC:Oceanus.ogg;
#OFFSET:0.000000;
#SAMPLESTART:12.146128;
#SAMPLELENGTH:10.786518;
#SELECTABLE:YES;
#BPMS:0.000000=178.000000
;
#STOPS:
;
#BGCHANGES:;
#KEYSOUNDS:;
#ATTACKS:;

//---------------dance-single - ----------------
#NOTES:
     dance-single:
     :
     Challenge:
     18:
     0.991232,1.187364,0.151615,0.124860,1.489396,778.000000,761.000000,17.000000,14.000000,0.000000,0.000000,0.991232,1.187364,0.151615,0.124860,1.489396,778.000000,761.000000,17.000000,14.000000,0.000000,0.000000:
0000
0000
0000
0000
,
0000
0000
0000
0000
,
0000
0000
0000
0000
,
0000
0000
0000
0000
,
0000
0000
0000
0000
,
0000
0000
0000
0000
,
0000
0000
0000
0000
,
0000
0000
0000
0000
,
0000
0000
0000
0000
,
0001
0010
0000
0001
0010
0000
0100
0010
0000
0010
0001
0000
1000
0000
0001
0100
,
0010
0000
1000
0010
0000
0100
0001
0010
0000
0010
0100
0000
1000
0000
0010
1000
,
0001
0010
0100
1000
0000
0001
0100
0001
1000
0010
0100
0001
0000
1000
0100
1000
,
0001
0100
0000
0001
0100
0000
0010
1000
0000
0100
0010
0000
0010
0000
0100
1000
,
0010
0000
0100
0010
0000
1000
0001
0100
0010
0000
0100
1000
0000
0100
0001
0000
,
0010
0000
0100
0010
0000
0001
1000
0100
0010
0000
0100
0001
0000
0100
1000
0000
,
0001
0000
1000
0001
0000
1000
0010
0100
0001
0000
0100
1000
0000
0100
0001
0000
,
0010
0000
0100
0010
0000
0100
1000
0001
0100
0010
0100
0010
1000
0001
0010
0100
,
1000
0010
0000
1000
0010
0000
0100
0010
0000
0010
1000
0000
0001
0000
1000
0100
,
0010
0000
0001
0010
0000
0100
1000
0010
0000
0010
0100
0000
0001
0000
0010
0001
,
0100
0001
1000
0010
0000
1000
0001
1000
0100
1000
0001
0010
0000
0001
1000
0001
,
0100
0010
0000
0100
0010
0000
1000
0100
0000
0010
0001
0000
0010
0000
0100
0000
,
1000
0000
0010
1000
0000
0001
0100
0010
1000
0000
0100
0010
0000
0100
0001
0000
,
0100
0000
0010
0001
0000
1000
0100
0010
0001
0000
0100
0010
0000
0100
1000
0000
,
0100
0000
0010
1000
0000
0010
0100
0001
0010
0000
0100
1000
0000
0100
0010
0001
,
2000
0000
0000
0000
3100
0000
0010
0100
0010
0001
0100
0000
0010
0000
0010
0000
,
0110
0000
0100
0000
0001
1000
0010
1000
0000
0010
0000
0010
1000
0000
0001
0010
,
0100
0000
0010
0001
1000
0001
0100
0001
0000
0001
1000
0000
1001
0000
1000
0000
,
0100
0000
0010
0000
0001
1000
0100
1000
0000
0100
0000
0100
1000
0000
0001
0100
,
0010
0000
0100
0001
1000
0001
0100
0001
0000
0001
1000
0000
1100
0000
0100
0000
,
0110
0000
0010
0000
0001
1000
0010
1000
0000
0001
1000
0001
0010
0000
0100
1000
,
0001
0000
0100
0001
1000
0100
0010
0001
0000
0001
0010
0000
0110
0000
0100
0000
,
1000
0000
0010
0000
1000
0001
0100
0001
0000
1000
0001
1000
0100
0000
0010
0000
,
0001
0000
1000
0000
1010
0000
0010
0000
0110
0000
0100
0000
1001
0000
1000
0001
,
0010
0000
0100
0010
0001
0000
0001
1000
0100
0000
1000
0010
0100
0000
0100
0001
,
1000
0000
0001
0010
0100
0000
0100
1000
0001
0000
0100
0010
1000
0000
0100
0010
,
0001
0000
0100
0010
1000
0000
1000
0001
0100
0000
0001
0010
0100
0000
0100
1000
,
0001
0000
1000
0010
0100
0000
0100
0001
1000
0000
0100
0010
0001
0000
0100
0010
,
1000
0000
0010
0100
1000
0000
1000
0100
0001
0000
0010
0100
0001
0000
0001
0100
,
1000
0000
0100
0010
1000
0000
1000
0010
0001
0000
0100
0010
0001
0000
0001
0010
,
1000
0000
0010
1000
0010
0000
0100
0001
0100
0001
1000
0001
1000
0100
0010
0001
,
1000
0001
0011
0010
0110
0100
1001
0000
,
1020
0000
0230
0000
,
0302
0000
0000
0023
0000
0000
0130
0000
,
1200
0000
0000
0010
,
0000
0000
2300
0000
,
3020
0000
0000
0100
0000
0000
0100
0000
,
0000
2030
3002
0103
,
0210
0000
0000
0302
0000
0000
0023
0000
,
0230
0000
0000
1000
0000
0000
0000
0000
0000
0010
0010
0310
,
0001
1000
0001
0100
0010
1000
0100
0000
0000
0100
0010
0100
,
1000
0001
0100
0010
0000
0000
0100
0001
0100
0010
1000
0001
,
0010
1000
0010
0001
1000
0010
0100
0000
0000
0001
0010
0100
,
1000
0001
0100
1000
0000
0000
0100
0001
1000
0100
0001
0100
,
1000
0000
0100
1000
0001
0000
1000
0001
0010
0000
0001
0010
0100
1000
0100
0010
,
0001
1000
0010
0100
0010
1000
0001
0100
0010
1000
0001
0010
0100
0010
0001
1000
,
0010
0001
0010
1000
0001
0010
0100
0001
0100
1000
0001
0100
0010
0001
0010
1000
,
0001
0000
0000
0000
0000
0000
0000
0000
0100
0010
1000
0001
0010
0100
1000
0001
,
0100
0010
0000
0100
0010
0000
1000
0010
0000
0010
0100
0000
0001
0000
0010
1000
,
0001
0000
0100
1000
0000
0001
0100
1000
0000
1000
0100
0000
0010
0000
1000
0001
,
0010
0001
1000
0100
0000
1000
0001
1000
0010
1000
0001
0100
0000
0001
0100
0010
,
1000
0001
0000
0100
1000
0000
0100
0010
0000
0010
1000
0000
0001
0000
0010
0100
,
1000
0000
0001
1000
0000
0010
1000
0100
0001
0000
0100
1000
0000
0100
0010
0000
,
0001
0000
1000
0001
0000
0010
0001
0100
1000
0000
0100
0001
0000
0100
0010
0000
,
1000
0000
0001
1000
0000
0100
1000
0010
0001
0000
0010
1000
0000
0100
0010
0000
,
0100
0000
0001
0100
0000
1000
0100
0010
0001
0100
0001
1000
0010
1000
0100
0010
,
0001
0100
0000
0001
0100
0000
0001
0010
0000
0010
0100
0000
1000
0000
0010
0001
,
1000
0000
0100
0001
0000
1000
0100
0001
0000
0001
0100
0000
0010
0000
0001
1000
,
0100
0010
0001
0010
0000
0100
1000
0001
0100
0010
1000
0010
0000
0100
0001
1000
,
0100
0010
0000
0001
1000
0000
0010
0001
0000
0010
1000
0000
0001
0000
0010
0100
,
0010
0000
0001
0100
0000
1000
0100
0001
1000
0000
0100
0001
0000
0100
0010
0000
,
0001
0000
1000
0100
0000
0001
0100
1000
0001
0000
0100
1000
0000
0100
0010
0000
,
1000
0000
0001
0010
0000
1000
0010
0001
1000
0000
0010
0100
0000
0010
1000
0000
,
0001
0000
0000
0001
0010
0000
0100
1000
0100
0010
0100
0010
0001
0000
0001
0000
,
1001
0000
1000
0001
0000
1000
0010
0100
0001
0000
1000
0100
0000
0010
0001
1000
,
0010
0000
0100
0010
0000
0100
0001
1000
0010
1000
0100
0010
0000
0100
1000
0001
,
0010
0000
0001
1000
0000
0001
0010
0100
1000
0000
0001
0100
0000
0010
1000
0001
,
0010
0000
0100
0010
0000
0100
0010
0001
1000
0001
0010
0100
1000
0010
1000
0010
,
0100
0000
0010
1000
0000
0001
1000
0010
0100
0000
0010
0001
0000
0010
1000
0001
,
0010
0000
0100
0010
0000
0100
1000
0001
0100
0000
1000
0100
0000
0001
1000
0100
,
0010
0001
0010
0001
1000
0100
1000
0100
1000
0010
0100
0010
1000
0001
0100
0010
,
1000
0000
0000
1100
0000
0000
0100
1000
0001
0000
0000
0011
0000
0000
0000
0000
;

//---------------dance-single - ----------------
#NOTES:
     dance-single:
     :
     Hard:
     16:
     0.863824,1.079422,0.080267,0.124860,1.261973,678.000000,669.000000,9.000000,14.000000,0.000000,0.000000,0.863824,1.079422,0.080267,0.124860,1.261973,678.000000,669.000000,9.000000,14.000000,0.000000,0.000000:
0000
0000
0000
0000
,
0000
0000
0000
0000
,
0000
0000
0000
0000
,
0000
0000
0000
0000
,
0000
0000
0000
0000
,
0000
0000
0000
0000
,
0000
0000
0000
0000
,
0000
0000
0000
0000
,
0000
0000
0000
0000
,
1000
0010
0000
1000
0010
0000
0100
0010
0000
0010
0100
0000
0001
0000
0010
0000
,
0100
0000
0010
0001
0000
0100
0001
0100
0000
0010
0100
0000
0001
0000
1000
0010
,
1000
0000
0001
0100
0000
0001
1000
0000
0001
0000
1000
0100
0000
1000
0001
0000
,
0010
0100
0000
0010
0100
0000
0010
0001
0000
0001
0010
0000
0100
0000
1000
0010
,
1000
0000
0001
0100
0000
0010
0100
0000
0001
0000
0010
0100
0000
1000
0001
0000
,
1000
0000
0001
0010
0000
0100
0010
0000
0001
0000
1000
0100
0000
0010
0001
0000
,
0100
0000
0010
1000
0000
0001
1000
0000
0001
0000
0100
0010
0000
1000
0001
0000
,
0010
0000
0100
0010
0000
0100
1000
0000
0001
0010
0001
0010
0100
1000
0100
1000
,
0001
0010
0000
0001
0010
0000
0100
0010
0000
0010
0100
0000
1000
0000
0010
0000
,
0100
0000
0010
1000
0000
0100
1000
0100
0000
0010
0100
0000
1000
0000
0001
0010
,
0001
0000
1000
0010
0000
1000
0001
0000
1000
0000
0001
0010
0000
0001
1000
0000
,
0010
1000
0000
0001
0100
0000
0001
0010
0000
0010
0100
0000
1000
0000
0001
0010
,
0001
0000
1000
0100
0000
0010
0100
0000
1000
0000
0010
0100
0000
0001
1000
0000
,
0001
0000
1000
0010
0000
0100
0010
0000
1000
0000
0001
0100
0000
0010
1000
0000
,
0100
0000
0010
0001
0000
1000
0001
0000
1000
0000
0100
0010
0000
0001
1000
0000
,
0010
0000
0100
0010
0000
0100
0001
0000
0010
0001
0010
0100
1000
0000
1000
0000
,
0001
0000
1000
0000
0010
0100
0000
0100
0000
0000
0010
0000
1000
0000
0001
0010
,
0100
0000
1000
0000
0001
0100
0000
0100
0000
0001
0100
0000
0010
0000
0010
0000
,
1000
0000
0001
0000
0010
0100
0000
0100
0000
0000
0010
0000
0001
0000
1000
0010
,
0100
0000
0001
0000
0010
0100
0000
0100
0000
1000
0100
0000
0010
0000
0010
0000
,
0001
0000
1000
0000
0100
0010
0000
0010
0000
0000
0100
0000
1000
0000
0001
0100
,
0010
0000
1000
0000
0001
0010
0000
0010
0000
0100
0010
0000
0001
0000
0001
0000
,
1000
0000
0001
0000
0100
0010
0000
0010
0000
0000
0100
0000
0001
0000
1000
0100
,
0010
0000
0000
0000
0011
0000
0000
0000
0110
0000
0000
0000
1001
0000
0001
1000
,
0001
0000
0000
0001
0010
0000
0000
0010
0100
0000
0000
0100
0010
0000
0000
0010
,
0001
0000
0000
0001
1000
0000
0000
1000
0010
0000
0000
0010
0100
0000
0100
0001
,
1000
0000
0000
1000
0010
0000
0000
0010
0100
0000
0000
0100
0010
0000
0000
0010
,
1000
0000
0000
1000
0001
0000
0000
0001
0010
0000
0000
0010
0100
0000
0100
1000
,
0001
0000
0000
0001
0010
0000
0000
0010
1000
0000
0000
1000
0001
0000
0000
0001
,
0100
0000
0000
0100
1000
0000
0000
1000
0001
0000
0000
0001
0100
0000
0100
0010
,
1000
0000
0000
1000
0010
0000
0100
0010
0100
0000
0010
0100
0010
0000
0100
0001
,
0100
1010
0110
1001
,
2000
0000
3200
0000
,
0320
0000
0000
0032
0000
0000
2003
0000
,
3020
0000
0000
0100
,
0000
0000
2030
0000
,
3002
0000
0000
0010
0000
0000
0023
0000
,
0000
0230
2300
3200
,
2300
0000
0000
0001
0000
0000
3020
0000
,
0000
0000
0000
0100
0000
0000
0000
0000
0000
1030
0001
1000
,
0001
0010
0100
0010
0100
1000
0010
0000
0000
0010
0100
0010
,
1000
0001
0010
0100
0000
0000
1000
0100
0010
0100
0010
0001
,
1000
0010
1000
0001
0100
0010
0100
0000
0000
0001
0100
0010
,
1000
0100
0010
0001
0000
0000
1000
0001
1000
0010
0100
0001
,
1000
0000
0100
1000
0100
0000
0010
0100
0010
0000
0001
0010
0001
1000
0100
0010
,
0001
0000
0100
0001
0100
0000
0010
0100
0010
0000
1000
0010
1000
0001
0010
0100
,
1000
0100
1000
0001
1000
0010
1000
0001
0100
0001
0100
0001
1000
0010
0100
0001
,
0010
0000
0000
0000
0000
0000
0000
0000
0001
1000
0100
0010
0001
0010
0100
1000
,
0001
0100
0000
0001
0100
0000
0010
1000
0000
1000
0001
0000
0010
0000
0100
0010
,
0100
0000
1000
0100
0000
1000
0001
1000
0000
1000
0010
0000
0100
0000
0001
1000
,
0010
0000
0100
0010
0000
1000
0001
0000
0010
0000
0100
0010
0000
0001
1000
0000
,
0100
0010
0000
0100
0010
0000
0001
1000
0000
0010
0100
0000
0100
0000
0001
0100
,
0010
0000
1000
0010
0000
1000
0010
1000
0001
0000
1000
0100
0000
0010
0001
0000
,
0100
0000
0001
0100
0000
0001
0100
0001
1000
0000
0001
0010
0000
0100
1000
0000
,
0001
0000
0010
0001
0000
0010
0001
0010
0100
0000
1000
0001
0000
0100
0010
0000
,
1000
0000
0100
1000
0000
0100
0010
0001
1000
0010
1000
0010
0100
0001
0100
0001
,
1000
0100
0000
1000
0100
0000
0010
0001
0000
0001
1000
0000
0010
0000
0100
0010
,
0100
0000
0001
0100
0000
0001
1000
0001
0000
0001
0010
0000
0100
0000
1000
0001
,
0010
0000
0100
0010
0000
0001
1000
0000
0010
0000
0100
0010
0000
1000
0001
0000
,
0100
0010
0000
0100
0010
0000
1000
0001
0000
0010
0100
0000
0100
0000
1000
0100
,
0010
0000
0001
0010
0000
0001
0010
0001
1000
0000
0001
0100
0000
0010
1000
0000
,
0100
0000
1000
0100
0000
1000
0100
1000
0001
0000
1000
0010
0000
0100
0001
0000
,
1000
0000
0010
1000
0000
0010
1000
0010
0100
0000
0001
1000
0000
0100
0010
0000
,
0001
0000
0100
0001
0000
0100
0010
1000
0001
0010
0100
0010
0001
0000
0001
0000
,
1001
0000
0000
1000
0000
0000
0001
0100
0010
0000
0000
1000
0000
0000
0001
1000
,
0001
0000
0000
0001
0000
0000
1000
0100
0010
0000
0000
0001
0000
0000
1000
0001
,
1000
0000
0000
1000
0000
0000
0010
0100
0001
0000
0000
1000
0000
0000
0001
0010
,
0100
0000
0000
0100
0000
0000
1000
0100
0010
0000
0001
0000
1000
0001
1000
0001
,
1000
0000
0100
0010
0000
0100
1000
0000
0001
0000
1000
0010
0000
1000
0001
0000
,
0100
0000
0001
0010
0000
0100
0010
0000
0001
0000
1000
0010
0000
0100
0001
0000
,
1000
0010
1000
0010
0100
0010
0100
0001
0100
0001
1000
0100
0010
0001
0010
0100
,
1000
0000
0000
1100
0000
0000
0100
0010
0001
0000
0000
0011
0000
0000
0000
0000
;

//---------------dance-single - ----------------
#NOTES:
     dance-single:
     :
     Medium:
     13:
     0.606461,0.683634,0.089185,0.062430,0.423631,476.000000,466.000000,10.000000,7.000000,0.000000,0.000000,0.606461,0.683634,0.089185,0.062430,0.423631,476.000000,466.000000,10.000000,7.000000,0.000000,0.000000:
0000
0000
0000
0000
,
0000
0000
0000
0000
,
0000
0000
0000
0000
,
0000
0000
0000
0000
,
0000
0000
0000
0000
,
0000
0000
0000
0000
,
0000
0000
0000
0000
,
0000
0000
0000
0000
,
0000
0000
0000
0000
,
1000
0000
0000
1000
0000
0000
0100
0000
0010
0000
0001
0000
1000
0000
0010
0000
,
0100
0000
0000
0001
0000
0000
0001
0000
0010
0000
0100
0000
1000
0000
0001
0000
,
1000
0000
0000
1000
0000
0000
0010
0000
0001
0000
0000
0001
0000
0000
0010
0000
,
1000
0000
0000
0100
0000
0000
0010
0000
0001
0000
1000
0000
0001
0000
0010
0000
,
0100
0000
0000
0100
0000
0000
0010
0000
0001
0000
0000
1000
0000
0000
0010
0000
,
0100
0000
0000
0100
0000
0000
0001
0000
1000
0000
0000
0001
0000
0000
0010
0000
,
0100
0000
0000
0100
0000
0000
1000
0000
0100
0000
0000
0010
0000
0000
0001
0000
,
1000
0000
0000
1000
0000
0000
0010
0000
0100
0000
1000
0000
0100
0000
0001
0000
,
0010
0000
0000
0010
0000
0000
0001
0000
1000
0000
0010
0000
0100
0000
0001
0000
,
1000
0000
0000
1000
0000
0000
0001
0000
1000
0000
0100
0000
0010
0000
0001
0000
,
1000
0000
0000
0010
0000
0000
1000
0000
0001
0000
0000
0010
0000
0000
0100
0000
,
1000
0000
0000
1000
0000
0000
0100
0000
0010
0000
0001
0000
1000
0000
0001
0000
,
0010
0000
0000
0010
0000
0000
0001
0000
1000
0000
0000
0001
0000
0000
0100
0000
,
0010
0000
0000
0010
0000
0000
1000
0000
0001
0000
0000
1000
0000
0000
0100
0000
,
0010
0000
0000
0010
0000
0000
0100
0000
1000
0000
0000
0010
0000
0000
1000
0000
,
0001
0000
0000
0001
0000
0000
1000
0000
0100
0000
0010
0000
0100
0000
0100
0000
,
0100
0000
0000
0000
0010
0000
0001
1000
0000
0000
0010
0000
0100
0000
0001
0000
,
0100
0000
0000
0100
0001
0000
1000
0000
0000
0010
1000
0000
0001
0000
0001
0000
,
0100
0000
0000
0000
0010
0000
1000
0010
0000
0000
0100
0000
0001
0000
1000
0000
,
0001
0000
0000
0001
1000
0000
0100
0000
0000
1000
0100
0000
0010
0000
0010
0000
,
0001
0000
1000
0000
0001
1000
0000
1000
0000
0000
0010
0000
0100
0000
0010
0000
,
1000
0000
0001
0000
1000
0001
0000
0001
0000
0000
0010
0000
0100
0000
0100
0000
,
1000
0000
0010
0000
1000
0010
0000
0010
0000
0000
0100
0000
0010
0000
1000
0000
,
1010
0101
0110
1001
,
0001
0100
1000
0100
0001
1000
0010
1000
,
0100
0001
0100
1000
0001
0010
0100
1000
,
0001
0010
1000
0010
0001
1000
0100
1000
,
0010
0001
0010
1000
0001
0100
0010
1000
,
1001
0001
1000
0100
0001
0100
1000
0001
,
0010
0001
0100
0010
1000
0001
0010
0100
,
1000
0010
0001
0010
1000
0001
0100
0001
,
0010
1100
0011
1001
,
2000
0000
3100
0000
,
0010
0000
0000
0100
0000
0000
1000
0000
,
0002
0000
0000
0000
0000
0100
0000
0000
,
0000
0000
1003
0000
,
0010
0000
0000
1000
0000
0000
2000
0000
,
0000
3001
0010
0001
,
0010
0000
0000
0100
0000
0000
0020
0000
,
0000
0032
0000
2003
,
3010
0000
0000
0100
0010
0100
0010
0000
0000
1000
0000
0000
,
0001
0100
0001
0100
0000
0000
0010
1000
0010
1000
0000
0000
,
0001
0010
0100
1000
0100
0010
0001
0000
0000
1000
0000
0000
,
0100
0010
0100
0010
0000
0000
0001
1000
0100
0010
0001
0010
,
0100
1000
0100
0001
0100
0010
0001
0100
,
0010
1000
0001
1000
0010
0001
0010
1000
,
0001
0010
0100
1000
0001
1000
0100
0010
,
0001
0000
0000
0000
1000
0001
1001
0000
,
0001
0100
0000
0001
0100
0000
0010
0000
1000
0000
0001
0000
0010
0000
0100
0000
,
1000
0000
0000
1000
0000
0000
0100
0000
1000
0000
0010
0000
0100
0000
0001
0000
,
1000
0000
0000
1000
0000
0000
0100
0000
0001
0000
0000
0001
0000
0000
0100
0000
,
1000
0100
0000
0010
0001
0000
1000
0000
0010
0000
1000
0000
0001
0000
0010
0000
,
0100
0000
0000
0100
0000
0000
0010
0000
0001
0000
0000
1000
0000
0000
0010
0000
,
0100
0000
0000
0100
0000
0000
0001
0000
1000
0000
0000
0010
0000
0000
1000
0000
,
0100
0000
0000
0100
0000
0000
0001
0000
0100
0000
0000
1000
0000
0000
0010
0000
,
0001
0000
0000
0001
0000
0000
0010
0000
1000
0000
0001
0000
0010
0000
0100
0000
,
1000
0100
0000
1000
0100
0000
0010
0000
0001
0000
1000
0000
0010
0000
0100
0000
,
0001
0000
0000
0001
0000
0000
0100
0000
0001
0000
0010
0000
0100
0000
1000
0000
,
0001
0000
0000
0001
0000
0000
0010
0000
1000
0000
0000
1000
0000
0000
0010
0000
,
0001
0010
0000
0100
1000
0000
0001
0000
0010
0000
0001
0000
1000
0000
0010
0000
,
0100
0000
0000
0100
0000
0000
0010
0000
1000
0000
0000
0001
0000
0000
0010
0000
,
0100
0000
0000
0100
0000
0000
1000
0000
0001
0000
0000
0010
0000
0000
0001
0000
,
1000
0000
0000
1000
0000
0000
0010
0000
0100
0000
0000
0001
0000
0000
0010
0000
,
0100
0000
0000
0100
0000
0000
0010
0000
0001
0000
1000
0000
0010
0000
0010
0000
,
0010
0000
0000
0010
0000
0000
1000
0000
0010
0000
1000
0001
0000
0000
0010
0000
,
0100
0000
0000
0100
0000
0000
1000
0000
0010
0000
1000
0001
0000
0000
1000
0000
,
0010
0000
0000
0010
0000
0000
1000
0000
0001
0000
0100
0001
0000
0000
1000
0000
,
0010
0000
0000
0010
0000
0000
1000
0000
0010
0000
0100
0000
0020
0000
0000
0000
,
1030
0000
0000
1000
0000
0000
0001
0000
0100
0000
0010
1000
0000
0000
0001
0000
,
0010
0000
0000
0010
0000
0000
0100
0000
1000
0000
0001
0100
0000
0000
0010
0000
,
1000
0000
0000
1000
0000
0000
0010
0000
0100
0000
0001
1000
0000
0000
0100
0000
,
0010
0000
0000
0010
0000
0000
0001
0000
1000
0000
0000
1001
0000
0000
0000
0000
;

//---------------dance-single - ----------------
#NOTES:
     dance-single:
     :
     Easy:
     11:
     0.417897,0.467749,0.035674,0.008919,0.133778,328.000000,324.000000,4.000000,1.000000,0.000000,0.000000,0.417897,0.467749,0.035674,0.008919,0.133778,328.000000,324.000000,4.000000,1.000000,0.000000,0.000000:
0000
0000
0000
0000
,
0000
0000
0000
0000
,
0000
0000
0000
0000
,
0000
0000
0000
0000
,
0000
0000
0000
0000
,
0000
0000
0000
0000
,
0000
0000
0000
0000
,
0000
0000
0000
0000
,
0000
0000
0000
0000
,
1000
0000
0100
0000
1000
0000
0010
0100
,
0010
1000
0001
0010
,
0001
0000
0000
0001
0000
0000
0000
0000
1000
0000
0000
1000
0000
0000
0000
0000
,
0010
0000
1000
0000
0001
0010
0100
0000
,
1000
0000
0001
0000
1000
0010
1000
0000
,
0001
0000
1000
0000
0001
0010
0001
0000
,
0010
0000
0100
0000
1000
0001
1000
0000
,
0010
0000
0100
0000
0001
0100
0010
1000
,
0001
0000
0100
0000
0001
0000
0010
0100
,
0010
0001
1000
0010
,
0100
0000
0000
0100
0000
0000
0000
0000
0010
0000
0000
0010
0000
0000
0000
0000
,
0100
0000
0001
0000
1000
0010
0100
0000
,
0001
0000
1000
0000
0001
0100
0001
0000
,
1000
0000
0001
0000
1000
0100
1000
0000
,
0010
0000
0100
0000
0001
1000
0001
0000
,
0010
0000
0100
0000
1000
0000
0100
0010
,
0100
0000
0000
0000
0010
0000
0000
0100
0000
0000
0100
0000
0010
0000
0000
0000
,
0100
0000
0000
0000
0010
0000
0000
0100
0000
0000
0100
0000
0010
0000
0000
0000
,
0001
0000
0000
0000
1000
0000
0000
0001
0000
0000
0001
0000
1000
0000
0000
0000
,
0001
0000
0000
0000
1000
0000
0000
0001
0000
0000
0001
0000
1000
0000
0010
0000
,
1000
0000
0000
0000
0001
0000
0000
0100
0000
0000
0100
0000
0001
0000
0000
0000
,
1000
0000
0000
0000
0010
0000
0000
0100
0000
0000
0100
0000
0010
0000
1000
0000
,
0010
0000
0000
0000
1000
0000
0000
0100
0000
0000
0100
0000
1000
0000
0000
0000
,
0001
0001
1000
1001
,
0001
0100
1000
0001
,
0010
0000
1000
0000
0001
0010
0100
0000
,
1000
0100
0001
1000
,
0010
0000
0001
0000
1000
0001
1000
0000
,
0010
0100
0010
1000
,
0001
0000
0010
0000
0100
1000
0100
0000
,
0010
0100
1000
0001
,
1000
1000
0001
1001
,
1000
0000
0100
0000
,
0010
0000
0000
0001
0000
0000
0010
0000
,
0100
0000
0000
1000
,
0000
0000
0001
0000
,
1000
0000
0000
0010
0000
0000
0010
0000
,
0000
0100
0010
0100
,
0010
0000
0000
1000
0000
0000
0001
0000
,
0000
0010
0000
0100
,
1000
0010
0100
0100
,
0001
0010
0100
1000
,
0001
1000
0100
0010
,
0100
0010
0001
1000
,
0010
0000
0010
0000
1000
0000
0010
1000
,
0001
0000
0001
0000
0100
0001
0100
0000
,
0010
0100
0010
0000
1000
0100
0010
0001
,
1000
0000
0010
1001
,
0001
0000
0010
0000
0001
0000
0100
0010
,
0100
0001
1000
0100
,
1000
0000
0000
1000
0000
0000
0000
0000
0001
0000
0000
0001
0000
0000
0000
0000
,
0100
0000
0001
0000
1000
0100
0010
0000
,
0001
0000
1000
0000
0001
0100
0001
0000
,
1000
0000
0001
0000
1000
0100
1000
0000
,
0100
0000
0010
0000
0001
1000
0001
0000
,
0100
0000
0010
0000
1000
0010
0100
0001
,
1000
0000
0010
0000
1000
0000
0100
0010
,
0100
1000
0001
0100
,
0010
0000
0000
0010
0000
0000
0000
0000
0100
0000
0000
0100
0000
0000
0000
0000
,
0010
0000
1000
0000
0001
0100
0010
0000
,
1000
0000
0001
0000
1000
0010
1000
0000
,
0001
0000
1000
0000
0001
0010
0001
0000
,
0100
0000
0010
0000
1000
0001
1000
0000
,
0100
0000
0010
0000
0001
0000
0010
0100
,
0010
0000
0000
0010
0000
0000
0000
0000
0001
0000
0000
1000
0000
0000
0001
0000
,
0100
0000
0000
0100
0000
0000
0000
0000
0001
0000
0000
1000
0000
0000
0001
0000
,
0010
0000
0000
0010
0000
0000
0000
0000
0001
0000
0000
1000
0000
0000
0001
0000
,
0100
0000
0000
0100
0000
0000
0000
0000
0010
0000
0000
0000
2000
0000
0000
0000
,
3100
0000
0000
0100
0000
0000
0000
0000
0010
0000
0000
0001
0000
0000
0010
0000
,
0100
0000
0000
0100
0000
0000
0000
0000
1000
0000
0000
0010
0000
0000
1000
0000
,
0100
0000
0000
0100
0000
0000
0000
0000
0010
0000
0000
0001
0000
0000
0010
0000
,
0100
0000
0000
0100
0000
0000
0010
0000
0001
0000
0000
1001
0000
0000
0000
0000
;

//---------------dance-single - ----------------
#NOTES:
     dance-single:
     :
     Beginner:
     6:
     0.281571,0.358971,0.062430,0.000000,0.000000,221.000000,214.000000,7.000000,0.000000,0.000000,0.000000,0.281571,0.358971,0.062430,0.000000,0.000000,221.000000,214.000000,7.000000,0.000000,0.000000,0.000000:
// measure 0
0000
0000
0000
0000
,  // measure 1
0000
0000
0000
0000
,  // measure 2
0000
0000
0000
0000
,  // measure 3
0000
0000
0000
0000
,  // measure 4
0000
0000
0000
0000
,  // measure 5
0000
0000
0000
0000
,  // measure 6
0000
0000
0000
0000
,  // measure 7
0000
0000
0000
0000
,  // measure 8
0000
0000
0000
0000
,  // measure 9
1000
0000
0001
0010
,  // measure 10
0001
0000
1000
0000
,  // measure 11
0010
1000
0010
1000
,  // measure 12
0001
0000
1000
0000
,  // measure 13
0100
0100
1000
0000
,  // measure 14
0001
0001
0010
0000
,  // measure 15
0001
0001
0100
0000
,  // measure 16
0010
0010
1000
1000
,  // measure 17
0001
0000
1000
0010
,  // measure 18
1000
0000
0001
0000
,  // measure 19
0010
0001
0010
0001
,  // measure 20
1000
0000
0001
0000
,  // measure 21
0100
0100
0001
0000
,  // measure 22
1000
1000
0010
0000
,  // measure 23
1000
1000
0100
0000
,  // measure 24
0010
0010
0010
0000
,  // measure 25
1001
0000
0001
0001
,  // measure 26
0010
0000
0100
1000
,  // measure 27
0100
0000
1000
1000
,  // measure 28
0010
0000
0100
0010
,  // measure 29
0110
0000
0100
0100
,  // measure 30
0001
0000
1000
0010
,  // measure 31
1000
0000
0001
0001
,  // measure 32
0010
0010
0100
1001
,  // measure 33
1000
1000
0100
0100
,  // measure 34
0010
0010
0001
1000
,  // measure 35
0001
0001
0010
0010
,  // measure 36
0100
0100
1000
0001
,  // measure 37
1000
1000
0100
0100
,  // measure 38
0010
0010
0001
1000
,  // measure 39
0001
0010
0100
1000
,  // measure 40
0001
0001
1000
1001
,  // measure 41
1000
0000
0000
0000
,  // measure 42
0100
0000
0000
0000
,  // measure 43
0100
0000
0000
0000
,  // measure 44
0000
0000
0000
0000
,  // measure 45
0010
0000
0000
0010
,  // measure 46
0000
0000
0001
0000
,  // measure 47
0001
0000
0000
1000
,  // measure 48
0000
0000
1000
0000
,  // measure 49
0010
1000
0010
0000
,  // measure 50
0100
0100
0100
0000
,  // measure 51
0010
0100
0010
0000
,  // measure 52
0100
0001
0001
0000
,  // measure 53
1000
0000
0100
0000
,  // measure 54
0010
0010
0010
0000
,  // measure 55
0100
0010
0100
0010
,  // measure 56
0100
0000
0000
1001
,  // measure 57
0001
0000
0010
0010
,  // measure 58
0100
0010
0100
0000
,  // measure 59
0010
0001
0010
0001
,  // measure 60
1000
1000
0001
0000
,  // measure 61
0100
0100
0001
0000
,  // measure 62
0001
0001
1000
0000
,  // measure 63
1000
1000
0010
0000
,  // measure 64
0010
1000
0001
1000
,  // measure 65
1001
0000
0001
0001
,  // measure 66
1000
0001
1000
0000
,  // measure 67
0010
1000
0010
1000
,  // measure 68
0001
0001
1000
0000
,  // measure 69
0100
0100
1000
0000
,  // measure 70
1000
1000
0001
0000
,  // measure 71
0001
0001
0010
0000
,  // measure 72
0010
0001
1000
0001
,  // measure 73
0100
0000
0100
0010
,  // measure 74
0100
0000
0100
0001
,  // measure 75
0100
0000
0010
1000
,  // measure 76
0010
0000
0010
0010
,  // measure 77
1000
1000
0100
0010
,  // measure 78
0001
0001
0100
0010
,  // measure 79
1000
1000
0001
0010
,  // measure 80
0100
0000
0110
0000
;
