#TITLE:OTENAMI Hurricane;
#SUBTITLE:;
#ARTIST:t+pazolite;
#TITLETRANSLIT:;
#SUBTITLETRANSLIT:;
#ARTISTTRANSLIT:;
#GENRE:;
#CREDIT:;
#MUSIC:OTENAMI Hurricane.ogg;
#BANNER:OTENAMI Hurricane.png;
#BACKGROUND:OTENAMI Hurricane-bg.png;
#CDTITLE:;
#SAMPLESTART:62.694;
#SAMPLELENGTH:15.000;
#SELECTABLE:YES;
#OFFSET:-0.183;
#BPMS:0.000=215.000
,128.000=107.500
,144.000=215.000
;
#STOPS:;
#BGCHANGES:;
#FGCHANGES:;

//--------------- dance-single - chrononical ----------------
#NOTES:
     dance-single:
     chrononical:
     Beginner:
     7:
     0,0,0,0,0:
0000
0000
0000
0000
,
0000
0000
0000
0000
,
0000
0000
0000
0000
,
0000
0000
0000
0000
,
2000
0000
0000
0000
,
3020
0000
0000
0000
,
0230
0000
0000
0000
,
0302
0000
0000
0000
,
2003
0000
0000
0000
,
3200
0000
0000
0000
,
0320
0000
0032
0000
,
2003
0000
0000
3001
,
0001
0000
0000
1000
0000
0000
0020
0000
,
0130
0001
1000
0001
,
0010
0000
0000
0100
0000
0000
1000
0000
,
0001
0100
0010
0200
,
0301
0100
1000
0100
,
0001
0010
0100
1000
,
0001
0100
0010
1000
,
0100
0010
0100
1000
,
0002
0000
0000
0000
,
2003
0000
0000
0000
,
3020
0000
0000
0000
,
0230
0000
0000
0000
,
0302
0000
0000
0000
,
1003
0010
1000
0010
,
0100
0001
0010
0001
,
2000
0000
0000
3000
,
0001
0010
1000
0001
,
0100
1000
0001
1000
,
0000
0010
0001
1000
,
0100
0001
1000
0001
,
1001
1010
1001
0011
,
1001
1010
1001
0011
,
1001
1100
0110
0201
,
0310
0000
1010
0000
1000
0001
0001
0100
,
0010
1000
0100
0010
,
0001
0010
0200
2300
,
3001
0100
0010
2000
,
3100
0010
0002
0203
,
0310
1000
0100
0010
,
0001
0100
0020
1030
,
0100
0010
0100
2000
,
3002
0000
0000
1003
,
1000
0000
0010
0000
,
0100
0001
0010
0200
,
1300
0000
0010
0000
,
0100
0001
0010
0002
,
0103
0000
0010
0000
,
0100
0001
0010
0200
,
1300
0000
1001
0000
,
1000
0100
0001
0100
,
1000
0100
0010
0001
,
0100
1000
0010
0001
,
1000
0100
0010
0100
,
1000
0100
0001
0010
,
1000
0001
0010
0001
,
1000
0100
0001
0010
,
1000
0010
0100
0001
,
1000
0100
0001
0100
,
1000
0000
0001
0100
,
0001
0100
0000
0010
,
0000
1000
0100
0010
,
0200
0000
0000
1300
,
1000
0000
1010
0000
,
1000
0000
1001
0000
,
0001
0000
0101
0000
,
0002
0000
0000
1003
,
2000
0000
0000
0000
,
3200
0000
0320
0000
,
0032
0000
0023
0000
,
0032
0000
0000
1003
,
1000
0000
0000
0010
0000
0000
0200
0000
,
0301
0000
0000
0010
0000
0000
0200
0000
,
1300
0000
0000
0010
0000
0000
0200
0000
,
0302
0000
0000
1003
,
1000
0100
0010
0100
,
1000
0100
0001
0100
,
1000
0010
0001
0010
,
1000
0100
0001
0010
,
1000
0010
0001
0010
,
1000
0100
0001
0100
,
1000
0010
0100
0001
,
2000
0000
0000
3001
,
0001
0100
1000
0100
,
0001
0010
1000
0010
,
0001
0100
0010
1000
,
0001
0010
1000
0100
,
0001
0100
1000
0100
,
0010
1000
0100
0020
,
0031
1000
0010
0100
,
0101
0100
0110
0102
,
0103
0010
1000
0100
,
0010
0200
2300
3001
,
0100
0010
1000
0100
,
0020
0230
2300
3200
,
0310
0001
0010
0001
,
0100
0010
1000
0002
,
0203
0000
0320
0000
,
2030
0000
3002
0000
,
2003
0000
0000
0000
,
3000
0000
0000
0000
;

//--------------- dance-single - chrononical ----------------
#NOTES:
     dance-single:
     chrononical:
     Easy:
     10:
     0,0,0,0,0:
0000
0000
0000
0000
,
0000
0000
0000
0000
,
0000
0000
0000
0000
,
0000
0000
0000
0000
,
2000
0000
0000
0000
,
3002
0000
0000
0000
,
0203
0000
0000
0000
,
0320
0000
0000
0000
,
1030
0000
0000
0100
0000
0010
0001
0000
,
0010
0000
0000
0100
0000
0000
1000
0010
,
0200
0000
0302
0000
,
0023
0000
0000
0130
1000
0000
1000
0000
,
1001
0000
0000
1000
0000
0010
0200
0000
,
0301
0010
0100
0000
1000
0000
1000
0000
,
0010
0000
0000
0100
0000
0001
0010
0100
,
0000
0010
0001
0000
0200
0000
0320
0000
,
1030
0100
1000
0000
0001
0100
0001
0000
,
0100
0010
0100
0010
0200
0000
0320
0000
,
1030
0000
0100
0010
0000
0001
0200
0000
,
0310
1000
0010
0000
0200
0000
0320
0000
,
2030
0000
0000
0001
0000
0000
0100
0000
,
3200
0001
1000
0010
,
0320
0000
0000
0001
0000
0000
1000
0000
,
0032
0010
0100
1000
,
2003
0000
0000
0010
0000
0000
0100
0000
,
3020
0001
1000
0100
,
0230
0000
0001
0000
0302
0000
0000
2000
,
0003
0000
0000
3000
,
0001
0010
0001
0000
1000
0010
1000
0000
,
0001
0100
1000
0100
0001
0000
1000
0000
,
0000
0100
1000
0000
0001
0100
0001
0000
,
1000
0010
0001
0010
1000
0000
0001
0000
,
1001
0000
1010
0000
1000
0100
1100
0000
,
1010
0000
0110
0000
0100
0001
0201
0000
,
0301
0000
0011
0000
0010
0100
0210
0000
,
0310
0000
0011
0000
0101
0100
0010
1000
,
0001
0000
0100
0000
0010
0000
1000
0100
,
1000
0000
0100
0010
0200
0000
0320
0000
,
0031
0000
0010
0000
0100
0000
1000
0100
,
1000
0010
0200
0320
,
1030
0001
0100
0110
,
0000
1000
0010
1010
,
0000
0000
1000
0000
0001
0000
0100
0010
,
0200
0001
1000
0001
,
0301
0000
0000
0100
0010
0000
0000
0000
,
1000
0100
1000
0000
0010
0000
0210
0000
,
0310
0000
0000
1000
0100
0000
0000
0000
,
0010
0001
0010
0000
0001
0000
0201
0000
,
0301
0000
0000
0100
0010
0000
0000
0000
,
1000
0100
0010
0000
0001
0000
0021
0000
,
0031
1000
0010
1000
,
1001
1001
1001
1001
,
0000
1010
0000
1010
,
0000
1010
1010
1001
,
0000
0011
0000
0011
,
0000
0011
0022
0033
,
0000
1010
0000
1010
,
0000
0011
0000
0011
,
1010
0011
1010
0011
,
1100
0101
1100
0201
,
0301
0000
0100
0010
1000
0000
0100
0010
,
0001
0000
0100
0010
0000
1000
0010
1000
,
0000
0010
0000
0010
1000
0000
0001
0010
,
0002
0000
0000
1003
,
1000
0000
0010
0100
0010
0000
1000
0100
,
1000
0000
0001
0100
0001
0000
1000
0100
,
1000
0000
0010
0100
0010
0000
0100
0001
,
0200
0000
0000
0000
0000
0000
0310
1000
,
0002
0000
0000
0000
,
2003
0000
3200
0000
,
0320
0000
0032
0000
,
2003
0000
0000
3001
,
1001
0000
0000
1000
0000
0000
1010
0000
,
1001
0000
0000
0001
0000
0000
0011
0000
,
1001
0000
0110
0000
,
2001
0000
0000
3001
,
1000
0000
0010
0100
0010
0000
1000
0100
,
0010
0000
0001
0010
0001
0000
1000
0010
,
1000
0000
0010
0100
0002
0000
1003
0100
,
0020
0032
0203
0320
,
1030
0100
1000
0000
0001
0100
0001
0000
,
0100
0010
0100
0010
0100
0000
0110
0000
,
0010
1000
0010
0000
0100
0001
0100
0000
,
0002
0010
0100
1003
,
1000
0000
0010
0100
0001
0000
1000
0100
,
0010
0000
0001
0100
0010
0000
1000
0100
,
0010
0000
0001
0100
0020
0000
1030
0100
,
0010
0100
1000
0000
0001
0010
0001
0000
,
1000
0010
1000
0000
0001
0010
0001
0000
,
0100
0010
0100
0010
0200
0000
0320
0000
,
1030
0100
1000
0100
1000
0000
0001
0000
,
0101
0110
0101
1001
,
1000
0000
0010
0100
0010
0000
1000
0100
,
0010
0100
1000
0000
0002
0000
2003
0000
,
3010
0000
0100
0001
0000
0100
0010
0000
,
1000
0100
2000
0000
3200
0000
0320
0000
,
0032
0000
0000
0010
0000
0000
1000
0000
,
2003
0100
0010
0001
,
3020
0000
0230
0000
,
0302
0000
0000
0000
1003
0010
1000
0010
,
2000
0000
0000
0000
0000
0002
0000
0000
0000
0000
0000
0000
,
3003
0000
0000
0000
;

//--------------- dance-single - chrononical ----------------
#NOTES:
     dance-single:
     chrononical:
     Medium:
     14:
     0,0,0,0,0:
0000
0000
0000
0000
,
0000
0000
0000
0000
,
0000
0000
0000
0000
,
0000
0000
0000
0000
,
2000
0000
0000
0000
0000
0000
3001
0010
,
0002
0000
0000
0000
0000
0000
1003
0010
,
2000
0000
0000
0000
0000
0000
3100
0010
,
0200
0000
0000
0000
0000
0000
0310
0001
,
0020
0000
0000
0001
0000
0100
0130
1000
,
0020
0000
0000
0001
0000
0100
0130
0001
,
0020
0000
0001
0000
,
2030
0000
0000
3010
0001
0010
0100
1000
,
0010
0100
1000
0200
0000
0320
0000
2030
,
0000
3100
0001
0100
1000
0000
1100
0000
,
1000
0000
0010
0000
0001
0000
0010
0000
0100
0000
0010
1000
0010
0000
2000
0000
,
0000
3100
0001
0100
0020
0000
0031
0100
,
0010
1000
0010
1000
0100
0010
0001
0100
,
1000
0001
0010
1000
0100
0010
0001
0010
,
0100
1000
0010
0100
0001
0010
0100
1000
,
0100
0001
1000
0010
0002
0000
2003
0010
,
3020
0000
0001
0000
1000
0000
0130
1000
,
0200
0010
1000
0320
,
2030
0000
0001
0000
0010
0000
3100
0010
,
0002
1000
0023
0230
,
1300
0000
0010
0000
0000
0000
0100
0000
0010
0000
0000
0000
1000
0100
1000
0000
,
0001
0100
0000
0010
2000
0000
3002
0000
,
1003
0100
0001
0100
1000
0010
0100
0002
,
0000
0000
0000
0003
,
1000
0010
1000
0010
1000
0010
1000
0100
,
0010
0001
0010
0100
1000
0000
0001
0000
,
0000
0010
0001
0010
0001
0010
0001
0100
,
0010
1000
0010
1000
0010
0000
1000
0000
,
1001
0000
0000
0000
1010
0000
0000
1000
0100
0000
0010
0000
0011
0000
0002
0000
,
0100
0000
0010
0000
0100
0010
1000
1000
,
1003
0000
0000
0000
1100
0000
0000
0100
0010
0000
0001
0000
0201
0000
0000
0000
,
0310
1000
0100
0010
0001
0100
2000
3200
,
0301
0010
0001
0010
0001
0100
0010
0100
,
0010
1000
0100
1000
0200
0000
2300
0000
,
3010
0100
0001
0010
0001
1000
0001
0200
,
0310
1000
0100
0010
0002
0000
2003
0000
,
3010
0100
1000
0100
0010
0001
0010
1000
,
0000
0100
0001
0100
0010
1000
0010
0001
,
0100
1000
0100
0010
1000
1000
0100
0010
,
0002
0010
0100
2003
,
3100
0000
0000
0010
0100
0000
0000
1000
,
0010
0001
0010
1000
0010
0000
0210
0000
,
0310
0000
0000
1000
0100
0000
0000
0010
,
1000
0010
0001
0010
0100
0000
0120
0000
,
0130
0000
0000
1000
0010
0000
0000
0100
,
1000
0100
0001
0100
0010
0000
0210
0000
,
0310
1000
0100
0000
0100
1000
0010
0000
,
0110
0110
0110
0110
,
1001
1010
1100
0110
,
0011
0101
0110
2010
,
3010
0110
1001
0110
,
1001
0000
0011
0000
0101
0100
0001
0010
,
0100
0110
0011
0101
,
0110
1010
1100
1010
,
1100
0110
0011
0101
,
0110
1010
2001
0010
,
3001
0000
0100
0001
0010
0000
0010
0001
,
0100
0010
1000
0002
0000
0103
0001
0020
,
0000
0130
0000
1000
0002
0000
0103
0010
,
2000
0000
0000
0000
0000
0000
3100
1000
,
0010
0000
0100
0001
0010
0100
0010
1000
,
0010
0001
0010
0100
0001
0100
1000
0001
,
0010
0001
0100
0010
1000
0100
1000
0010
,
0200
0000
0000
0000
0000
0000
0301
0010
,
0002
1000
0010
1000
,
2003
0100
3200
0010
,
0320
0001
0032
1000
,
2003
0000
0000
3001
,
1001
0000
0000
1010
0000
0000
1100
0000
,
1001
0000
0000
0011
0000
0000
0101
0000
,
0001
0100
1000
0100
0001
0010
1000
0010
,
0002
0000
0000
1003
,
1001
0000
0000
0000
1000
0000
0010
0000
0100
0000
0001
0010
0001
0000
0010
0000
,
0100
1000
0010
0200
0000
0301
0001
0100
,
0000
0000
1000
0000
0000
0000
0100
0000
0001
0000
1000
0010
1000
0000
0001
0000
,
1000
0100
0001
0100
1000
0010
0100
0001
,
0100
1000
0100
0010
1000
0100
0001
0100
,
1000
0010
0100
0001
0200
0000
0320
0000
,
1030
0100
0001
0100
1000
0010
0100
0001
,
2000
0000
0100
0000
3001
0000
1000
1000
,
0001
0000
0000
0000
0100
0000
0010
0000
1000
0000
0001
0010
0001
0000
0100
0000
,
0010
1000
0100
0010
0000
0100
1000
0020
,
0000
0230
0000
0301
0010
0000
0100
1000
,
0001
0100
1000
0100
0001
0010
0100
1000
,
0001
0010
1000
0010
0001
0100
1000
0100
,
0001
0010
1000
0010
0100
1000
0020
0000
,
0130
1000
0100
0010
0100
0001
0010
0100
,
1000
1100
1001
1010
,
1000
0010
0100
0002
0000
0023
0000
0230
,
0000
1300
0010
0100
0020
0000
2030
0000
,
3001
0000
0000
0010
0100
0000
1000
0000
0001
0000
0100
0000
1000
0000
0100
0000
,
0001
0100
0010
1000
0200
0000
1300
0001
,
2000
0000
0001
0000
0100
0000
3010
0100
,
0020
0000
1000
0000
0001
0000
0130
0001
,
0020
0100
0230
1000
,
2300
0000
0000
0001
3100
1000
0100
0001
,
2000
0000
0000
0000
0000
0002
0000
0000
0000
0000
0000
0000
,
3003
0000
0000
0000
;

//--------------- dance-single - chrononical ----------------
#NOTES:
     dance-single:
     chrononical:
     Hard:
     16:
     0,0,0,0,0:
0000
0000
0000
0000
,
0000
0000
0000
0000
,
0000
0000
0000
0000
,
0000
0000
0000
0000
,
0002
1000
0010
1000
,
2003
0100
0001
0100
,
3200
0010
1000
0010
,
0320
0001
1000
0001
,
0031
0000
0000
0000
0000
0000
1001
0000
0000
0000
1000
0000
1000
0000
0010
0100
,
0010
0000
0000
0000
0000
0000
1010
0000
0000
0000
0000
0000
1000
0010
1000
0010
,
1000
0000
0001
0010
0001
0000
1000
0000
0100
0010
0100
0000
2000
0000
0000
0000
,
3020
0000
0000
0130
0001
0010
0100
1000
,
0010
0100
1000
0200
0000
0302
0000
2003
,
0000
3100
0001
0100
2000
0000
3002
0000
,
0103
0000
1000
0000
0100
0000
0010
0000
1000
0000
0100
0010
0001
0000
2000
0000
,
0000
3100
0001
0100
0020
0000
0031
0100
,
0010
0000
1000
0000
0100
0010
0100
0000
1000
0000
0010
0000
0200
0000
0001
0000
,
0301
0100
1000
0100
0001
0010
1000
0010
,
0001
0000
1000
0000
0001
0000
0100
0010
1000
0000
0001
0000
1000
0000
0010
0000
,
1000
0000
0100
0010
0001
0000
0001
0000
2000
0000
0000
0000
3020
0000
0000
0000
,
0130
0000
1000
0000
0100
0000
0010
1000
0001
0000
0010
0000
0100
0000
0001
0000
,
0100
0000
1000
0000
0100
0010
0100
0000
0010
0000
0000
0000
0021
0000
0000
0000
,
0031
0000
0010
0000
1000
0000
0010
0100
1000
0000
0001
0000
0100
0000
1000
0000
,
0001
0010
1000
0100
0002
0000
0203
0000
,
1300
0000
0100
0000
0000
0000
0010
0001
1000
0000
0000
0000
0001
0100
0001
0000
,
1000
0000
0010
0100
0010
0100
0010
0000
2000
0000
0000
0000
3002
0000
0000
0000
,
1003
0000
0100
0000
0001
0000
0100
0000
1000
0000
0010
0100
0001
0000
2000
0000
,
0000
0000
0000
3000
,
0001
0010
1000
0010
0001
0010
1000
0010
,
0100
1000
0010
0001
0010
0000
1000
0000
,
0000
0001
0010
1000
0001
0100
1000
0010
,
0001
0010
0100
0001
1000
0000
0001
0000
,
1001
0000
0001
0000
0101
0000
0100
0010
1000
0000
0100
0000
1100
0000
2000
0000
,
3010
0000
1000
0000
1010
0000
0010
0100
0001
0000
0010
0000
0011
0000
0001
0000
,
1000
0000
0100
0000
0110
0000
0010
0001
1000
0000
0010
0000
0210
0000
0000
0000
,
0310
1000
0001
0100
0010
1000
0100
0010
0001
0100
1000
0100
0002
0000
1003
0000
,
1000
0000
0010
0000
0100
0010
1000
0000
0100
0000
0010
0000
0001
0000
0010
0000
,
0100
2000
3010
0100
0020
0000
2030
0000
,
3001
0000
0001
0000
0100
0010
0100
0010
0100
0000
0001
0000
1000
0000
0020
0000
,
0130
0000
1000
0000
0100
0000
0010
0000
2000
0000
0000
0000
3001
0010
0001
0010
,
0001
0000
0100
0000
0010
0000
1000
0000
0100
0000
0010
0000
0001
0010
0000
0001
,
0010
0100
1000
0010
0200
0000
0310
0000
,
1000
0000
0100
0010
0100
0000
1000
0000
0001
0100
0001
0000
0100
0000
0010
0000
,
2000
0100
0010
0001
,
3001
0000
0100
0010
0000
1000
0100
0000
,
0100
0001
0100
1000
0010
0000
1020
0000
,
1030
0000
0010
0100
0000
0100
0001
0000
,
1000
0010
0001
0010
0100
0000
0201
0000
,
0301
0000
0100
0010
0000
1000
0100
0000
,
0010
1000
0010
0001
0100
0000
0210
0000
,
0310
1000
0010
0100
0001
0010
0100
0010
,
0110
0000
0110
0000
1001
0001
2000
0000
,
3001
0000
0100
1000
0100
0000
0010
1000
,
0100
0001
1000
0010
0002
0000
2003
0000
,
3001
0000
0010
1000
0010
0000
0100
0001
,
0100
1000
0001
0010
1000
0010
0001
0100
,
0010
0000
1000
0010
0001
0000
1000
0100
,
0010
0001
1000
0100
0002
0000
2003
0000
,
3100
0010
1000
0010
0001
0100
1000
0100
,
0001
0000
0100
0010
1000
0000
0100
0000
0010
0000
0100
0000
2000
0000
0000
0000
,
3001
0000
0100
1000
0100
0010
1000
0001
,
0010
0100
0001
0200
0000
0310
0001
2000
,
0000
3010
0000
0001
0020
0000
0130
1000
,
0200
0000
0000
0000
0000
0000
0310
1000
,
0001
0000
0100
0010
0001
1000
0100
0001
,
0010
1000
0010
0200
0000
0310
0001
1000
,
0001
0100
1000
0100
0001
1000
0100
0100
,
0020
0000
0000
0000
0000
0000
0031
0100
,
1000
0000
0100
0010
1000
0100
0001
0100
,
1000
0010
0100
0020
0000
1030
0100
0020
,
0000
0031
0000
0100
0020
0000
1030
0010
,
0200
0000
0000
0000
0000
0000
0301
0100
,
0010
0000
0000
0000
1000
0000
0100
0000
0010
0000
0100
0000
1000
0000
0100
0010
,
0001
0000
0100
0000
0010
0000
2000
0000
0000
0000
3010
0000
0100
0000
0001
0010
,
0001
0000
0100
0000
0010
0100
0010
0000
1000
0000
0100
0000
0010
0000
0100
0000
,
2000
0000
0000
3001
,
1000
0000
0000
0000
0010
0000
0100
0000
1000
0000
0100
0001
0100
0000
0010
0000
,
1000
0000
0100
0010
0100
0000
0010
0000
0000
0000
0001
0000
0001
0000
0100
0000
,
0000
0000
0100
0000
0000
0000
1000
0000
0100
0000
0010
0100
0001
0000
0010
0000
,
0100
0010
0100
0010
0100
0000
1000
0000
0100
0000
0001
0000
0100
0000
1000
0000
,
0010
0000
0100
0010
0100
0000
0001
0000
0100
0000
0010
1000
0001
0000
1000
0100
,
0010
0000
0001
0000
1000
0000
0010
0000
0100
0010
0000
0010
1000
0000
0010
0100
,
0001
0000
0010
0000
0100
1000
0001
0000
1000
0000
0010
0000
0100
0010
0100
0010
,
0200
0000
0001
0000
1000
0000
0310
0010
,
1000
0000
0100
0001
0100
0010
0001
0100
,
0010
1000
0010
0001
0010
1000
0100
0010
,
0001
0100
1000
0100
0010
1000
0100
0010
,
0001
0100
0001
0100
0001
0000
0100
0000
0010
0000
1000
0000
1001
0000
0001
0000
,
1000
0000
0010
0000
0100
0010
0100
0000
0001
0000
0010
0100
1000
0000
0100
0000
,
0010
0000
0100
0000
1000
0000
0001
0000
0100
0010
0000
0100
0010
0000
1000
0000
,
0100
0001
0100
1000
0100
0010
0001
0100
,
0001
1001
1010
1100
,
1000
0100
0001
0200
0000
0320
0000
0031
,
0100
0000
1000
0000
0100
0010
1000
0000
0001
0000
0010
0000
0110
0000
0100
0000
,
1000
0000
0100
0000
0001
0000
0100
0000
1000
0100
1000
0100
1000
0000
0100
0000
,
1000
0000
0001
0100
0001
0100
0001
0000
0200
0000
0000
0000
0310
0000
1000
0000
,
0001
0000
0100
0000
0010
0100
0010
0000
1000
0000
0100
0010
0001
0000
0100
0000
,
0010
0000
1000
0100
1000
0000
0010
0000
0100
0000
0010
0000
1010
0000
0000
0000
,
1000
0000
0100
0010
0100
0000
0010
0000
0001
0000
0100
0000
0010
1000
0010
0000
,
0100
0000
0001
0010
0001
0010
0001
0000
1000
0000
0010
0000
0001
0000
0010
0000
,
2000
0000
0000
0000
0000
0002
0000
0000
0000
0000
0000
0000
,
3003
0000
0000
0000
;

//--------------- dance-single - chrononical ----------------
#NOTES:
     dance-single:
     chrononical:
     Challenge:
     18:
     0,0,0,0,0:
0000
0000
0000
0000
,
0000
0000
0000
0000
,
0000
0000
0000
0000
,
0000
0000
0000
0000
,
1000
0000
1000
0000
1010
0000
1000
0010
,
0001
0010
1000
0000
0001
0000
1000
0100
,
0001
0000
0100
0000
0010
0000
0001
0100
,
1000
0100
0001
0000
1000
0000
1001
0000
,
1000
0000
0010
1000
0010
0000
0100
0000
0001
0010
0001
0000
0100
0000
0010
1000
,
0001
0000
0100
0010
1000
0000
0100
0010
0001
0000
1000
0000
0001
0010
1000
0010
,
0001
0000
1000
0010
0100
0001
1000
0100
0010
0001
1000
0010
0200
0000
0000
0000
,
0302
0000
0000
1003
,
1001
0000
1000
0010
1000
0000
0010
0100
0010
0000
0100
0000
0001
0100
1000
0100
,
0001
0000
0010
0000
0100
1000
0001
0000
1000
0000
0010
0000
0001
0000
0010
0000
,
1000
0000
0010
0100
0001
0000
1000
0100
0010
0000
0001
0100
0010
1000
0001
0000
,
0000
0000
0001
0010
0100
0010
0100
0010
0002
0000
0000
0000
1000
0000
1000
0000
,
1003
0000
0010
0000
0100
1000
0100
0010
1000
0000
0100
0010
0001
0000
0100
0000
,
0010
0000
1000
0001
0010
0000
0100
0000
1000
0000
0001
0100
1000
0100
0001
0000
,
0010
0000
0100
0000
0010
0000
0001
0010
0001
0000
1000
0000
0001
0010
1000
0010
,
0001
0000
0100
0010
0100
0010
0100
0000
0001
0000
0000
0000
2001
0000
0000
0000
,
3001
0000
0100
0000
0010
0000
0100
0010
1000
0000
0001
0000
0100
1000
0100
0010
,
2000
0000
0000
0000
3010
0100
0010
0000
1000
0000
0000
0000
1200
0000
0000
0000
,
1300
0000
0010
0000
0100
0000
0001
0010
0001
0000
0010
0000
0100
0010
0001
0000
,
0000
0000
1000
0100
1000
0100
1000
0100
2000
0000
0000
0000
3002
0000
0000
0000
,
0013
0000
0001
0000
0010
0000
1000
0010
0001
0000
0010
0000
0001
0100
0001
0100
,
0010
0000
1000
0010
0100
0010
0100
0000
0001
0000
0000
0000
0201
0000
0000
0000
,
0301
0000
0001
0000
0100
0000
0100
0000
0010
0000
1000
0100
0010
0000
0002
0000
,
0000
0000
0000
0000
,
1003
0010
0001
1000
0100
0001
1000
0010
,
0001
1000
0100
0001
1000
0000
0001
0000
,
0000
0010
1000
0001
0100
1000
0001
0010
,
1000
0001
0100
1000
0001
0000
1000
0000
,
1001
0000
1000
0010
1010
0000
1000
0100
0010
0000
0001
0100
0101
0000
0200
0000
,
0301
0000
0000
0000
0000
0000
0010
0000
0000
0001
0000
0000
0011
0000
0000
0000
0000
0000
0001
0000
0000
0100
0000
0000
0010
0000
0000
0000
0000
0000
1000
0000
0000
0100
0000
0000
1100
0000
0000
0000
0000
0000
1000
0000
0000
0000
0001
0000
,
0010
0000
0001
0100
0110
0000
0010
1000
0100
0000
0010
0001
0021
0000
0000
0000
,
0031
0000
0100
0000
0010
0100
0010
0100
0010
0000
1000
0000
0010
0000
0001
0000
0010
0000
0100
0000
1000
0000
0100
0000
0010
0000
0000
0000
2010
0000
0000
0000
,
3010
0000
0100
0000
0001
0010
0001
0010
0100
0000
1000
0010
0100
0000
0010
0000
,
1000
0000
0100
0010
0001
0000
1000
0000
1001
0000
0000
0000
2010
0000
0000
0000
,
3010
0000
1000
0010
0100
0010
0100
0001
1000
0100
0000
0010
0001
0000
1001
0000
,
1000
0000
0001
0100
1000
0100
0001
1000
0001
0000
0000
0000
1000
0010
1000
0100
,
1000
0000
0010
0100
0010
0000
0100
0001
0100
0000
0001
0010
0001
0100
0000
0010
,
1000
0000
0001
0010
0001
0000
1000
0000
0200
0000
0000
0000
0310
0000
0000
0000
,
0001
0000
0100
0010
0100
0000
0001
0010
0001
0010
0100
1000
0100
0000
0010
0001
,
2000
0100
0010
3001
,
0101
0000
0100
0001
0010
0000
0001
1000
,
0001
0010
1000
0010
0001
0100
0210
0000
,
0310
0000
1000
0010
0100
0000
0001
0010
,
0001
0000
0010
0000
0100
0000
0001
0000
0100
0000
0010
0000
0001
0000
0100
0010
,
0100
0000
0100
0001
0010
0000
0001
1000
,
0001
0100
0010
0001
0010
0100
0001
1000
,
0001
0001
0010
0010
0100
0100
1000
1000
,
0001
0000
1000
0010
1000
0000
0001
0010
0001
0010
0001
0000
2000
0000
0000
0000
,
3001
1001
1010
1100
,
1010
0000
1000
0010
0100
0000
0001
0000
0101
0000
0000
0000
0012
0000
0000
0000
,
1003
1010
1100
1001
,
0011
0000
0001
0010
0100
0000
1000
0000
1001
0000
0001
0000
0001
0000
0001
0000
,
1001
1010
1001
0011
,
0110
0000
0100
0010
0001
0000
0100
0000
0110
0000
0000
0000
1001
0000
0000
0000
,
1000
0000
0100
0000
0001
0000
0100
0000
1000
0100
1000
0100
0010
0000
0001
0000
,
1000
0000
0010
1000
0010
1000
0010
0000
0100
0000
0100
0000
0200
0000
0000
0000
,
0301
0000
1000
0010
0001
1000
0100
0001
,
0010
1000
0001
0200
0000
1300
0010
0200
,
0000
0301
0000
0100
2000
0000
3100
0001
,
0002
0000
0000
0000
0003
0000
1000
0010
,
1000
0000
1000
0000
1001
0000
0001
0010
,
1000
0010
0001
0000
1001
0000
1000
0100
,
0001
0000
0100
0000
0010
0000
0001
0100
,
1000
0100
0001
0000
1001
0000
1000
0100
,
1100
0000
1000
0100
0001
0100
1000
0010
,
0001
0010
1000
0100
0000
0010
0001
1000
,
0000
0001
0000
1000
0020
0000
0130
0001
,
2000
0000
0000
3001
,
1001
0000
1000
0100
0010
0000
0001
0010
0001
0010
0100
0000
1000
0000
0010
0100
,
0010
0000
1000
0010
0100
0000
0001
0100
0010
1000
0100
0000
0010
0001
0010
0001
,
0010
0000
0100
1000
0100
1000
0100
0000
1000
0010
1000
0010
2000
0000
0000
0000
,
3002
0000
0000
1003
,
1001
0000
0000
0000
1000
0000
0010
0000
0001
0000
0010
0100
0001
0000
0010
0000
,
0100
0000
0001
0100
1000
0000
0010
0000
0000
0000
0100
0000
0100
0000
0001
0000
,
1000
0000
0100
0000
0001
0000
0100
0000
0010
0000
0001
0100
0010
0000
1000
0000
,
0001
0010
0100
0010
0001
0000
0100
0000
0010
0000
0010
0000
0010
0000
1000
0000
,
0100
0000
0010
0001
0010
0100
1000
0100
1000
0000
0010
0100
0001
1000
0001
0100
,
0010
0000
1000
0100
0010
0000
0001
0000
0100
0010
0000
1000
0100
0010
0001
0000
,
1000
0000
0010
0100
0001
0010
0001
0010
0100
0000
1000
0010
1000
0100
0010
0001
,
2000
0000
0010
0000
3001
0000
0010
0010
,
0001
0000
0000
0000
1000
0000
0010
0000
0001
0000
1000
0100
0001
0000
0010
0000
,
1000
0001
0100
1000
0010
0100
0001
0001
,
0001
1000
0010
0001
1000
0100
0001
0010
,
0100
1000
0100
0010
0001
0000
0100
0000
0110
0000
0010
0000
1010
0000
1000
0000
,
0001
0000
0100
0000
1000
0100
0010
0100
0010
0000
1000
0000
0100
0010
0001
0010
,
0001
1000
0001
1000
0001
0100
0010
0100
0010
1000
0001
1000
0001
0000
1000
0000
,
0010
0000
0100
0010
1000
0000
0100
0000
0010
0001
0010
0001
0010
0100
1000
0001
,
0100
0110
1001
2010
,
3010
0000
0100
0001
0010
0000
0100
1000
0010
0000
0100
0000
0100
0000
0100
0000
,
0010
0000
1000
0000
0001
0010
0100
0000
1000
0000
0010
0000
0110
0000
0000
0000
,
0101
0000
0100
0000
0010
0000
1000
0000
0100
0000
0010
0001
0010
0000
0100
0000
,
0110
0000
0010
0001
1000
0010
0100
0001
2000
0000
0000
0000
3010
0000
0010
0000
,
0100
0000
0001
0000
1000
0010
0100
0010
1000
0000
0001
0010
0100
0000
0010
0000
,
0001
0000
1000
0010
1000
0000
0100
0000
0010
0000
0100
0010
0002
0000
0000
0000
,
1003
0000
0010
0100
0010
0000
1000
0000
0100
0000
0010
0001
0010
0100
1000
0000
,
0001
0000
0100
0010
0100
0010
0100
0010
1000
0000
0100
0000
0001
0000
0100
0000
,
2000
0000
0000
0000
0000
0002
0000
0000
0000
0000
0000
0000
,
3003
0000
0000
0000
;
