#TITLE:Notice;
#SUBTITLE:feat. TORIENA;
#ARTIST:Moe Shop;
#TITLETRANSLIT:;
#SUBTITLETRANSLIT:;
#ARTISTTRANSLIT:;
#GENRE:;
#CREDIT:;
#MUSIC:Notice.ogg;
#BANNER:Notice.png;
#BACKGROUND:Notice-bg.png;
#CDTITLE:;
#SAMPLESTART:22.800;
#SAMPLELENGTH:17.520;
#SELECTABLE:YES;
#OFFSET:0.007;
#BPMS:0.000=125.000;
#STOPS:;
#BGCHANGES:;
#FGCHANGES:;

//--------------- dance-single - mikeintyo ----------------
#NOTES:
     dance-single:
     mikeintyo:
     Beginner:
     3:
     0.169785,0.307929,0.033245,0.049867,0,143,139,4,6,0,0,0.169785,0.307929,0.033245,0.049867,0,143,139,4,6,0,0:
0000
0000
0000
0000
,
0000
0000
0000
0000
,
0000
0000
0000
0000
,
0000
0000
0000
0000
,
1000
0000
0100
0000
,
1000
0000
0100
0000
,
0010
0000
0001
0000
,
0010
0001
0010
0100
,
1000
0000
0100
0000
,
0010
0000
0001
0000
,
0010
0000
0100
0000
,
1000
0000
1000
0000
,
0010
0010
0010
0010
,
0100
0000
0100
0000
,
0001
0000
0010
0000
,
0100
0000
1000
0000
,
1000
0100
0100
0100
,
1000
0000
0100
0000
,
0010
0000
0001
0000
,
1000
0000
0010
0000
,
0100
0000
0000
0000
,
0002
0000
0000
0000
,
0000
0000
0000
0000
,
0203
0000
0000
0000
,
0320
0000
0000
0000
,
0230
0000
0000
0000
,
0000
0000
0000
0000
,
0302
0000
0000
0000
,
2003
0000
0000
0000
,
3001
0001
0010
0000
,
0001
0001
0100
0000
,
0001
0001
1000
0000
,
1000
0001
1000
0010
,
0100
0100
0010
0000
,
0100
0100
0001
0000
,
0010
0010
0100
0000
,
0010
0001
0010
0001
,
0010
0010
0100
0000
,
1000
0000
1000
0000
,
1000
0100
0010
0000
,
0001
0000
0001
0000
,
0001
0100
0001
0000
,
0100
0000
1000
0000
,
0010
1000
0010
0000
,
1000
0000
0100
0000
,
0010
0010
0001
0000
,
0001
0001
0010
0000
,
0100
0100
1000
0000
,
0010
0010
0100
0000
,
1000
0010
0100
0000
,
0010
0000
0100
0000
,
0001
0010
0100
0000
,
0100
1000
0001
0000
,
1001
1001
1001
1001
,
0001
0000
1000
0000
,
1000
0100
0010
0000
,
0001
0000
1000
0000
,
0100
0010
0010
0010
,
0001
0000
0100
0000
,
0001
0000
0100
0000
,
0010
0000
0100
0000
,
0010
0100
0001
1000
;

//--------------- dance-single - mikeintyo ----------------
#NOTES:
     dance-single:
     mikeintyo:
     Easy:
     8:
     0.290891,0.35925,0.083112,0.016622,0.066489,245,235,10,2,0,0,0.290891,0.35925,0.083112,0.016622,0.066489,245,235,10,2,0,0:
0000
0000
0000
0000
,
0000
0000
0000
0000
,
0000
0000
0000
0000
,
0000
0000
0000
0000
,
0001
0000
0000
0000
0001
0000
0000
0000
0010
0000
0000
0100
0000
0000
0000
0000
,
2000
3000
0010
1000
,
1000
0000
0000
0000
0100
0000
0000
0000
0010
0000
0000
0001
0000
0000
0000
0000
,
0001
0000
0001
0000
1000
0000
1000
0100
,
1000
0000
0000
0000
0100
0000
0000
0000
0010
0000
0000
0100
0000
0000
0000
0000
,
0010
0100
0010
0001
,
0010
0000
0000
0000
0010
0000
0000
0000
0100
0000
0000
1000
0000
0000
0000
0000
,
0010
0100
0010
0100
,
0110
0110
1001
1001
,
1000
0000
0000
0001
1000
0000
0000
0010
,
0100
0000
0000
0010
1000
0000
0100
0000
,
0010
0000
0000
0010
0001
0000
0000
0010
,
0100
0010
0100
0010
,
0100
0000
0000
0100
1000
0000
0000
0001
,
0010
0000
0000
0100
0010
0000
0010
0000
,
0001
0000
0000
0100
0010
0000
2000
0000
,
0020
0000
0000
0000
0000
0000
0000
3000
,
1030
0000
0000
0100
0000
0010
0000
0100
,
0000
0000
0000
0010
0000
0001
0000
0010
,
0100
0000
0000
0000
1000
0000
0000
0010
,
0000
0000
0000
0100
0000
0000
0010
0000
,
0100
0000
0000
0001
0000
0000
0000
1000
,
0000
0000
0000
0100
0000
0000
0000
0010
,
0100
0000
0000
0000
0000
0000
1000
0100
,
0000
0000
0010
0100
0000
0000
1000
0000
,
0001
0000
0000
0000
0001
0000
0000
0000
0001
0000
0000
0010
0000
0000
0000
0000
,
0100
0000
0000
0000
0100
0000
0000
0000
0100
0000
0000
1000
0000
0000
0000
0000
,
1000
0000
0000
0000
1000
0000
0000
0000
1000
0000
0000
0100
0000
0000
0000
0000
,
0010
0000
0010
0100
0010
0000
0010
0000
,
0010
0000
0000
0000
0010
0000
0000
0000
0010
0000
0000
0001
0000
0000
0000
0000
,
0100
0000
0000
0000
0100
0000
0000
0000
0100
0000
0000
0010
0000
0000
0000
0000
,
1000
0000
0000
0000
1000
0000
0000
0000
1000
0000
0000
0010
0000
0000
0000
0000
,
0100
0000
0100
0010
0100
0000
0010
0000
,
0010
0000
0000
0000
0100
0000
0000
0000
0001
0000
0000
1000
0000
0000
0000
0000
,
0100
0000
0100
0000
0010
0001
0010
0000
,
0010
0000
0000
0000
0010
0000
0000
0000
0100
0000
0000
1000
0000
0000
0000
0000
,
0010
0100
0010
1001
,
1000
0000
0000
0000
0001
0000
0000
0000
0010
0000
0000
0010
0000
0000
0000
0000
,
0001
0000
0001
0000
1000
0000
1000
0010
,
0100
0000
0000
0000
0010
0000
0000
0000
1000
0000
0000
0001
0000
0000
0000
0000
,
0010
0010
0100
1000
,
0010
0000
0010
0100
0010
0000
0010
0000
,
1000
0000
1000
0000
1000
0000
0100
0010
,
0100
0000
0010
0000
0010
0100
0010
0000
,
1000
0000
1000
0000
0100
0000
0010
0100
,
0010
0000
0000
0000
0010
0000
0100
0000
0010
0000
0000
0001
0000
0000
0000
0000
,
0100
0100
0010
1000
,
0010
0000
0000
0000
0010
0000
0100
0000
0010
0000
0000
1000
0000
0000
0000
0000
,
0100
0100
0010
0010
,
0010
0110
1001
0110
,
1001
0000
0010
0100
1000
0000
0010
0000
,
0100
0000
0001
0010
0100
0000
0100
0000
,
1000
0000
0100
0010
0001
0000
0100
0000
,
0010
0100
0100
0100
,
0110
0000
0100
0001
0010
0000
0010
0000
,
0100
1000
0100
0010
,
0001
0000
0100
0010
1000
0000
1000
0000
,
0001
0010
1000
0100
;

//--------------- dance-single - mikeintyo ----------------
#NOTES:
     dance-single:
     mikeintyo:
     Medium:
     11:
     0.429806,0.5146,0.041556,0.174535,0.253491,362,357,5,21,0,0,0.429806,0.5146,0.041556,0.174535,0.253491,362,357,5,21,0,0:
0000
0000
0000
0000
,
0000
0000
0000
0000
,
0000
0000
0000
0000
,
0000
0000
0000
0000
,
0100
0000
0000
0000
0100
0000
0010
0000
0100
0000
0000
1000
0000
0000
1000
0100
,
0020
0000
0000
0000
0031
0000
1000
0000
0010
0000
0100
0010
0100
0000
0010
0100
,
0010
0000
0000
0000
1000
0000
0100
0000
0010
0000
0000
0100
0000
0000
0000
0000
,
0010
0000
0100
0010
0001
0000
0001
0100
,
0010
0000
0000
0000
0010
0000
1000
0000
0010
0000
0000
0100
0000
0000
0010
0000
,
1000
0000
0000
0000
0001
0000
0100
0000
0010
1000
0100
0000
0010
0000
0010
0100
,
0010
0000
0000
0000
0100
0000
1000
0000
0001
0000
0000
0100
0000
0000
0000
0000
,
0010
0000
0010
0000
1000
0000
1000
0010
0000
0100
0000
0001
1000
0000
0000
0010
,
0200
0302
2003
3200
,
0310
0000
0010
0001
0100
0000
0010
1000
,
0010
0000
0000
0000
0000
0000
0010
0000
0000
0100
0000
0000
0001
0000
0000
0000
0000
0000
0001
0000
0100
0000
0001
0000
,
0100
0000
0010
0100
0001
0000
1000
0001
,
0100
0010
0010
0010
,
1000
0000
1000
0100
0010
0000
0010
0001
,
0010
0000
0100
0010
0100
0000
1000
0000
,
0100
0000
0010
0100
1000
0000
0010
0000
,
0100
0000
0010
0000
0100
0000
0001
1000
0000
1000
0000
1000
0100
0000
0000
0000
,
0020
0000
0000
0130
0000
1000
0000
0010
,
0000
0100
0000
0010
0000
0100
0000
0001
,
0200
0000
0000
0310
0010
0100
0000
0002
,
0000
1003
0000
0100
0000
0010
0000
0010
,
0200
0000
0000
0310
0100
0010
0000
0001
,
0000
0100
0000
0010
0000
0010
0000
0100
,
0002
0000
0000
0000
0000
0000
0013
0200
,
0000
0000
1300
0020
0000
0000
0230
0000
,
0310
0000
0000
0000
1000
0000
0100
0000
0010
0000
0000
0100
0000
0000
0000
0000
,
0001
0000
0000
0000
0001
0000
0100
0000
0010
0000
0000
1000
0000
1000
0100
1000
,
0010
0000
0000
0000
1000
0000
0100
0000
0010
0000
0000
0100
0000
0000
0000
0000
,
1000
0000
0010
1000
0010
0000
1001
0000
,
0100
0000
0000
0000
0100
0000
0010
0000
0100
0000
0000
0010
0000
0000
0000
0000
,
0010
0000
0000
0000
0010
0000
0100
0000
0010
0000
0000
0010
0000
0100
0010
0100
,
0010
0000
0000
0000
1000
0000
0001
0000
0100
0000
0000
0100
0000
0000
0000
0000
,
0100
0000
0100
0001
0100
0000
0100
0000
,
0010
0000
0000
0000
0010
0000
0100
0000
0010
0000
0000
0001
0000
0000
0000
0000
,
0200
0000
0000
0000
0310
0000
0100
0000
0001
0000
0010
0100
0010
0000
0001
0000
,
0010
0000
0000
0000
0010
0000
0100
0000
1000
0000
0000
0010
0000
0000
0000
0000
,
0100
0000
0100
0010
1000
0000
1000
0010
,
0100
0000
0000
0000
0010
0000
0100
0000
0010
0000
0000
0100
0000
0000
0000
0000
,
0001
0000
0000
0000
0010
0000
0100
0000
1000
0000
1000
0100
1000
0000
0010
0100
,
0010
0000
0000
0000
0001
0000
0100
0000
0010
0000
0000
1000
0000
0000
0010
0000
,
0100
0000
0000
0000
0010
0000
0100
0000
0001
0000
0000
0000
1000
0100
1000
0100
,
0010
0000
0000
0000
0100
0000
1000
0000
0001
0000
0000
0010
0000
0000
0100
0000
,
0010
0000
0000
0000
0010
0000
0100
0000
1000
0000
0010
0100
0010
0000
0100
0010
,
0100
0000
0000
0000
0010
0000
0100
0000
0010
0000
0000
1000
0000
0000
0010
0000
,
0100
0000
0000
0000
0010
0000
0100
0000
0001
0000
0000
0000
0010
0000
0100
0010
,
0001
0000
0000
0000
0100
0000
0010
0000
1000
0000
0000
0100
0000
0000
0010
0000
,
0100
0000
0000
0000
0010
0000
0001
0000
0100
0010
0100
0000
0010
0000
0010
0100
,
0010
0000
0000
0000
0010
0000
1000
0000
0100
0000
0000
1000
0000
0000
0010
0000
,
0100
0000
0000
0000
0010
0000
0100
0001
0000
0001
0000
0001
0100
0000
0000
0010
,
2000
3000
0202
0303
0220
0330
2020
3030
,
1001
0000
0001
0100
0010
0000
0010
1000
,
0100
0000
0000
0000
0000
0000
0010
0000
0000
0100
0000
0000
1000
0000
0000
0000
0000
0000
1000
0000
0100
0000
1000
0000
,
0100
0000
0100
1000
0001
0000
0010
0100
,
1000
0000
0001
0000
1000
0001
0000
0001
1000
0000
0100
0000
0010
0000
0000
0000
,
0100
0000
0010
0100
1000
0000
0001
0100
,
0010
0000
1000
0100
0010
0000
0010
0001
,
0100
0010
0100
0010
1000
0100
0010
0001
,
1000
0000
0000
0100
0000
0000
1000
0000
0000
0100
0000
0000
1000
0000
0000
0000
0000
0000
0100
0000
0000
1000
0000
0000
0000
0000
0000
1000
0000
0000
0000
0000
0000
1000
0000
0000
0001
0000
0000
0000
1000
0000
0000
0000
0001
0000
0000
0000
;

//--------------- dance-single - mikeintyo ----------------
#NOTES:
     dance-single:
     mikeintyo:
     Hard:
     14:
     0.642335,0.72044,0.033245,0.124668,0.735539,541,537,4,15,0,0,0.642335,0.72044,0.033245,0.124668,0.735539,541,537,4,15,0,0:
0000
0000
0000
0000
,
0000
0000
0000
0000
,
0000
0000
0000
0000
,
0000
0000
0000
0000
,
1000
0000
0001
0000
1000
0000
0010
0000
0100
0000
0001
0100
0010
0000
1000
0000
,
0001
0100
0010
0100
0001
0010
0100
0000
1000
0000
0010
0100
0010
1000
0000
0000
,
0010
0100
0001
0100
0010
1000
0100
0000
,
1000
0100
0100
0001
0100
0100
0000
1000
0001
0010
0100
0000
1000
0000
0001
0100
,
0010
0000
0000
1000
0001
0100
0010
1000
0100
0000
0010
0001
0000
1000
0100
0010
,
0001
0010
0100
0000
0100
1000
0010
0100
0001
0010
0000
0010
0001
0000
0100
0000
,
0001
0100
0000
0000
1001
0000
0000
0010
0100
0010
1000
0010
0100
0000
0010
0000
,
0100
0001
0010
0100
1000
0000
1000
0100
0000
0100
0000
0100
1000
0000
0000
2000
,
0020
3030
0000
0020
2000
3030
0000
1000
0100
1000
0200
0000
1300
0000
0100
0000
,
0010
0000
0100
0000
1000
0000
0100
0100
0010
0000
0001
1000
0000
0010
0100
0001
,
0100
0000
0000
0000
0000
0000
0010
0000
0000
0000
0000
0000
1000
0000
0000
0100
0000
0000
0010
0000
0000
0100
0000
0000
1000
0000
0000
0001
0000
0000
0100
0000
0000
0010
0000
0000
1000
0000
0000
0000
1000
0000
0000
0000
1000
0000
0000
0000
,
0001
0000
0010
0000
0001
0000
0010
0001
0100
0010
0100
0000
0010
0000
0000
0000
,
1000
0000
0001
0000
0010
0100
0010
0100
1000
0000
0001
0000
1001
0000
0000
0000
,
1000
0000
0000
0000
0010
0000
0100
0100
0001
0000
0010
0100
0000
0010
0001
0100
,
0001
0010
0001
0000
0001
0100
0010
0100
0001
0010
0100
1000
0010
0100
0000
0100
,
0001
0000
0010
0000
0100
0000
0000
0000
0010
0100
0010
0000
0001
0000
0000
0000
,
0001
0100
0010
1000
0001
0000
1000
0001
0000
0001
0000
0001
0100
0000
0000
0000
,
0002
0000
0000
1000
0000
0100
0000
0010
,
0000
0100
0000
0010
0000
0013
0000
0001
,
0020
0000
0000
0100
0100
0031
0000
2000
,
0000
0001
0000
0100
0000
3010
0000
0001
,
0200
0000
0000
0001
0001
0310
0000
0002
,
0000
1000
0000
0100
0000
0013
0000
0020
,
0200
0000
0000
0000
0000
0330
1000
0002
,
0000
0003
0001
0200
0000
0300
0010
0000
,
0100
0010
0100
0000
0010
1000
0100
0000
,
1000
0000
0001
0000
0100
0000
0000
0000
0100
0000
0001
1000
0000
1000
0100
1000
,
0100
1000
0001
0000
0010
0001
1000
0000
,
0010
0100
0001
0000
0001
0100
0010
0000
,
1000
0001
1000
0000
0001
1000
0001
0000
,
0100
0000
0001
0000
0100
0000
0000
0000
0010
0000
0100
0010
0000
0100
0010
0100
,
0010
1000
0010
0000
0100
0001
0100
0000
,
0010
1000
0010
0000
1000
0001
1000
0000
,
0001
0000
1000
0000
0010
0000
0100
0000
0100
0000
0010
0100
0001
0000
1000
0000
,
0001
0100
0010
0100
0001
1000
0100
0000
0100
0010
0100
1000
0010
0100
0000
0000
,
0001
0100
1000
0100
0010
0100
0001
0000
,
0001
0010
0010
1000
0010
0010
0000
0001
1000
0010
1000
0000
0010
0000
0200
0000
,
0310
0000
0000
0000
1000
0010
0100
0001
0000
0001
0100
0000
0001
0001
0100
0000
,
0001
0100
0010
0000
1000
0100
0010
0000
0010
0001
0010
0100
1000
0000
1000
1000
,
0100
0000
1000
0100
1000
0001
0000
0100
0010
0100
0001
0000
0100
0000
0000
0000
,
0001
0100
0010
1000
0010
0000
0100
0010
0000
0010
0000
0010
0100
0000
0000
0000
,
0001
0000
0010
0000
0100
0000
1000
0000
0100
0000
0010
0100
1000
0000
1000
0000
,
0010
0000
0000
0010
1000
0100
0010
0001
0100
0000
0010
0000
1000
0000
0100
0000
,
1000
0100
0010
0001
1000
0100
0010
0100
1000
0010
0000
0100
0001
0100
0000
0000
,
0001
0100
1000
0001
0010
1000
0000
0010
1000
0100
1000
0000
1000
0000
0010
0100
,
0001
0000
0000
0001
0100
0010
1000
0100
0010
0000
0100
0010
0100
1000
0010
0100
,
0001
0010
0100
0000
1000
0100
1000
0001
0010
0001
0100
0010
1000
0000
0100
0000
,
0010
0100
0000
0000
0110
0000
0000
0010
0100
1000
0001
0000
1001
0000
0000
0000
,
1000
0100
0010
0100
1000
0000
0100
0010
0000
0010
0000
0010
0100
0000
0000
1000
,
0200
0000
0000
1300
0020
0000
0000
1030
0002
0010
0103
0000
0020
0000
0031
0000
,
0010
0000
0000
0000
0101
0000
0100
0100
0001
0000
0010
0100
0000
0100
0010
0100
,
1000
0000
0000
0000
0000
0000
1000
0000
0000
0000
0000
0000
0100
0000
0000
1000
0000
0000
0010
0000
0000
0100
0000
0000
0001
0000
0000
0010
0000
0000
0100
0000
0000
1000
0000
0000
0100
0000
0000
0000
0100
0000
0000
0000
0100
0000
0000
0000
,
1000
0000
0010
0000
0100
0000
0010
0100
1000
0100
0010
0100
1000
0000
0100
0000
,
0010
0000
0010
0000
0100
0010
1000
0001
0100
0000
0010
0000
1000
0000
0010
0000
,
0100
0000
0000
0000
0010
1000
0100
1000
0000
0010
0100
0000
0001
0001
0010
0000
,
0010
0100
1000
0000
1000
0100
0010
0000
0001
0010
0001
0010
0001
0000
0010
0010
,
0100
0000
1000
0001
0010
0200
0000
0310
0001
0100
0010
0000
1000
0000
0010
0000
,
1000
0000
0000
0100
0000
0000
0010
0000
0000
0100
0000
0000
0010
0000
0000
0000
0000
0000
0001
0000
0000
1000
0000
0000
0000
0000
0000
1000
0000
0000
0000
0000
0000
1000
0000
0000
0001
0000
0000
0000
0001
0000
0000
0000
0001
0000
0000
0000
;
