#TITLE:No Substitute;
#SUBTITLE:;
#ARTIST:Chef;
#TITLETRANSLIT:;
#SUBTITLETRANSLIT:;
#ARTISTTRANSLIT:;
#CREDIT:;
#BANNER:No Substitute.png;
#BACKGROUND:No Substitute-bg.png;
#LYRICSPATH:;
#CDTITLE:;
#MUSIC:No Substitute.ogg;
#OFFSET:-0.186;
#SAMPLESTART:36.326;
#SAMPLELENGTH:12.500;
#SELECTABLE:YES;
#BPMS:0.000=79.603,1.000=78.689,2.000=84.136,3.000=76.368,4.000=80.501,7.000=79.002,9.000=80.000,16.000=78.500,20.000=79.800,33.000=79.200,40.000=80.102,48.000=79.901,60.000=79.701,69.000=81.503,72.000=79.002,77.000=80.401,85.000=78.502,88.000=80.401,91.000=78.003,92.000=80.501,96.000=79.663,115.000=80.102,126.000=79.002,128.000=80.201,143.000=79.402,158.000=79.701,180.000=77.001;
#STOPS:;
#BGCHANGES:;

//---------------dance-single - ----------------
#NOTES:
     dance-single:
     :
     Beginner:
     1:
     0.060,0.092,0.034,0.000,0.000:
0000
0000
0000
0000
,
0000
0000
0000
0000
,
0000
0000
0000
0000
,
0000
0000
0000
0000
,
1000
0000
1000
0000
,
0001
0000
0001
0000
,
0100
0000
0000
0000
,
0010
0000
0000
0000
,
1000
0000
1000
0000
,
0001
0000
0001
0000
,
0010
0000
0000
0000
,
0100
0000
0000
0000
,
1000
0000
0000
0000
,
1000
0000
0000
0000
,
0001
0000
0000
0000
,
0001
0000
0000
0000
,
0100
0000
0000
0000
,
0010
0000
0000
0000
,
1001
0000
0000
0000
,
1000
0000
0000
0000
,
0001
0000
0000
0000
,
1000
0000
0000
0000
,
1000
0000
0000
0000
,
0100
0000
0000
0000
,
0100
0000
0000
0000
,
0010
0000
0000
0000
,
0001
0000
0000
0000
,
0001
0000
0000
0000
,
1001
0000
0000
1000
,
1000
0000
0000
0001
,
0001
0000
0000
1000
,
1000
0000
0000
0000
,
1001
0000
0000
0000
,
0001
0000
0000
0000
,
0010
0000
0000
0000
,
0100
0000
0000
0000
,
1000
0000
0000
0000
,
0100
0000
0001
0000
,
0100
0000
0000
0010
,
0010
0000
0000
0100
,
0100
0000
0000
0010
,
0010
0000
0000
0100
,
0100
0000
0000
1000
,
1000
0000
0000
0000
,
0001
0001
0000
0000
,
1001
0000
1001
0000
;

//---------------dance-single - ----------------
#NOTES:
     dance-single:
     :
     Easy:
     6:
     0.165,0.196,0.034,0.135,0.027:
0000
0000
0000
0000
,
0000
0000
0000
0000
,
0000
0000
0000
0000
,
0000
0000
0000
0000
,
2000
0000
3200
0000
,
0320
0000
0032
0000
,
1003
1000
0000
0000
,
0001
0000
0000
0000
0001
0000
0000
0000
0000
0000
0010
0000
0000
0010
0000
0000
,
0200
0000
2300
0000
,
3020
0000
0032
0000
,
0013
0010
0000
0000
,
0200
0000
0000
1000
0000
0000
1300
0000
0000
0000
0100
0000
0000
0100
0000
0000
,
0001
0010
0001
0001
,
0000
1000
0100
1000
,
0001
0001
0100
0010
,
1000
0000
1000
0100
,
0100
0010
0010
1000
,
1000
0010
0001
1000
,
2002
0000
3003
1000
,
0000
0000
0000
0000
0002
0000
0000
0003
0000
0000
0000
0000
0001
0000
0000
0000
,
0000
1000
0000
1000
,
0010
0000
0000
0000
0100
0000
0000
0000
0100
0000
0001
0000
0000
0001
0000
0000
,
1000
0100
0001
0100
,
1000
0100
0010
0010
,
0001
0100
1000
0100
,
0001
0000
0000
0000
1000
0000
0000
0000
0000
0000
0100
0000
0000
0100
0000
0000
,
1000
0010
0100
0001
,
0010
0100
1000
0001
,
2002
0000
3003
0001
,
0000
0000
0000
0000
0200
0000
0000
0300
0000
0000
0000
0000
1000
0000
0000
0000
,
0000
0100
0001
1000
,
0000
0000
0000
0000
0100
0000
0000
0000
0000
0000
0010
0000
0000
0010
0000
0000
,
1001
0001
0100
0010
,
1000
0000
0001
0001
1000
1000
0001
1000
,
0000
0001
0100
0010
,
1000
0000
0000
0000
1000
0000
0000
0000
0000
0000
0001
0000
0000
0001
0000
0000
,
1000
0100
0010
1000
,
0010
0100
1000
0001
,
1000
2000
0000
0000
3000
0000
0010
0000
,
0000
0000
0100
0000
0100
0001
0001
0000
,
1000
0100
1000
1000
,
0010
0000
0100
0000
0001
1000
0001
1000
,
0001
0010
0100
1000
,
0001
0100
1000
0100
,
0001
0000
0000
0000
0010
0000
0000
0000
0100
0000
1000
0000
0000
1000
0000
0000
,
2002
3003
0220
0000
,
0000
0000
0000
0000
,
0000
0000
0000
0000
,
0000
0000
0330
0000
;

//---------------dance-single - ----------------
#NOTES:
     dance-single:
     :
     Medium:
     10:
     0.287,0.350,0.081,0.108,0.084:
0000
0000
0000
0000
,
0000
0000
0000
0000
,
0000
0000
0000
0000
,
0000
0000
0000
0000
,
1002
0000
0203
0000
,
0320
0000
2030
0000
,
3001
0000
0001
0010
0100
0010
0010
0000
,
0001
0000
0000
0000
1000
0000
0010
0000
0100
0000
0010
0000
0000
0010
0000
0000
,
2000
0100
3020
0001
,
0230
1000
0302
0010
,
1003
0000
0010
0100
1000
0100
0010
0000
,
1000
0000
0000
0100
0000
0000
0010
0000
0001
0000
1000
0000
0000
1000
0000
0000
,
0010
0100
0010
0000
1000
1000
0100
0000
,
0010
0001
0010
0000
0001
0001
0100
0000
,
0010
1000
0100
1000
0001
0001
0100
0001
,
2000
0000
0000
0000
3000
0000
0000
0000
0010
0000
0100
0000
0000
0100
0000
0000
,
0001
1000
0001
0000
0010
0010
0100
0000
,
1000
0001
1000
0000
0100
0010
0001
1000
,
2002
0000
0000
0000
3003
0001
0100
1000
,
1000
0000
0100
0000
0001
0000
1000
0001
0000
0000
1000
0000
0100
0000
0001
0000
,
0000
0001
0001
0100
0000
0010
0001
0100
,
0100
0000
0001
0000
1000
0000
0010
0000
0100
0000
0010
0000
0000
0010
0000
0000
,
1001
0000
1000
0100
0010
0100
0001
0000
,
0001
0000
0100
0000
0010
0000
1000
0000
0010
0000
0100
0000
1000
0100
0000
0000
,
1000
0001
0100
0010
0100
1000
0100
0100
,
0001
0000
1000
0000
0100
0000
0010
0000
0001
0000
1000
0000
0000
1000
0000
0000
,
0001
1000
0010
0100
0010
0001
0010
0010
,
1000
0100
0010
0001
1000
0010
0100
0001
,
2002
0000
0000
0000
3003
0001
0010
0100
,
0100
0000
0010
0000
0001
0000
1000
0001
0000
0000
1000
0000
0010
0000
0100
0000
,
0000
0100
0001
0001
1000
0100
0001
0100
,
1000
0000
0010
0000
0001
0000
0001
0000
0010
0000
0100
0000
0000
0110
0000
0000
,
1001
1000
0100
1000
0001
0001
0010
0010
,
0000
0100
1001
0010
1001
0001
0100
0100
,
0000
0010
1000
0001
1000
0010
1000
1000
,
0000
0000
0100
0000
1000
0000
0000
1000
0000
0000
0010
0000
0000
0100
0000
0000
,
0001
0000
1000
0000
0100
0000
0000
0100
0000
0100
0000
0000
1000
0000
0001
0000
,
0100
0000
0000
0001
0000
0000
1001
0000
0000
0000
0000
0000
1000
0000
0000
1000
0000
0000
0010
0000
0100
0000
0010
0000
,
0100
0200
0000
0000
0300
0001
0010
1000
,
1000
0000
0010
0000
0001
0000
1000
0001
0000
0000
1000
0001
1000
0000
0010
0000
,
0100
0000
0001
0000
0001
1000
0001
0000
0010
0000
0100
0000
1000
0001
1000
0000
,
1001
0000
1000
0000
0010
0000
0100
0000
0001
0000
1000
0001
1000
0001
1000
0000
,
0001
0000
0001
1000
0001
0000
0010
0000
0000
0000
0100
0000
1000
0000
0000
0000
,
1000
0010
0100
1000
0100
0001
1000
1000
,
0100
0000
0010
0000
0001
0000
0001
0000
0100
0000
0010
0000
0000
1010
0000
0000
,
2001
0000
0000
0000
0000
0001
0000
0000
0200
0000
0000
0000
0000
0000
0000
0000
,
0000
0000
0000
0000
,
0000
3300
0000
0000
0000
0000
0000
0000
;

//---------------dance-single - ----------------
#NOTES:
     dance-single:
     :
     Hard:
     12:
     0.469,0.524,0.290,0.189,0.577: // measure 1
0000
0000
0000
0000
,  // measure 2
0000
0000
0000
0000
,  // measure 3
0000
0000
0000
0000
,  // measure 4
0000
0000
0000
0000
,  // measure 5
2002
0000
0000
3003
0000
1000
0001
2000
0000
0000
3000
0000
0000
0100
1000
0001
,  // measure 6
1000
0000
0000
0001
0000
0000
0000
0000
0000
0100
0000
0000
0010
0000
0000
1000
0000
0000
0000
0000
0000
0001
0000
0000
0000
0000
0000
0000
0000
0000
0000
0000
0000
0000
0000
0000
0000
0000
0001
0000
0000
0000
0000
0000
0001
0000
0000
0000
,  // measure 7
0100
0000
1000
0100
0010
1000
0100
0001
0100
0010
0000
0010
0000
0000
0001
0000
,  // measure 8
1000
0010
0100
0001
0000
0010
0001
0100
0010
0000
1010
0000
0000
1001
0000
0000
,  // measure 9
0011
0000
0000
0000
0011
0000
0010
0100
1000
0000
0001
0000
1002
0000
0000
0000
,  // measure 10
1003
0000
0000
0000
0010
0000
0000
0000
0000
0000
0100
0000
0001
0000
1000
0000
0000
0000
1000
0000
0000
0100
0000
0000
1000
0000
0000
0000
0000
0000
0010
0000
0000
0000
0000
0000
0100
0000
0000
0001
0000
0000
1000
0000
0000
0000
0000
0000
,  // measure 11
1001
0000
0001
0000
0021
0000
0000
0000
1030
0010
0010
0100
1000
0001
0100
0000
,  // measure 12
0110
0000
0010
1000
0000
0100
0010
0000
0001
0000
1001
0000
0000
0011
0000
0000
,  // measure 13
0101
0100
0010
0000
0010
1000
0001
1000
0000
0100
0000
0010
1000
0010
0100
1000
,  // measure 14
0001
0100
0010
0000
0001
0010
1000
0001
0000
0010
0100
0000
1000
0100
0000
0010
,  // measure 15
0001
1000
0001
0100
0010
0100
0000
0002
0000
0000
0013
0100
1000
0000
1000
0000
,  // measure 16
0020
0000
0030
0000
0000
0000
0000
0010
1000
0000
0001
0100
1000
0100
0001
1000
,  // measure 17
0100
0000
0010
0000
1001
0000
0000
1000
0000
1000
0000
0010
0100
0001
0100
0001
,  // measure 18
1000
0100
0010
0000
0001
0000
0000
0000
0001
1000
0000
1000
0000
0010
0100
0000
,  // measure 19
1002
0000
0020
0000
0000
0000
0000
0000
0033
0000
0020
0000
0031
0100
1000
0000
,  // measure 20
0200
0000
0301
0010
1000
0000
1000
0010
0000
0000
0020
0000
0031
0100
1000
0000
,  // measure 21
0100
0000
1000
0100
0000
0100
0001
0000
0000
0000
0020
0000
1030
0010
0001
0100
,  // measure 22
1000
0000
1100
0000
0200
0000
0301
0010
1000
0000
1010
0000
0010
0011
0000
0000
,  // measure 23
1001
0001
1000
0010
0001
0000
0001
0010
0100
0001
0000
0001
1000
0100
1000
0010
,  // measure 24
0100
0001
0010
1000
0010
0001
1000
0010
0000
0010
1000
0000
1000
0001
0000
0001
,  // measure 25
0100
0010
1000
0000
0100
0001
0100
0010
0001
0001
1000
0001
0100
1000
0100
0010
,  // measure 26
1000
0100
0010
0000
0001
0000
0000
1000
0000
0000
1010
0000
0000
1001
0000
0000
,  // measure 27
0011
0000
0010
0000
0100
0000
1000
0010
0000
0010
0000
0100
0001
1000
0100
0010
,  // measure 28
0100
0000
0000
1000
0000
0000
0001
0000
0000
0000
0000
0000
0101
0000
0000
0000
0000
0000
0000
0000
0000
0110
0000
0000
0000
0000
0000
0010
0000
0000
0000
0000
0000
0000
0010
0000
1000
0000
0000
0000
0000
0000
0001
0000
0000
0000
0000
0000
,  // measure 29
2001
0000
0000
0000
0000
0000
0000
0000
3000
0000
0200
0000
0310
1000
0010
0000
,  // measure 30
0200
0000
1300
0010
1000
0000
1000
0001
0000
0000
0020
0000
0130
0001
0100
0000
,  // measure 31
0000
0000
0010
0001
0000
0001
0100
0000
0020
0000
0031
0010
0001
0000
0000
0000
,  // measure 32
0000
0000
0020
0000
1030
0100
1000
0000
1001
0000
0110
0000
0010
1010
0000
0000
,  // measure 33
1001
0001
0010
0100
0010
0000
0010
0001
1000
0000
1000
0010
0100
0001
1000
0001
,  // measure 34
0010
0000
0000
0100
0000
0000
1000
0000
0000
0100
0000
0000
0010
0000
0000
0001
1000
0000
0010
0000
0000
1000
0001
0000
0010
0000
0000
0000
0010
0000
0100
0000
0000
0000
0100
0000
1000
0000
0000
0000
0000
0000
1000
0000
0000
0000
0000
0000
,  // measure 35
1001
0001
0100
0000
0010
0001
0010
1000
0100
0000
0100
0001
0100
1000
0100
0010
,  // measure 36
0001
1000
0010
0000
0110
0000
0000
0110
0000
0000
1001
0000
0000
0011
0000
0000
,  // measure 37
0110
0000
0100
0000
1001
0000
0000
0001
0000
0001
0000
0001
0100
0010
0001
0010
,  // measure 38
1000
0000
0000
0001
0000
0000
0010
0000
0000
0000
0000
0000
0100
0000
0000
0000
0000
0000
0000
0000
0000
0100
0000
0000
0000
0000
0000
0100
0000
0000
1000
0000
0000
0000
0000
0000
0010
0000
0000
0000
0100
0000
0000
0000
0100
0000
0000
0000
,  // measure 39
0001
0000
0002
0000
0000
0000
0000
0000
0003
0000
0020
0000
1030
0010
1000
0000
,  // measure 40
0020
0000
0031
0100
0001
0000
0001
1000
0000
0000
0010
0010
0010
0000
1000
0100
,  // measure 41
0001
0000
0100
0000
1000
0001
0100
0000
0020
0000
1030
0100
0001
0100
1000
0000
,  // measure 42
1001
0000
0002
0000
0103
1000
0100
0001
0010
0000
1000
1000
0010
0010
0001
0000
,  // measure 43
0001
0100
1000
0100
0010
0000
1000
0000
0001
0000
0010
0000
0011
0000
0000
0000
,  // measure 44
0010
0000
0100
0000
1000
0000
0010
0100
0001
0000
0001
0000
0010
0100
0001
0000
,  // measure 45
0000
0000
0001
0000
0000
0000
0000
0000
0100
0000
0000
0000
1000
0000
0000
0000
0001
0000
0000
0000
0000
0000
0000
0000
0011
0000
0000
0000
0000
0000
1001
0000
0000
1000
0000
0000
0000
0000
0000
1010
0000
0000
1000
0000
0000
0000
0000
0000
,  // measure 46
1002
0000
0000
1003
0001
1001
0000
0000
0220
0000
0000
0000
0000
0000
0000
0000
,  // measure 47
0000
0000
0000
0000
,  // measure 48
0000
0330
0000
0000
0000
0000
0000
0000
;

//---------------dance-single - ----------------
#NOTES:
     dance-single:
     :
     Edit:
     14:
     0.542,0.620,0.229,0.270,0.816: // measure 1
0000
0000
0000
0000
,  // measure 2
0000
0000
0000
0000
,  // measure 3
0000
0000
0000
0000
,  // measure 4
0000
0000
0000
0000
,  // measure 5
1002
0000
0000
0000
0003
1000
0001
2000
0000
0000
3000
0000
0000
1000
0100
1000
,  // measure 6
0010
0000
0000
0100
0000
0000
0000
0000
0000
0001
0000
0000
1000
0000
0000
0001
0000
0000
0000
0000
0000
0020
0000
0000
0000
0000
0000
0000
0000
0000
0030
0000
0000
0000
0000
0000
0000
0000
0000
0000
0100
0000
0000
0000
0100
0000
0000
0000
,  // measure 7
1000
0000
0010
0100
1000
0100
0010
1000
0001
1000
0000
0100
0000
0000
0010
0000
,  // measure 8
0001
0100
1000
0100
0000
0100
0010
1000
1010
0000
1001
0000
0001
0011
0000
0000
,  // measure 9
1100
0000
0000
0000
1001
0001
0100
0010
0001
0000
0010
0000
1010
2000
0000
0000
,  // measure 10
3000
0000
0000
0000
0001
0000
0000
0000
0010
0000
0000
0000
0100
0000
1000
0000
0000
0000
1000
0000
0000
0001
0000
0000
0200
0000
0000
0000
0000
0000
0300
0000
0000
0000
0000
0000
0000
0000
0000
0000
0010
0000
0000
0000
0010
0000
0000
0000
,  // measure 11
1000
0000
0000
0000
0100
0000
0000
0000
2000
0000
0000
0000
0000
0000
0000
0000
0000
0000
0000
0000
3000
0000
0000
0000
0000
0000
0000
0001
0000
0000
0001
0000
0000
0100
0000
0000
1000
0000
0000
0100
0000
0000
0010
0000
0000
0000
0000
0000
,  // measure 12
1010
0000
1000
0100
0000
0100
0020
0000
0031
0000
0011
0000
0010
0110
0000
0000
,  // measure 13
1100
1000
0001
0000
0100
1000
0100
0010
0000
0010
0000
1000
0100
1000
0010
0100
,  // measure 14
0001
0010
0100
0000
0010
0001
0100
0001
0000
0010
0000
0100
1000
0010
0000
0010
,  // measure 15
0100
1000
0100
0010
1000
0001
0000
0020
0000
0000
0130
0001
0100
1000
0001
0000
,  // measure 16
2002
0000
0000
0000
3003
0000
0000
0001
0100
0000
0100
0010
0001
0010
0100
0001
,  // measure 17
0010
0000
0000
0000
0000
0000
0000
0000
0000
0000
0000
0000
0000
0000
0000
0000
0000
0000
0000
0000
0000
0000
0000
0000
0000
0000
0000
0000
0000
0000
0000
0000
0000
0000
0000
0000
0100
0000
0000
0000
0000
0000
0000
0000
0000
0000
0000
0000
1000
0000
0000
0000
0000
0000
0000
0000
0000
0000
0000
0000
1000
0000
0000
0000
0000
0000
0010
0000
0000
0000
0000
0000
0100
0000
0000
0000
0000
0000
0010
0000
0000
0000
0000
0000
0000
0000
0000
0000
0000
0000
0010
0000
0000
0000
0000
0000
1000
0000
0000
0000
0000
0000
0000
0000
0000
0000
0000
0000
1000
0000
0000
0000
0000
0000
0001
0000
0000
0000
0000
0000
0000
0000
0000
0000
0000
0000
0001
0000
0000
0000
0000
0000
0100
0000
0000
0000
0000
0000
0010
0000
0000
0000
0000
0000
0100
0000
0000
0000
0000
0000
0000
0000
0000
0000
0000
0000
0000
0000
0000
0000
0000
0000
0000
0000
0000
0000
0000
0000
0000
0000
0000
0000
0000
0000
0000
0000
0000
0000
0000
0000
0000
0000
0000
0000
0100
0000
0000
0000
0000
0000
0000
0000
,  // measure 18
0001
0000
0000
0000
0001
0000
0010
0000
0000
0000
0100
0000
0000
0000
1000
0000
0000
0000
0000
0000
0000
0000
0000
0000
1000
0000
0000
0010
0000
0000
0000
0000
0000
0110
0000
0000
0000
0000
0000
0100
0000
0000
1000
0000
0000
0000
0000
0000
,  // measure 19
1000
0100
0002
0000
0010
0000
0000
0000
1000
0000
0203
0000
0301
0010
0001
0000
,  // measure 20
0200
0000
1300
0100
1000
0000
0100
0010
0000
0000
0020
0000
1030
0100
0001
0000
,  // measure 21
0100
0000
0100
1000
0000
1000
0001
0000
0000
0000
0200
0000
1300
0100
0001
0010
,  // measure 22
1000
0000
0020
0000
0031
0000
0001
0100
1100
0000
0110
0000
0100
0101
0000
0000
,  // measure 23
1001
0001
0010
1000
0010
0000
0010
0001
0100
1000
0100
0010
1000
0100
0010
1000
,  // measure 24
0010
0001
1000
0100
0001
0100
1000
0001
0000
0001
0010
0001
0100
1000
0100
0001
,  // measure 25
0010
0001
1000
0000
1000
0010
1000
0001
0010
0010
0100
0001
0100
0000
2000
0000
,  // measure 26
3010
0000
0000
0000
0000
0000
0000
0000
0000
0000
0000
0000
0000
0000
0000
0000
0000
0000
0000
0000
0000
0000
0000
0000
0100
0000
0000
0000
0000
0000
0000
0000
0000
0000
0000
0000
0000
0000
0000
0000
0000
0000
0000
0000
0000
0000
0000
0000
0001
0000
0000
0000
0000
0000
0000
0000
0000
0000
0000
0000
1000
0000
0000
0000
0000
0000
0100
0000
0000
0000
0000
0000
0000
0000
0000
0000
1000
0000
0000
0000
0000
0000
0000
0000
0000
0000
0000
0000
0000
0000
0000
0000
0000
0000
0000
0000
0010
0000
0000
0000
0000
0000
0100
0000
0000
0000
0000
0000
0000
0000
0000
0000
0000
0000
0001
0000
0000
0000
0000
0000
0000
0000
0000
0000
0001
0000
0000
0000
0000
0000
0000
0000
0000
0000
0000
0000
0000
0000
0000
0000
0000
0000
0000
0000
0000
0000
0000
0000
0000
0000
0000
0000
0000
0000
0000
0000
0001
0000
0000
0000
0000
0000
0000
0000
0001
0000
0000
0000
0000
0000
0000
0000
0010
0000
0000
0000
0000
0000
0000
0000
0000
0000
0000
0100
0000
0000
0000
0000
0000
0000
0000
0000
,  // measure 27
0010
0000
0000
0000
0000
0000
0000
0000
0000
0000
0000
0000
0001
0000
0000
0000
0000
0000
0000
0000
0000
0000
0000
0000
0001
0000
0000
0000
0000
0000
0000
0000
0100
0000
0000
0000
0000
0000
0000
0000
1000
0000
0000
0000
0000
0000
0000
0000
0100
0000
0000
0000
0000
0000
0000
0000
0001
0000
0000
0000
0000
0000
0000
0000
0000
0000
0000
0000
0000
0000
0000
0000
1000
0000
0000
0000
0000
0000
0000
0000
0000
0000
0000
0000
0000
0000
0000
0000
0000
0000
0000
0000
0000
0000
0000
0000
0100
0000
0000
0000
0000
0000
0000
0000
0010
0000
0000
0000
0000
0000
0000
0000
0001
0000
0000
0000
0000
0000
0000
0000
0000
0000
0000
0000
0000
0000
0000
0000
0001
0000
0000
0000
0000
0000
0000
0000
0000
0000
0000
0000
0000
0000
0000
0000
0100
0000
0000
0000
0000
0000
0000
0000
0001
0000
0000
0000
0000
0000
0000
0000
0100
0000
0000
0000
0000
0000
0000
0000
0010
0000
0000
0000
0000
0000
0000
0000
0000
0000
0000
0000
0010
0000
0000
0000
0000
0000
0100
0000
0000
0000
0000
0000
,  // measure 28
0001
0000
0000
0000
0000
0000
0000
0000
0010
0000
0000
0000
0000
0000
0000
0000
0100
0000
0000
0000
0000
0000
0000
0000
1000
0000
0000
0000
0000
0000
0000
0000
0000
0000
0000
0000
0010
0000
0000
0000
0000
0000
0000
0000
0000
0000
0000
0000
0100
0000
0000
0000
0000
0000
0001
0000
0000
0000
0000
0000
1000
0000
0000
0000
0000
0000
0001
0000
0000
0000
0000
0000
1000
0000
0000
0000
0000
0000
0000
0000
0100
0000
0000
0000
0000
0000
0000
0000
0010
0000
0000
0000
0000
0000
0000
0000
0000
0000
0000
0000
0000
0000
0000
0000
0000
0000
0000
0000
0000
0000
0000
0000
0000
0000
0000
0000
0000
0000
0000
0000
1001
0000
0000
0000
0000
0000
0000
0000
0000
0000
0000
0000
0000
0000
0000
0000
0001
0000
0000
0000
0000
0000
0000
0000
0100
0000
0000
0000
0000
0000
0000
0000
0000
0000
0000
0000
0000
0000
0000
0000
0000
0000
0000
0000
0000
0000
0000
0000
1000
0000
0000
0000
0000
0000
0000
0000
0000
0000
0000
0000
0100
0000
0000
0000
0000
0000
0000
0000
0000
0000
0000
0000
,  // measure 29
0101
0001
2000
0000
0000
0000
0000
0000
3000
0000
0020
0000
1030
0100
1000
0000
,  // measure 30
0020
0000
0031
0010
0001
0000
0010
1000
0000
0000
0200
0000
0301
0100
1000
0000
,  // measure 31
0000
0000
0000
0000
0000
0000
0000
0000
0000
0000
0000
0000
0000
0000
0000
0000
0000
0000
0000
0000
0000
0000
0000
0000
0010
0000
0000
0000
0000
0000
0000
0000
0000
0000
0000
0000
0100
0000
0000
0000
0000
0000
0000
0000
0000
0000
0000
0000
0000
0000
0000
0000
0000
0000
0000
0000
0000
0000
0000
0000
0100
0000
0000
0000
0000
0000
0000
0000
0000
0000
0000
0000
0001
0000
0000
0000
0000
0000
0000
0000
0000
0000
0000
0000
0000
0000
0000
0000
0000
0000
0000
0000
0000
0000
0000
0000
0020
0000
0000
0000
0000
0000
0000
0000
0000
0000
0000
0000
0000
0000
0000
0000
0000
0000
0000
0000
0000
0000
0000
0000
0130
0000
0000
0000
0000
0000
0000
0000
0000
0000
0000
0000
0001
0000
0000
0000
0000
0000
0000
0000
0000
0000
0000
0000
0100
0000
0000
0000
0000
0000
0000
0000
0000
0000
0000
0000
0100
0000
0000
0000
0000
0000
1000
0000
0000
0000
0000
0000
0000
0000
0000
0000
1000
0000
0000
0000
0000
0000
0000
0000
0000
0000
0000
0000
1000
0000
0000
0000
0000
0100
0000
0000
,  // measure 32
0000
0000
0020
0000
0031
0100
1000
0000
0110
0000
0110
0001
0000
0011
1000
0000
,  // measure 33
1100
1000
0010
0100
1000
0000
1000
0100
0001
0000
0010
0100
0001
1000
0010
0000
,  // measure 34
0001
0000
0000
1000
0000
0000
0010
0000
0000
0100
0000
0000
0001
0000
0010
0100
0000
0000
1000
0000
0010
0100
0000
0000
0001
0000
0000
0000
1000
0000
0001
0000
0000
0000
0001
0000
0100
0000
0000
0000
0000
0000
0100
0000
0000
0000
0000
0000
,  // measure 35
0110
0010
1000
0000
1000
0100
0001
0100
1000
0010
1000
0001
0010
0001
0100
0010
,  // measure 36
1000
0000
0000
0001
0000
0000
1000
0000
0000
0000
0000
0000
1000
0000
0000
0000
0010
0000
0000
1000
0000
0000
0100
0000
1000
0000
0010
0000
0000
0000
0000
0000
0010
0000
0100
0000
0001
0000
0000
0000
0000
0000
0011
0000
0000
0000
0000
0000
,  // measure 37
1001
0000
0000
0000
0000
0000
0000
0000
0000
0000
0000
0000
1000
0000
0000
0000
0000
0000
0000
0000
0000
0000
0000
0000
0010
0000
0000
0000
0000
0000
0000
0000
0000
0000
0000
0000
0010
0000
0000
0000
0000
0000
0000
0000
0000
0000
0000
0000
0100
0000
0000
0000
0000
0000
0000
0000
0000
0000
0000
0000
0100
0000
0000
0000
0000
0000
1000
0000
0000
0000
0000
0000
0100
0000
0000
0000
0000
0000
0010
0000
0000
0000
0000
0000
0000
0000
0000
0000
1000
0000
0000
0000
0000
0000
0000
0000
0100
0000
0000
0000
0000
0000
1000
0000
0000
0000
0000
0000
0000
0000
0000
0000
0000
0000
0000
0000
0000
0000
0000
0000
0100
0000
0000
0000
0000
0000
0000
0000
0010
0000
0000
0000
0000
0000
0000
0000
0001
0000
0000
0000
0000
0000
0000
0000
0010
0000
0000
0000
0000
0000
0000
0000
0000
0000
0000
0000
0001
0000
0000
0000
0000
0000
0000
0000
0000
0000
0000
0000
0000
0000
0000
0000
0000
0000
0000
0000
0000
0000
0000
0000
0001
0000
0000
0000
0000
0000
0000
0000
0000
0000
0000
0000
,  // measure 38
0100
0000
1000
0000
0100
0000
0010
0000
1000
0000
0001
0000
0000
0000
0001
0000
0000
0000
0010
0000
0000
0000
0000
0000
0000
0000
0000
0010
0000
0000
0001
0000
0000
0000
0000
0000
0001
0000
0000
0000
0100
0000
0000
0000
0010
0000
0000
0000
,  // measure 39
1001
0000
2002
0000
0000
0000
0000
0000
3003
0000
2000
0000
3010
0100
1000
0000
,  // measure 40
0200
0000
0310
1000
0100
0000
0001
0100
0000
0000
1000
1000
1000
0000
0010
0100
,  // measure 41
0001
0000
0020
0000
1030
0010
0100
0000
2000
0000
3010
0100
1000
0100
0001
0000
,  // measure 42
1001
0000
2000
0000
3100
0001
1000
0001
0100
0000
1000
1000
0010
0010
0001
0000
,  // measure 43
0010
0000
0000
1000
0000
0000
0100
0000
0000
0001
0000
0000
0200
0000
0000
0000
0000
0000
1300
0000
0000
0000
0000
0000
0000
0000
0001
0000
0001
0000
0100
0000
0010
1000
0010
0000
0000
0000
0000
0000
1000
0000
0000
0000
0010
0000
0000
0100
,  // measure 44
0000
0010
0000
0000
0000
0000
0000
0000
0000
0000
0000
0000
1000
0000
0000
0000
0000
0000
1001
0000
0000
0000
0000
0000
0000
0000
0000
0000
0000
0000
2000
0000
0000
0000
0000
0000
3001
0000
0000
0100
0000
0000
1000
0000
0000
0000
0000
0000
,  // measure 45
0000
0000
0000
0000
1000
0000
0000
0000
0000
0100
0000
0000
0001
0000
0000
1000
0000
0000
0000
0000
0000
0200
0000
0000
0000
0000
0000
0301
0000
0000
0101
0000
0000
0100
0000
0000
1000
0000
0000
1100
0000
0000
1000
0000
0000
0001
0000
0000
,  // measure 46
1002
0000
0000
1003
0001
1000
0000
0000
0220
0000
0000
0000
0000
0000
0000
0000
,  // measure 47
0330
0000
0000
0010
0000
0000
0000
0000
0000
0000
0020
0000
0000
0000
0000
0000
0000
0000
0000
0000
0000
0000
0000
0000
0000
0000
0000
0000
0000
0000
0000
0000
0000
0000
0000
0000
0000
0000
0000
0000
1000
0000
0001
0000
2030
0000
0000
0000
,  // measure 48
0000
0000
0000
0002
0000
0000
0000
0000
0000
0003
0000
0001
0000
0000
0200
0000
0000
0000
0000
0000
0000
0000
0000
0000
,  // measure 49
0000
0000
0000
3300
0000
0000
0000
0000
;
